osu file format v14

[General]
AudioFilename: audio.mp3
AudioLeadIn: 0
PreviewTime: 37672
Countdown: 1
SampleSet: Soft
StackLeniency: 0.7
Mode: 2
LetterboxInBreaks: 0
WidescreenStoryboard: 1

[Editor]
Bookmarks: 76665
DistanceSpacing: 1.5
BeatDivisor: 4
GridSize: 4
TimelineZoom: 1

[Metadata]
Title:Bomb Rush Blush
TitleUnicode:Bomb Rush Blush
Artist:Callie from Squid Sisters
ArtistUnicode:Callie from Squid Sisters
Creator:brenkip
Version:Platter
Source:Splatoon
Tags:
BeatmapID:1378936
BeatmapSetID:648589

[Difficulty]
HPDrainRate:5
CircleSize:4
OverallDifficulty:8
ApproachRate:8
SliderMultiplier:1.6
SliderTickRate:1

[Events]
//Background and Video events
0,0,"827ad5a059feb7ca14c90a71bdb3c7b7.jpg",0,0
//Break Periods
//Storyboard Layer 0 (Background)
//Storyboard Layer 1 (Fail)
//Storyboard Layer 2 (Pass)
//Storyboard Layer 3 (Foreground)
//Storyboard Sound Samples

[TimingPoints]
172.139050098239,375.005771392879,4,2,0,100,1,0
914,-100,4,2,0,100,0,0
1289,-100,4,2,0,100,0,0
1476,-100,4,2,0,100,0,0
1664,-100,4,2,0,100,0,0
9164,-100,4,2,0,100,0,0
9351,-100,4,2,0,100,0,0
13008,-100,4,2,0,100,0,0
13289,-100,4,2,0,100,0,0
13664,-100,4,2,0,100,0,0
25102,-100,4,2,0,100,0,0
25477,-100,4,2,0,100,0,0
27164,-100,4,2,0,100,0,0
27539,-100,4,2,0,100,0,0
30164,-100,4,2,0,100,0,0
30539,-100,4,2,0,100,0,0
32602,-100,4,2,0,100,0,0
32789,-100,4,2,0,100,0,0
33914,-100,4,2,0,100,0,0
34664,-100,4,2,0,100,0,0
37289,-100,4,2,0,100,0,0
37687,-100,4,2,0,100,0,1
46664,-100,4,2,0,100,0,1
49102,-100,4,2,0,100,0,1
49672,-100,4,2,0,100,0,1
50602,-100,4,2,0,100,0,1
50977,-100,4,2,0,100,0,1
52102,-100,4,2,0,100,0,1
52664,-100,4,2,0,100,0,1
55102,-100,4,2,0,100,0,1
55477,-100,4,2,0,100,0,1
58665,-100,4,2,0,100,0,1
61196,-100,4,2,0,100,0,1
61673,-100,4,2,0,100,0,1
62048,-100,4,2,0,100,0,0
64477,-100,4,2,0,100,0,0
73102,-100,4,2,0,100,0,0
73665,-100,4,2,0,100,0,0

[Colours]
Combo1 : 82,23,121
Combo2 : 222,158,224
Combo3 : 216,36,236
Combo4 : 112,48,218

[HitObjects]
328,192,172,5,4,0:0:0:0:
188,192,547,1,4,0:0:0:0:
328,192,922,2,0,L|368:192,2,40
192,192,1297,1,8,0:0:0:0:
292,140,1484,1,0,0:0:0:0:
188,104,1672,6,0,L|348:96,1,160,0|8,0:0|0:0,0:0:0:0:
236,104,2234,1,0,0:0:0:0:
396,208,2422,2,0,P|452:224|392:248,1,160,0|8,0:0|0:0,0:0:0:0:
296,304,2984,1,0,0:0:0:0:
412,232,3172,6,0,L|436:312,1,80,2|0,0:0|0:0,0:0:0:0:
260,235,3547,2,0,L|228:139,1,80,8|0,0:0|0:0,0:0:0:0:
368,60,3922,2,0,L|436:240,1,160,2|8,0:0|0:0,0:0:0:0:
312,232,4484,1,0,0:0:0:0:
452,256,4672,6,0,P|500:204|440:160,1,160,0|8,0:0|0:0,0:0:0:0:
348,128,5234,1,0,0:0:0:0:
460,80,5422,2,0,P|376:56|308:120,1,160,0|8,0:0|0:0,0:0:0:0:
204,136,5984,1,0,0:0:0:0:
312,140,6172,6,0,P|352:156|336:216,1,80,2|0,0:0|0:0,0:0:0:0:
192,276,6547,2,0,P|160:248|160:212,1,80,2|0,0:0|0:0,0:0:0:0:
328,128,6922,2,0,P|392:164|316:176,1,160,2|8,0:0|0:0,0:0:0:0:
236,216,7484,1,0,0:0:0:0:
360,296,7672,6,0,L|192:296,1,160,0|8,0:0|0:0,0:0:0:0:
128,256,8234,1,0,0:0:0:0:
248,208,8422,2,0,L|80:228,1,160,0|8,0:0|0:0,0:0:0:0:
216,272,8984,1,0,0:0:0:0:
120,260,9172,2,0,L|64:260,2,40
264,192,9547,2,0,L|360:192,1,80,8|0,0:0|0:0,0:0:0:0:
240,132,9922,2,0,L|160:132,1,80,2|0,0:0|0:0,0:0:0:0:
116,160,10203,1,0,0:0:0:0:
160,192,10297,1,8,0:0:0:0:
312,144,10484,5,0,0:0:0:0:
200,100,10672,2,0,L|304:100,1,80,2|0,0:0|0:0,0:0:0:0:
176,104,11047,1,8,0:0:0:0:
280,156,11234,1,0,0:0:0:0:
168,188,11422,2,0,L|60:188,1,80,2|0,0:0|0:0,0:0:0:0:
352,280,11797,2,0,L|440:280,1,80,8|0,0:0|0:0,0:0:0:0:
304,192,12172,5,2,0:0:0:0:
416,192,12359,1,0,0:0:0:0:
304,192,12547,1,2,0:0:0:0:
196,192,12734,1,0,0:0:0:0:
328,192,12922,6,0,L|380:192,2,40,2|0|0,0:0|0:0|0:0,0:0:0:0:
216,192,13297,1,2,0:0:0:0:
328,160,13484,1,0,0:0:0:0:
202,134,13672,6,0,L|358:194,2,160,0|8|0,0:0|0:0|0:0,0:0:0:0:
84,192,14609,1,0,0:0:0:0:
196,192,14797,2,0,L|100:192,1,80,8|0,0:0|0:0,0:0:0:0:
244,192,15172,1,2,0:0:0:0:
128,192,15359,1,0,0:0:0:0:
252,192,15547,1,2,0:0:0:0:
372,192,15734,1,0,0:0:0:0:
260,148,15922,2,0,L|292:68,1,80,2|0,0:0|0:0,0:0:0:0:
164,152,16297,2,0,L|112:256,1,80,2|0,0:0|0:0,0:0:0:0:
304,152,16672,6,0,L|368:320,1,160,2|8,0:0|0:0,0:0:0:0:
232,320,17234,1,0,0:0:0:0:
356,328,17422,2,0,L|192:328,2,160,0|8|0,0:0|0:0|0:0,0:0:0:0:
452,260,18359,1,0,0:0:0:0:
368,188,18547,1,8,0:0:0:0:
452,128,18734,1,0,0:0:0:0:
316,124,18922,2,0,L|472:60,1,160,2|8,0:0|0:0,0:0:0:0:
272,84,19672,6,0,L|116:144,2,160,0|8|0,0:0|0:0|0:0,0:0:0:0:
176,48,20609,1,0,0:0:0:0:
284,104,20797,1,8,0:0:0:0:
176,176,20984,1,0,0:0:0:0:
304,168,21172,2,0,L|288:256,1,80,2|0,0:0|0:0,0:0:0:0:
144,240,21547,2,0,L|128:324,1,80,2|0,0:0|0:0,0:0:0:0:
248,328,21922,2,0,L|340:328,2,80,2|0|8,0:0|0:0|0:0,0:0:0:0:
108,328,22484,1,0,0:0:0:0:
376,288,22672,6,0,L|492:164,2,160,2|8|0,0:0|0:0|0:0,0:0:0:0:
136,188,23797,1,8,0:0:0:0:
340,144,24172,6,0,L|436:144,2,80,8|0|8,0:0|0:0|0:0,0:0:0:0:
236,200,24735,1,0,0:0:0:0:
380,264,24922,1,8,0:0:0:0:
244,312,25110,2,0,L|200:312,2,40
388,312,25485,1,0,0:0:0:0:
232,192,25672,6,0,L|416:192,1,160,0|8,0:0|0:0,0:0:0:0:
256,128,26235,1,0,0:0:0:0:
100,152,26422,2,0,L|20:300,1,160,0|8,0:0|0:0,0:0:0:0:
160,324,26985,1,0,0:0:0:0:
21,334,27172,2,0,L|-3:270,3,40
84,288,27547,6,0,L|100:188,1,80,8|0,0:0|0:0,0:0:0:0:
8,192,27922,1,0,0:0:0:0:
196,124,28110,1,0,0:0:0:0:
88,72,28297,1,8,0:0:0:0:
216,68,28485,1,0,0:0:0:0:
360,76,28672,6,0,L|216:200,2,160,0|8|0,0:0|0:0|0:0,0:0:0:0:
472,72,29610,1,0,0:0:0:0:
348,124,29797,1,8,0:0:0:0:
468,192,29985,1,0,0:0:0:0:
344,212,30172,2,0,L|364:248,3,40
288,264,30547,6,0,L|180:240,1,80,8|0,0:0|0:0,0:0:0:0:
348,188,30922,2,0,L|332:92,1,80,2|0,0:0|0:0,0:0:0:0:
460,220,31297,2,0,L|472:112,1,80,8|0,0:0|0:0,0:0:0:0:
308,96,31672,6,0,P|392:76|488:100,2,160,0|8|0,0:0|0:0|0:0,0:0:0:0:
440,196,32610,2,0,L|468:256,2,40,2|0|10,0:0|0:0|0:0,0:0:0:0:
296,192,32985,1,0,0:0:0:0:
440,196,33172,2,0,L|464:100,1,80,2|0,0:0|0:0,0:0:0:0:
296,192,33547,2,0,L|264:84,1,80,8|0,0:0|0:0,0:0:0:0:
420,184,33922,5,0,0:0:0:0:
476,208,34016,1,0,0:0:0:0:
496,260,34110,1,8,0:0:0:0:
480,316,34203,1,0,0:0:0:0:
424,344,34297,1,8,0:0:0:0:
376,332,34391,1,0,0:0:0:0:
348,292,34485,1,8,0:0:0:0:
372,256,34578,1,0,0:0:0:0:
428,240,34672,6,0,P|464:172|416:88,1,160,4|0,0:0|0:0,0:0:0:0:
137,247,35422,6,0,P|101:179|149:95,1,160,4|0,0:0|0:0,0:0:0:0:
348,272,36172,6,0,L|364:180,1,80,4|0,0:0|0:0,0:0:0:0:
200,272,36547,6,0,L|184:180,1,80,4|0,0:0|0:0,0:0:0:0:
348,276,36922,2,0,P|408:260|408:176,1,120,4|0,0:0|0:0,0:0:0:0:
372,200,37297,5,0,0:0:0:0:
324,172,37391,1,0,0:0:0:0:
320,124,37485,1,0,0:0:0:0:
364,96,37578,1,0,0:0:0:0:
424,96,37672,6,0,L|320:96,1,80,4|0,0:0|0:0,0:0:0:0:
440,172,38047,1,8,0:0:0:0:
312,192,38235,1,0,0:0:0:0:
448,264,38422,2,0,L|476:344,1,80
316,336,38797,1,8,0:0:0:0:
168,304,38985,5,0,0:0:0:0:
300,264,39172,2,0,L|320:184,1,80
188,192,39547,2,0,L|176:276,1,80,8|0,0:0|0:0,0:0:0:0:
48,312,39922,1,2,0:0:0:0:
188,336,40110,1,0,0:0:0:0:
68,288,40297,6,0,L|44:184,1,80,8|0,0:0|0:0,0:0:0:0:
208,176,40672,2,0,L|224:272,1,80,2|0,0:0|0:0,0:0:0:0:
352,196,41047,2,0,L|384:92,1,80,2|0,0:0|0:0,0:0:0:0:
208,104,41422,2,0,L|124:164,1,80,2|0,0:0|0:0,0:0:0:0:
260,192,41797,5,8,0:0:0:0:
364,192,41985,2,0,L|272:192,2,80
464,172,42547,1,8,0:0:0:0:
328,128,42735,2,0,L|224:128,1,80,0|2,0:0|0:0,0:0:0:0:
392,132,43110,1,2,0:0:0:0:
404,188,43297,1,8,0:0:0:0:
440,192,43485,1,0,0:0:0:0:
144,312,43672,6,0,L|124:216,1,80,2|0,0:0|0:0,0:0:0:0:
264,192,44047,1,8,0:0:0:0:
143,104,44235,2,0,L|115:196,1,80,0|2,0:0|0:0,0:0:0:0:
256,96,44610,1,0,0:0:0:0:
364,60,44797,2,0,L|196:84,2,160,8|2|8,0:0|0:0|0:0,0:0:0:0:
488,128,45735,1,0,0:0:0:0:
344,136,45922,6,0,L|424:160,1,80
296,192,46297,1,8,0:0:0:0:
416,240,46485,1,0,0:0:0:0:
280,296,46672,2,0,L|360:244,1,80,2|0,0:0|0:0,0:0:0:0:
191,259,47047,2,0,L|211:163,1,80,8|0,0:0|0:0,0:0:0:0:
84,280,47422,2,0,L|48:192,1,80,2|0,0:0|0:0,0:0:0:0:
204,188,47797,6,0,L|291:186,2,80,8|0|2,0:0|0:0|0:0,0:0:0:0:
88,192,48360,1,0,0:0:0:0:
232,192,48547,1,2,0:0:0:0:
376,192,48735,2,0,L|464:192,1,80,0|2,0:0|0:0,0:0:0:0:
312,192,49110,2,2,L|304:236,2,40
456,192,49485,2,2,L|468:128,1,40
384,196,49672,6,0,L|208:184,1,160,4|8,0:0|0:0,0:0:0:0:
304,244,50235,1,0,0:0:0:0:
168,256,50422,1,0,0:0:0:0:
296,220,50610,2,0,L|304:160,2,40
160,112,50985,1,0,0:0:0:0:
300,104,51172,6,0,L|136:116,1,160,2|8,0:0|0:0,0:0:0:0:
272,192,51735,1,0,0:0:0:0:
144,192,51922,1,0,0:0:0:0:
256,260,52110,2,0,L|232:324,2,40,0|0|8,0:0|0:0|0:0,0:0:0:0:
392,328,52485,1,0,0:0:0:0:
256,320,52672,6,0,L|208:236,1,80,2|0,0:0|0:0,0:0:0:0:
380,324,53047,2,0,L|416:244,1,80,2|0,0:0|0:0,0:0:0:0:
240,192,53422,2,0,L|256:100,1,80,2|0,0:0|0:0,0:0:0:0:
420,188,53797,2,0,L|392:92,1,80,2|0,0:0|0:0,0:0:0:0:
124,192,54172,6,0,L|28:192,2,80,2|0|8,0:0|0:0|0:0,0:0:0:0:
244,192,54735,1,0,0:0:0:0:
120,136,54922,1,2,0:0:0:0:
72,132,55110,2,2,L|32:132,2,40
140,132,55485,1,0,0:0:0:0:
436,192,55672,6,0,L|408:280,1,80,2|0,0:0|0:0,0:0:0:0:
276,296,56047,1,8,0:0:0:0:
428,292,56235,2,0,L|484:208,1,80
312,196,56610,1,0,0:0:0:0:
424,140,56798,2,0,L|332:144,1,80,8|0,0:0|0:0,0:0:0:0:
480,136,57173,6,0,L|512:216,1,80,2|0,0:0|0:0,0:0:0:0:
368,80,57548,2,0,L|284:96,1,80,2|0,0:0|0:0,0:0:0:0:
420,128,57923,2,0,L|520:144,1,80,2|0,0:0|0:0,0:0:0:0:
344,160,58298,2,0,L|256:184,1,80,2|0,0:0|0:0,0:0:0:0:
432,324,58673,6,0,P|472:268|424:184,1,160,4|0,0:0|0:0,0:0:0:0:
177,291,59423,6,0,P|137:235|185:151,1,160,4|0,0:0|0:0,0:0:0:0:
424,248,60173,6,0,L|468:168,1,80,8|0,0:0|0:0,0:0:0:0:
296,244,60548,2,0,L|296:152,1,80,8|0,0:0|0:0,0:0:0:0:
160,244,60923,2,0,L|116:164,1,80,8|0,0:0|0:0,0:0:0:0:
64,168,61204,1,0,0:0:0:0:
24,132,61298,1,8,0:0:0:0:
40,88,61391,1,0,0:0:0:0:
80,60,61485,1,8,0:0:0:0:
144,64,61579,1,0,0:0:0:0:
244,64,61673,6,0,P|312:92|304:184,1,160,4|2,0:0|0:0,0:0:0:0:
216,208,62235,1,0,0:0:0:0:
356,240,62423,2,0,P|296:268|192:268,1,160,2|0,0:0|0:0,0:0:0:0:
368,300,62985,1,0,0:0:0:0:
260,240,63173,2,0,L|220:160,1,80,8|0,0:0|0:0,0:0:0:0:
368,96,63548,2,0,L|408:176,1,80,8|0,0:0|0:0,0:0:0:0:
248,272,63923,2,0,L|156:128,1,160,8|0,0:0|0:0,0:0:0:0:
284,88,64485,1,0,0:0:0:0:
144,76,64673,6,0,L|308:72,1,160,2|0,0:0|0:0,0:0:0:0:
152,160,65235,1,0,0:0:0:0:
312,191,65423,2,0,P|288:267|204:303,1,160,2|0,0:0|0:0,0:0:0:0:
96,264,65985,1,0,0:0:0:0:
256,292,66173,2,0,L|348:284,1,80,8|0,0:0|0:0,0:0:0:0:
188,240,66548,2,0,L|96:232,1,80,8|0,0:0|0:0,0:0:0:0:
264,192,66923,2,0,L|432:188,1,160,8|0,0:0|0:0,0:0:0:0:
276,188,67485,1,0,0:0:0:0:
436,120,67673,6,0,P|468:164|392:232,1,160,2|0,0:0|0:0,0:0:0:0:
256,232,68235,1,0,0:0:0:0:
408,328,68423,2,0,P|432:284|340:228,1,160,2|0,0:0|0:0,0:0:0:0:
216,196,68985,1,0,0:0:0:0:
332,184,69173,2,0,L|216:168,1,80,8|0,0:0|0:0,0:0:0:0:
408,164,69548,2,0,L|504:156,1,80,8|0,0:0|0:0,0:0:0:0:
344,68,69923,2,0,P|284:68|220:144,1,160,8|0,0:0|0:0,0:0:0:0:
356,192,70485,1,0,0:0:0:0:
200,268,70673,6,0,L|180:180,1,80,2|0,0:0|0:0,0:0:0:0:
320,192,71048,2,0,L|340:272,1,80,2|0,0:0|0:0,0:0:0:0:
180,272,71423,2,0,L|156:184,1,80,8|0,0:0|0:0,0:0:0:0:
444,272,71798,2,0,L|456:192,1,80,8|0,0:0|0:0,0:0:0:0:
300,156,72173,5,2,0:0:0:0:
432,172,72360,1,0,0:0:0:0:
304,192,72548,2,0,L|224:192,1,80,2|0,0:0|0:0,0:0:0:0:
384,300,72923,1,2,0:0:0:0:
248,320,73110,5,8,0:0:0:0:
192,280,73204,1,0,0:0:0:0:
224,224,73298,1,8,0:0:0:0:
296,216,73392,1,0,0:0:0:0:
348,176,73486,1,8,0:0:0:0:
328,120,73580,1,0,0:0:0:0:
228,120,73673,6,0,P|180:176|240:232,1,160,4|0,0:0|0:0,0:0:0:0:
376,140,74423,6,0,P|424:196|364:252,1,160,4|0,0:0|0:0,0:0:0:0:
132,232,75173,6,0,L|92:152,1,80,8|0,0:0|0:0,0:0:0:0:
360,228,75548,2,0,L|400:148,1,80,8|0,0:0|0:0,0:0:0:0:
132,232,75923,2,0,P|108:160|184:128,1,160,4|0,0:0|0:0,0:0:0:0:
