osu file format v14

[General]
AudioFilename: audio.mp3
AudioLeadIn: 0
PreviewTime: 76155
Countdown: 0
SampleSet: Soft
StackLeniency: 0.7
Mode: 0
LetterboxInBreaks: 0
WidescreenStoryboard: 0

[Editor]
DistanceSpacing: 1.3
BeatDivisor: 6
GridSize: 16
TimelineZoom: 3.399999

[Metadata]
Title:Ojos Color Sol ft. Silvio Rodriguez
TitleUnicode:Ojos Color Sol ft. Silvio Rodríguez
Artist:Calle 13
ArtistUnicode:Calle 13
Creator:Tatan
Version:El Incandescente y Agraciado Resplandor de tus Pupilas
Source:
Tags:
BeatmapID:1723916
BeatmapSetID:822544

[Difficulty]
HPDrainRate:6
CircleSize:4.3
OverallDifficulty:8.5
ApproachRate:9.5
SliderMultiplier:1.8
SliderTickRate:1

[Events]
//Background and Video events
0,0,"be76b3ca825761132eab76a6de5eb274f982a55b.jpg",0,0
//Break Periods
2,67059,75585
//Storyboard Layer 0 (Background)
//Storyboard Layer 1 (Fail)
//Storyboard Layer 2 (Pass)
//Storyboard Layer 3 (Foreground)
//Storyboard Sound Samples

[TimingPoints]
1176,529.567519858782,4,2,2,60,1,0
1176,-250,4,2,2,60,0,0
5412,-100,4,2,2,60,0,0
13885,-76.9230769230769,4,2,2,60,0,0
24300,-133.333333333333,4,2,2,60,0,0
24653,-200,4,2,2,5,0,0
27053,384.615384615385,4,1,1,60,1,0
27053,-66.6666666666667,4,1,1,60,0,0
27822,-200,4,1,1,60,0,0
28591,-66.6666666666667,4,1,1,60,0,0
30129,-66.6666666666667,4,1,1,60,0,0
30898,-200,4,1,1,60,0,0
31668,-66.6666666666667,4,1,1,60,0,0
33206,-66.6666666666667,4,1,1,60,0,0
33975,-200,4,1,1,60,0,0
34745,-66.6666666666667,4,1,1,60,0,0
36283,-66.6666666666667,4,1,1,60,0,0
37052,-200,4,1,1,60,0,0
37822,-66.6666666666667,4,1,1,60,0,0
39360,-66.6666666666667,4,1,1,60,0,0
40129,-200,4,1,1,60,0,0
40899,-66.6666666666667,4,1,1,60,0,0
42437,-66.6666666666667,4,1,1,60,0,0
43206,-200,4,1,1,60,0,0
43976,-66.6666666666667,4,1,1,60,0,0
46668,-200,4,1,1,60,0,0
47053,-66.6666666666667,4,1,1,60,0,0
49360,-200,4,1,1,60,0,0
50129,-66.6666666666667,4,1,1,60,0,0
52437,-200,4,1,1,60,0,0
53014,-66.6666666666667,4,1,1,60,0,0
54745,-66.6666666666667,4,1,1,60,0,0
55514,-200,4,1,1,60,0,0
56283,-66.6666666666667,4,1,1,60,0,0
58591,-200,4,1,1,60,0,0
59360,-66.6666666666667,4,1,1,60,0,0
76155,-66.6666666666667,4,1,2,60,0,1
82437,-50,4,1,2,60,0,1
100129,-1000,4,1,2,60,0,1
103976,529.567519858782,4,2,2,60,1,0
110419,-166.666666666667,4,1,1,60,0,0

[Colours]
Combo1 : 128,128,128
Combo2 : 255,128,64
Combo3 : 128,64,0
Combo4 : 255,191,128

[HitObjects]
213,94,1176,5,0,2:0:0:0:
184,178,1705,2,0,L|189:260,2,72,0|0|0,2:0|2:0|2:0,2:0:0:0:
134,95,3294,1,0,2:0:0:0:
105,179,3823,2,0,L|110:261,2,72,0|0|0,2:0|2:0|2:0,2:0:0:0:
37,283,5412,6,0,P|72:324|158:311,1,120,8|0,2:0|2:0,2:0:0:0:
207,206,5942,2,0,P|148:207|109:250,1,120,0|0,2:0|2:0,2:0:0:0:
134,327,6471,2,0,P|169:346|207:344,2,60,0|0|0,2:0|2:0|2:0,2:0:0:0:
245,279,7001,2,0,P|271:324|263:389,1,120,0|0,2:0|2:0,2:0:0:0:
207,206,7530,6,0,P|272:194|330:198,1,120,8|0,2:0|2:0,2:0:0:0:
383,263,8060,2,0,P|360:194|385:122,1,120,0|0,2:0|2:0,2:0:0:0:
511,176,8589,2,0,P|470:194|441:192,2,60,0|0|0,2:0|2:0|2:0,2:0:0:0:
477,0,9119,2,0,P|454:69|479:141,1,120,0|0,2:0|2:0,2:0:0:0:
373,62,9649,22,0,P|313:59|270:106,1,120,8|0,2:0|2:0,2:0:0:0:
328,242,10178,2,0,P|359:191|341:130,1,120,0|0,2:0|2:0,2:0:0:0:
249,242,10708,2,0,P|251:275|269:302,2,60,0|0|0,2:0|2:0|2:0,2:0:0:0:
320,352,11237,2,0,P|252:330|184:348,1,120,0|0,2:0|2:0,2:0:0:0:
175,229,11767,6,0,P|209:284|196:355,1,120,8|0,2:0|2:0,2:0:0:0:
96,192,12296,2,0,P|160:144|224:160,1,120,0|0,2:0|2:0,2:0:0:0:
83,279,12826,2,0,P|46:265|23:221,2,60,0|0|0,2:0|2:0|2:0,2:0:0:0:
175,229,13356,2,0,P|189:291|162:358,1,120,0|0,2:0|2:0,2:0:0:0:
96,192,13885,5,8,2:0:0:0:
130,108,14062,1,0,2:0:0:0:
215,84,14238,1,0,2:0:0:0:
290,138,14415,2,0,P|297:172|270:236,1,77.9999964294435,8|0,2:0|2:0,2:0:0:0:
199,166,14768,1,0,2:0:0:0:
130,108,14944,2,0,P|156:83|224:75,1,77.9999964294435,8|0,2:0|2:0,2:0:0:0:
199,166,15297,1,0,2:0:0:0:
184,257,15474,2,0,P|149:246|108:191,1,77.9999964294435,8|0,2:0|2:0,2:0:0:0:
199,166,15827,1,0,2:0:0:0:
284,209,16003,21,8,2:0:0:0:
349,147,16180,1,0,2:0:0:0:
436,172,16356,1,0,2:0:0:0:
458,259,16533,2,0,P|426:311|386:324,1,77.9999964294435,8|0,2:0|2:0,2:0:0:0:
371,234,16886,1,0,2:0:0:0:
437,172,17063,2,0,P|498:173|529:201,1,77.9999964294435,8|0,2:0|2:0,2:0:0:0:
458,259,17416,1,0,2:0:0:0:
371,234,17592,2,0,P|341:180|350:139,1,77.9999964294435,8|0,2:0|2:0,2:0:0:0:
436,172,17945,1,0,2:0:0:0:
458,259,18122,5,8,2:0:0:0:
396,323,18298,1,0,2:0:0:0:
311,292,18475,1,0,2:0:0:0:
225,316,18651,2,0,L|133:319,1,77.9999964294435,8|0,2:0|2:0,2:0:0:0:
106,238,19004,1,0,2:0:0:0:
182,190,19181,2,0,L|274:193,1,77.9999964294435,8|0,2:0|2:0,2:0:0:0:
309,117,19534,1,0,2:0:0:0:
233,69,19711,2,0,L|141:72,1,77.9999964294435,8|0,2:0|2:0,2:0:0:0:
92,135,20063,1,0,2:0:0:0:
56,52,20240,5,8,2:0:0:0:
2,123,20416,1,0,2:0:0:0:
29,208,20593,1,0,2:0:0:0:
117,218,20769,2,0,L|205:213,1,77.9999964294435,8|0,2:0|2:0,2:0:0:0:
284,202,21123,1,0,2:0:0:0:
339,131,21299,21,8,2:0:0:0:
393,202,21475,1,0,2:0:0:0:
366,287,21652,1,0,2:0:0:0:
278,297,21828,2,0,L|190:292,1,77.9999964294435,8|0,2:0|2:0,2:0:0:0:
111,281,22182,1,0,2:0:0:0:
38,227,22358,5,8,2:0:0:0:
17,308,22535,1,0,2:0:0:0:
89,360,22711,1,0,2:0:0:0:
179,364,22888,2,0,P|201:319|196:281,1,77.9999964294435,8|0,2:0|2:0,2:0:0:0:
164,209,23241,1,0,2:0:0:0:
95,151,23417,2,0,P|73:106|78:68,1,77.9999964294435,8|0,2:0|2:0,2:0:0:0:
110,0,23770,1,0,2:0:0:0:
183,76,23947,1,8,2:0:0:0:
319,125,24300,5,0,2:0:0:0:
337,133,24388,1,0,2:0:0:0:
357,136,24476,1,0,2:0:0:0:
375,127,24565,2,0,B|415:83|461:108|485:162|457:225|395:197|351:257|351:257|330:185|262:190|257:123|298:79|350:71|375:127,1,506.250019311906,8|0,2:0|2:0,2:0:0:0:
238,232,27053,22,0,P|190:257|128:240,1,90.0000034332277,8|0,0:0|0:0,0:0:0:0:
89,193,27309,1,0,0:0:0:0:
267,146,27437,2,0,P|312:175|328:237,1,90.0000034332277
307,294,27693,1,0,0:0:0:0:
181,171,27822,38,0,L|188:78,1,90
430,77,28463,5,0,0:0:0:0:
372,145,28591,2,0,P|314:156|253:113,1,90.0000034332277,8|0,0:0|0:0,0:0:0:0:
330,64,28847,1,0,0:0:0:0:
372,145,28976,2,0,P|378:184|360:234,1,90.0000034332277
271,261,29232,1,0,0:0:0:0:
344,313,29360,1,0,0:0:0:0:
259,343,29745,6,0,L|262:369,1,22.5000008583069,4|0,0:0|0:0,0:0:0:0:
145,255,30001,5,0,0:0:0:0:
67,302,30129,2,0,P|53:256|71:203,1,90.0000034332277,8|0,0:0|0:0,0:0:0:0:
137,164,30386,1,0,0:0:0:0:
217,208,30514,2,0,P|184:243|129:254,1,90.0000034332277
62,216,30770,1,0,0:0:0:0:
60,124,30898,6,0,P|106:134|143:176,1,90.0000034332277
30,49,31540,5,0,0:0:0:0:
105,0,31668,2,0,L|226:6,1,90.0000034332277,8|0,0:0|0:0,0:0:0:0:
266,58,31924,1,0,0:0:0:0:
341,107,32052,2,0,L|462:101,1,90.0000034332277
503,48,32309,1,0,0:0:0:0:
417,19,32437,1,0,0:0:0:0:
499,143,32822,6,0,L|501:165,1,22.5000008583069,4|0,0:0|0:0,0:0:0:0:
432,289,33078,5,0,0:0:0:0:
373,221,33206,2,0,L|259:211,1,90.0000034332277,8|0,0:0|0:0,0:0:0:0:
200,250,33463,1,0,0:0:0:0:
272,302,33591,2,0,L|285:192,1,90.0000034332277
221,146,33847,1,0,0:0:0:0:
200,250,33976,6,0,P|161:264|96:248,1,90
96,16,34617,5,0,0:0:0:0:
150,88,34745,2,0,P|159:133|140:200,1,90.0000034332277,8|0,0:0|0:0,0:0:0:0:
61,175,35001,1,0,0:0:0:0:
7,247,35129,2,0,P|-2:292|17:359,1,90.0000034332277
89,368,35386,1,0,0:0:0:0:
113,257,35514,1,0,0:0:0:0:
284,334,35899,6,0,L|287:357,1,22.5000008583069,4|0,0:0|0:0,0:0:0:0:
416,152,36155,5,0,0:0:0:0:
456,232,36283,2,0,P|465:273|451:339,1,90.0000034332277,8|0,0:0|0:0,0:0:0:0:
375,356,36540,1,0,0:0:0:0:
328,279,36668,2,0,L|336:172,1,90.0000034332277
416,152,36924,1,0,0:0:0:0:
344,83,37053,6,0,P|293:69|233:78,1,90
108,271,37694,5,0,0:0:0:0:
185,226,37822,2,0,P|197:181|175:125,1,90.0000034332277,8|0,0:0|0:0,0:0:0:0:
106,182,38078,1,0,0:0:0:0:
178,311,38206,2,0,L|283:305,1,90.0000034332277
433,293,38463,1,0,0:0:0:0:
350,257,38591,1,0,0:0:0:0:
490,209,38976,6,0,L|516:212,1,22.5000008583069,4|0,0:0|0:0,0:0:0:0:
444,48,39360,5,8,0:0:0:0:
371,101,39488,1,0,0:0:0:0:
305,38,39617,2,0,P|253:20|189:26,1,90.0000034332277
152,139,39873,1,0,0:0:0:0:
242,108,40001,1,0,0:0:0:0:
67,54,40129,6,0,L|70:163,1,90
226,264,40899,6,0,P|179:245|128:254,1,90.0000034332277,2|0,0:0|0:0,0:0:0:0:
173,332,41155,1,0,0:0:0:0:
261,346,41283,2,0,L|353:340,1,90.0000034332277
428,293,41540,1,0,0:0:0:0:
343,262,41668,5,0,0:0:0:0:
493,203,41860,1,0,0:0:0:0:
372,106,42053,2,0,L|369:80,1,22.5000008583069,4|0,0:0|0:0,0:0:0:0:
215,193,42309,5,0,0:0:0:0:
288,141,42437,2,0,P|295:97|278:55,1,90.0000034332277,2|0,0:0|0:0,0:0:0:0:
193,25,42694,1,0,0:0:0:0:
125,113,42822,2,0,L|232:109,1,90.0000034332277
96,30,43078,1,0,0:0:0:0:
79,180,43206,6,0,L|74:246,1,60
68,322,43783,1,0,0:0:0:0:
158,220,43976,6,0,P|115:218|68:246,1,90.0000034332277,2|0,0:0|0:0,0:0:0:0:
180,310,44232,1,0,0:0:0:0:
245,248,44360,2,0,L|239:117,1,90.0000034332277
158,220,44617,1,0,0:0:0:0:
258,339,44745,1,0,0:0:0:0:
294,80,44937,1,0,0:0:0:0:
400,344,45129,6,0,L|403:370,1,22.5000008583069,4|0,0:0|0:0,0:0:0:0:
240,158,45514,5,0,0:0:0:0:
303,221,45642,1,0,0:0:0:0:
392,219,45770,1,0,0:0:0:0:
453,152,45899,2,0,L|444:49,1,90.0000034332277
343,138,46155,1,0,0:0:0:0:
435,300,46283,2,0,P|486:229|448:148,1,180.000006866455
332,220,46668,6,0,L|403:218,1,60
232,331,47053,5,0,0:0:0:0:
321,304,47181,2,0,P|338:267|319:200,1,90.0000034332277
181,202,47437,2,0,P|204:235|272:252,1,90.0000034332277
130,124,47694,1,0,0:0:0:0:
97,274,47822,1,0,0:0:0:0:
272,146,48014,1,0,0:0:0:0:
31,122,48206,6,0,L|7:121,1,22.5000008583069,4|0,0:0|0:0,0:0:0:0:
181,202,48463,5,0,0:0:0:0:
272,146,48591,2,0,L|277:41,1,90.0000034332277
184,111,48847,1,0,0:0:0:0:
305,223,48976,1,0,0:0:0:0:
362,64,49104,2,0,P|317:49|257:65,1,90.0000034332277
357,153,49360,6,0,L|362:48,1,90.0000034332277
305,223,50129,6,0,P|364:245|410:230,1,90.0000034332277
492,109,50386,1,0,0:0:0:0:
357,153,50514,1,0,0:0:0:0:
448,190,50642,1,0,0:0:0:0:
392,78,50770,1,0,0:0:0:0:
357,153,50899,1,0,0:0:0:0:
75,180,51283,6,0,L|47:177,1,16.8750006437302,4|0,0:0|0:0,0:0:0:0:
148,328,51540,5,0,0:0:0:0:
196,233,51668,2,0,L|203:113,1,90.0000034332277
108,250,51924,1,0,0:0:0:0:
244,331,52053,1,0,0:0:0:0:
281,229,52181,2,0,P|229:219|181:245,1,90.0000034332277
366,307,52437,6,0,B|371:201|371:201,1,90
137,83,53014,1,0,0:0:0:0:
150,105,53206,6,0,L|250:110,1,90.0000034332277
368,92,53463,1,0,0:0:0:0:
211,28,53591,1,0,0:0:0:0:
363,0,53719,1,0,0:0:0:0:
251,111,53847,1,0,0:0:0:0:
332,172,53976,1,0,0:0:0:0:
294,31,54360,6,0,L|292:8,1,16.8750006437302,4|0,0:0|0:0,0:0:0:0:
355,275,54617,1,0,0:0:0:0:
448,219,54745,6,0,P|459:172|443:124,1,90.0000034332277
380,60,55001,1,0,0:0:0:0:
292,105,55129,2,0,L|183:111,1,90.0000034332277
116,58,55386,1,0,0:0:0:0:
111,176,55514,22,0,L|108:230,2,45
25,248,56091,1,0,0:0:0:0:
86,347,56283,6,0,P|139:364|201:339,1,90.0000034332277
231,278,56540,1,0,0:0:0:0:
134,258,56668,1,0,0:0:0:0:
191,191,56796,2,0,L|305:187,1,90.0000034332277
380,189,57053,2,0,P|398:237|367:335,1,135.000005149842
336,120,57437,6,0,L|339:89,1,16.8750006437302,4|0,0:0|0:0,0:0:0:0:
343,11,57694,5,0,0:0:0:0:
258,62,57822,2,0,L|145:67,1,90.0000034332277
22,118,58078,1,0,0:0:0:0:
107,169,58206,2,0,L|220:174,1,90.0000034332277
314,176,58463,1,0,0:0:0:0:
174,247,58591,6,0,P|161:305|171:339,1,90
246,293,59168,1,0,0:0:0:0:
107,169,59360,5,0,0:0:0:0:
42,268,59488,1,0,0:0:0:0:
5,89,59617,2,0,L|2:-21,1,90.0000034332277
154,89,59873,1,0,0:0:0:0:
0,181,60001,1,0,0:0:0:0:
135,266,60129,1,0,0:0:0:0:
218,17,60322,1,0,0:0:0:0:
293,223,60514,6,0,L|291:242,1,16.8750006437302,4|0,0:0|0:0,0:0:0:0:
228,161,60899,6,0,P|301:133|354:163,1,90.0000034332277
374,249,61155,2,0,P|329:247|292:222,1,90.0000034332277
411,142,61411,1,0,0:0:0:0:
468,283,61540,1,0,0:0:0:0:
319,343,61668,5,0,0:0:0:0:
489,189,61860,1,0,0:0:0:0:
292,69,62053,1,0,0:0:0:0:
164,294,62437,6,0,L|168:412,1,90.0000034332277
257,283,62694,1,0,0:0:0:0:
127,202,62822,1,0,0:0:0:0:
74,345,62950,1,0,0:0:0:0:
233,188,63078,1,0,0:0:0:0:
34,216,63206,1,0,0:0:0:0:
360,208,63591,6,0,L|382:206,1,16.8750006437302,4|0,0:0|0:0,0:0:0:0:
295,129,63976,6,0,P|278:180|464:113,1,450.000017166138
483,140,64745,2,0,P|463:217|375:166,1,180.000006866455
382,196,65129,2,0,P|402:119|490:170,1,180.000006866455
482,140,65514,2,0,P|414:91|375:310,1,450.000017166138
375,310,66283,2,0,P|346:202|175:345,1,405.000015449525
176,107,76155,5,0,0:0:0:0:
176,107,76219,1,0,0:0:0:0:
176,107,76283,2,0,L|298:102,1,90.0000034332277,8|0,0:0|0:0,0:0:0:0:
391,164,76540,1,0,0:0:0:0:
263,267,76668,2,0,P|247:317|261:372,1,90.0000034332277
371,274,76924,1,0,0:0:0:0:
200,215,77053,2,0,L|78:222,1,90.0000034332277,4|0,0:0|0:0,0:0:0:0:
50,327,77309,1,0,0:0:0:0:
24,134,77437,1,0,0:0:0:0:
2,126,77822,21,8,0:0:0:0:
29,337,77950,1,0,0:0:0:0:
122,135,78078,1,0,0:0:0:0:
141,309,78206,1,0,0:0:0:0:
56,237,78335,1,0,0:0:0:0:
56,237,78399,1,0,0:0:0:0:
56,237,78463,1,0,0:0:0:0:
190,167,78591,6,0,P|246:167|281:178,1,84.3750032186509,4|0,0:0|0:0,0:0:0:0:
390,284,78847,1,0,0:0:0:0:
163,319,78976,1,0,0:0:0:0:
141,309,79360,5,8,0:0:0:0:
406,268,79488,1,0,0:0:0:0:
275,359,79617,1,0,0:0:0:0:
194,204,79745,2,0,L|185:78,1,90.0000034332277
283,224,80001,1,0,0:0:0:0:
108,103,80129,2,0,P|190:30|263:74,1,180.000006866455,4|0,0:0|0:0,0:0:0:0:
59,178,80514,2,0,P|24:130|31:77,1,90.0000034332277
187,114,80770,1,0,0:0:0:0:
101,260,80899,22,0,L|0:256,1,90.0000034332277,8|0,0:0|0:0,0:0:0:0:
194,204,81155,1,0,0:0:0:0:
136,331,81283,1,0,0:0:0:0:
59,178,81411,1,0,0:0:0:0:
187,114,81540,2,0,P|237:121|279:169,1,90.0000034332277,0|4,0:0|0:0,0:0:0:0:
288,241,81796,1,0,0:0:0:0:
203,289,81924,2,0,P|191:210|213:174,1,90.0000034332277
266,145,82181,1,0,0:0:0:0:
458,175,82309,5,0,0:0:0:0:
458,175,82373,1,0,0:0:0:0:
458,175,82437,2,0,P|440:234|269:205,1,240,8|0,0:0|0:0,0:0:0:0:
155,142,82822,6,0,P|219:124|278:158,1,120
144,240,83078,1,0,0:0:0:0:
64,160,83206,2,0,L|69:28,1,120,4|0,0:0|0:0,0:0:0:0:
160,160,83463,1,0,0:0:0:0:
16,272,83591,1,0,0:0:0:0:
9,281,83976,5,8,0:0:0:0:
170,335,84104,1,0,0:0:0:0:
112,192,84232,1,0,0:0:0:0:
96,384,84360,1,0,0:0:0:0:
240,272,84488,1,0,0:0:0:0:
240,272,84553,1,0,0:0:0:0:
240,272,84617,1,0,0:0:0:0:
127,188,84745,6,0,L|134:344,1,120,4|0,0:0|0:0,0:0:0:0:
224,176,85001,1,0,0:0:0:0:
32,128,85129,1,0,0:0:0:0:
25,115,85514,5,8,0:0:0:0:
240,80,85642,1,0,0:0:0:0:
96,32,85770,1,0,0:0:0:0:
205,175,85899,2,0,P|262:181|323:135,1,120
288,0,86155,1,0,0:0:0:0:
144,110,86283,2,0,P|112:174|231:266,1,240,4|0,0:0|0:0,0:0:0:0:
400,208,86668,2,0,P|318:207|261:251,1,120
354,316,86924,1,0,0:0:0:0:
480,272,87053,6,0,P|496:192|464:128,1,120,8|0,0:0|0:0,0:0:0:0:
352,96,87309,1,0,0:0:0:0:
467,73,87437,1,0,0:0:0:0:
348,0,87565,2,0,P|291:-8|220:4,1,120
192,192,87822,6,0,P|202:137|176:64,1,120,4|0,0:0|0:0,0:0:0:0:
96,192,88078,1,0,0:0:0:0:
304,224,88206,1,0,0:0:0:0:
304,224,88463,5,0,0:0:0:0:
304,224,88527,1,0,0:0:0:0:
304,224,88591,2,0,P|314:301|293:351,1,120,8|0,0:0|0:0,0:0:0:0:
112,320,88847,1,0,0:0:0:0:
218,277,88976,1,0,0:0:0:0:
48,240,89104,1,0,0:0:0:0:
144,192,89232,1,0,0:0:0:0:
18,372,89360,6,0,P|9:313|39:239,1,120,4|0,0:0|0:0,0:0:0:0:
224,288,89617,1,0,0:0:0:0:
122,332,89745,1,0,0:0:0:0:
133,345,90129,5,8,0:0:0:0:
176,192,90258,1,0,0:0:0:0:
265,363,90386,1,0,0:0:0:0:
112,320,90515,1,0,0:0:0:0:
288,256,90642,1,0,0:0:0:0:
80,224,90770,5,0,0:0:0:0:
80,224,90835,1,0,0:0:0:0:
80,224,90899,2,0,P|64:160|80:96,1,120,4|0,0:0|0:0,0:0:0:0:
208,16,91155,1,0,0:0:0:0:
0,48,91283,1,0,0:0:0:0:
5,58,91668,5,8,0:0:0:0:
160,112,91796,1,0,0:0:0:0:
96,32,91924,1,0,0:0:0:0:
75,146,92053,1,0,0:0:0:0:
256,80,92181,1,0,0:0:0:0:
184,24,92309,1,0,0:0:0:0:
244,164,92437,5,4,0:0:0:0:
336,128,92565,1,0,0:0:0:0:
160,112,92694,1,0,0:0:0:0:
227,249,92822,1,0,0:0:0:0:
256,80,92950,1,0,0:0:0:0:
142,205,93078,1,0,0:0:0:0:
314,217,93206,5,8,0:0:0:0:
160,112,93335,1,0,0:0:0:0:
304,304,93463,1,0,0:0:0:0:
256,80,93591,1,0,0:0:0:0:
220,337,93719,1,0,0:0:0:0:
393,191,93847,5,0,0:0:0:0:
393,191,93911,1,0,0:0:0:0:
393,191,93976,2,0,P|404:115|393:47,1,120,4|0,0:0|0:0,0:0:0:0:
227,249,94232,1,0,0:0:0:0:
468,284,94360,1,0,0:0:0:0:
212,234,94745,6,0,P|166:231|70:264,1,120,8|0,0:0|0:0,0:0:0:0:
272,320,95001,1,0,0:0:0:0:
320,224,95129,2,0,L|327:89,1,120
176,144,95386,1,0,0:0:0:0:
309,235,95514,2,0,P|385:248|432:240,1,120,4|0,0:0|0:0,0:0:0:0:
447,24,95770,1,0,0:0:0:0:
396,146,95899,1,0,0:0:0:0:
331,51,96155,5,0,0:0:0:0:
331,51,96219,1,0,0:0:0:0:
331,51,96283,2,0,P|266:42|191:53,1,120,8|0,0:0|0:0,0:0:0:0:
144,202,96540,1,0,0:0:0:0:
240,154,96668,1,0,0:0:0:0:
64,154,96796,1,0,0:0:0:0:
96,282,96924,1,0,0:0:0:0:
140,116,97053,6,0,P|143:46|126:-10,1,120,4|0,0:0|0:0,0:0:0:0:
16,240,97309,1,0,0:0:0:0:
192,304,97437,1,0,0:0:0:0:
50,129,97565,1,0,0:0:0:0:
112,368,97694,1,0,0:0:0:0:
264,178,97822,6,0,P|279:114|264:18,1,120,8|0,0:0|0:0,0:0:0:0:
144,224,98078,1,0,0:0:0:0:
400,272,98206,1,0,0:0:0:0:
205,315,98335,1,0,0:0:0:0:
400,160,98463,1,0,0:0:0:0:
320,352,98591,1,4,0:0:0:0:
293,259,98976,1,0,0:0:0:0:
277,170,99360,5,0,0:0:0:0:
277,170,99488,1,0,0:0:0:0:
277,170,99617,1,0,0:0:0:0:
277,170,99745,1,0,0:0:0:0:
277,170,99873,1,0,0:0:0:0:
277,170,100001,1,0,0:0:0:0:
277,170,100065,1,0,0:0:0:0:
277,170,100129,6,0,P|289:124|210:147,1,174
358,186,103976,6,0,P|400:194|434:189,1,60
491,158,104329,1,0,0:0:0:0:
305,245,104505,2,0,P|325:282|351:305,1,60
411,328,104858,1,0,0:0:0:0:
225,242,105035,2,0,P|209:281|208:316,1,60
230,376,105388,1,0,0:0:0:0:
161,196,105564,2,0,P|120:210|93:231,1,60
61,285,105917,1,0,0:0:0:0:
221,144,106094,5,0,0:0:0:0:
287,183,106270,1,0,0:0:0:0:
365,179,106447,1,0,0:0:0:0:
409,115,106623,1,0,0:0:0:0:
362,52,106800,1,0,0:0:0:0:
297,95,106976,1,0,0:0:0:0:
287,183,107153,5,0,0:0:0:0:
221,222,107329,1,0,0:0:0:0:
143,218,107506,1,0,0:0:0:0:
99,154,107682,1,0,0:0:0:0:
146,91,107859,1,0,0:0:0:0:
211,134,108035,1,0,0:0:0:0:
221,222,108212,5,0,0:0:0:0:
280,272,108389,1,0,0:0:0:0:
355,289,108565,1,0,0:0:0:0:
425,255,108742,1,0,0:0:0:0:
421,177,108918,1,0,0:0:0:0:
390,104,109095,1,0,0:0:0:0:
414,30,109271,5,0,0:0:0:0:
490,14,109448,1,0,0:0:0:0:
485,105,109624,1,0,0:0:0:0:
390,104,109801,1,0,0:0:0:0:
390,104,110154,5,0,0:0:0:0:
390,104,110242,1,0,0:0:0:0:
390,104,110330,1,0,0:0:0:0:
390,104,110419,2,0,B|340:121|290:104|290:104|239:87|189:104|189:104|138:121|122:171|138:222|189:238|239:222|256:171|239:121|239:121|222:71|172:54,1,575.999982421876
