osu file format v14

[General]
AudioFilename: audio.mp3
AudioLeadIn: 0
PreviewTime: 57897
Countdown: 0
SampleSet: Soft
StackLeniency: 0.2
Mode: 0
LetterboxInBreaks: 0
WidescreenStoryboard: 1

[Editor]
Bookmarks: 12341,12786,13341,14563,15230,26563,28341,28786,29008,29230,55008,55452,56452,56786,69230,71008,83452,84341,84674,84786,97674,98119,98563,99008,99452,99897
DistanceSpacing: 1
BeatDivisor: 4
GridSize: 8
TimelineZoom: 2.1

[Metadata]
Title:Vem brincar
TitleUnicode:Vem brincar
Artist:Caldeira feat. Teka Penteriche
ArtistUnicode:Caldeira feat. Téka Penteriche
Creator:Saturnalize
Version:Expert
Source:DanceDanceRevolution SuperNOVA2
Tags:DJ Yoshitaka TOMOSUKE TROPICAL HOUSE Portuguese
BeatmapID:1883712
BeatmapSetID:884577

[Difficulty]
HPDrainRate:6
CircleSize:4
OverallDifficulty:7
ApproachRate:8
SliderMultiplier:2.1
SliderTickRate:1

[Events]
//Background and Video events
0,0,"redhead-long-hair-anime-anime-girls-blue-eyes-water-beach-dress-original-characters-winking-inflatable-rings-screenshot-2560x1280-px-computer-wallpaper-mangaka-617630.jpg",0,0
//Break Periods
//Storyboard Layer 0 (Background)
//Storyboard Layer 1 (Fail)
//Storyboard Layer 2 (Pass)
//Storyboard Layer 3 (Foreground)
//Storyboard Layer 4 (Overlay)
//Storyboard Sound Samples

[TimingPoints]
1675,444.444444444444,4,2,2,100,1,0
1675,-125,4,2,2,100,0,0
8341,-100,4,2,2,100,0,0
8786,-125,4,2,2,100,0,0
10563,-125,4,2,2,100,0,0
12286,-125,4,2,3,100,0,0
12341,-125,4,2,10,100,0,0
12730,-125,4,2,11,100,0,0
12841,-125,4,2,12,100,0,0
12952,-125,4,2,17,100,0,0
13286,-125,4,2,15,100,0,0
13397,-125,4,2,14,100,0,0
13508,-125,4,2,15,100,0,0
13619,-125,4,2,12,100,0,0
13952,-125,4,2,11,100,0,0
14286,-125,4,2,12,100,0,0
14508,-125,4,2,13,100,0,0
14619,-125,4,2,14,100,0,0
14730,-125,4,2,15,100,0,0
14841,-125,4,2,16,100,0,0
14952,-125,4,2,17,100,0,0
15063,-125,4,2,18,100,0,0
15230,-125,4,2,2,100,0,0
15286,-125,4,2,2,5,0,0
15341,-125,4,2,2,100,0,0
15397,-125,4,2,2,5,0,0
15452,-83.3333333333333,4,2,2,100,0,0
15897,-100,4,2,2,100,0,1
15952,-100,4,2,2,100,0,0
22841,-100,4,2,99,100,0,0
22952,-100,4,2,2,100,0,0
30119,-100,4,2,2,100,0,0
32841,-100,4,2,98,100,0,0
32952,-100,4,2,2,100,0,0
36841,-100,4,2,98,100,0,0
36952,-100,4,2,2,100,0,0
37063,-100,4,2,99,100,0,0
37174,-100,4,2,97,100,0,0
37286,-100,4,2,2,100,0,0
39952,-100,4,2,98,100,0,0
40063,-100,4,2,2,100,0,0
44174,-100,4,2,99,100,0,0
44286,-100,4,2,2,100,0,0
44341,-100,4,2,2,100,0,0
50841,-100,4,2,98,100,0,0
50952,-100,4,2,2,100,0,0
51286,-100,4,2,99,100,0,0
51397,-100,4,2,2,100,0,0
56730,-100,4,2,97,100,0,0
57730,-100,4,2,2,100,0,0
57897,-100,4,2,2,100,0,0
57952,-100,4,2,2,5,0,0
58008,-100,4,2,2,100,0,0
58063,-100,4,2,2,5,0,0
58119,-83.3333333333333,4,2,2,100,0,0
58286,-100,4,2,2,5,0,0
58341,-100,4,2,97,100,0,0
58563,-100,4,2,2,100,0,1
59730,-100,4,2,98,100,0,1
59841,-100,4,2,2,100,0,1
61508,-100,4,2,98,100,0,1
61619,-100,4,2,2,100,0,1
61841,-100,4,2,2,5,0,1
61897,-100,4,2,2,100,0,1
63286,-100,4,2,98,100,0,1
63397,-100,4,2,2,100,0,1
65063,-100,4,2,98,100,0,1
65174,-100,4,2,2,100,0,1
65508,-100,4,2,99,100,0,1
65619,-100,4,2,2,100,0,1
72786,-125,4,2,2,100,0,0
73174,-125,4,2,97,100,0,0
79841,-125,4,2,2,100,0,0
79952,-125,4,2,97,100,0,0
86341,-125,4,2,2,100,0,0
86397,-125,4,2,2,5,0,0
86452,-125,4,2,2,100,0,0
86508,-125,4,2,2,5,0,0
86563,-83.3333333333333,4,2,2,100,0,0
87008,-100,4,2,2,100,0,1
87063,-100,4,2,2,100,0,0
93952,-100,4,2,99,100,0,0
94063,-100,4,2,2,100,0,0
99452,-100,4,2,2,100,0,0
101230,-208.333333333333,4,2,2,100,0,0
101341,-208.333333333333,4,2,2,85,0,0
101452,-208.333333333333,4,2,2,60,0,0
101563,-208.333333333333,4,2,2,45,0,0
101674,-208.333333333333,4,2,2,30,0,0
101786,-208.333333333333,4,2,2,20,0,0
101897,-208.333333333333,4,2,2,10,0,0
102008,-208.333333333333,4,2,2,5,0,0

[Colours]
Combo1 : 255,192,45
Combo2 : 72,255,72
Combo3 : 70,153,255
Combo4 : 242,38,69

[HitObjects]
45,138,1675,6,0,P|83:152|124:144,1,84,4|0,1:0|0:0,0:0:0:0:
201,79,2119,1,0,0:0:0:0:
204,71,2230,1,0,0:0:0:0:
219,170,2452,1,0,0:0:0:0:
317,101,2674,1,0,0:0:0:0:
334,90,2786,2,0,P|376:90|414:108,1,84
461,197,3230,2,0,L|454:248,1,42
451,259,3452,5,0,0:0:0:0:
360,303,3674,1,0,0:0:0:0:
361,323,3785,1,0,0:0:0:0:
275,269,4008,1,0,0:0:0:0:
177,292,4230,2,0,L|77:289,1,84
275,269,4786,2,0,L|358:271,1,84
431,202,5230,6,0,P|441:157|431:118,1,84
335,93,5674,1,0,0:0:0:0:
337,84,5786,1,0,0:0:0:0:
245,151,6008,1,0,0:0:0:0:
154,94,6230,1,0,0:0:0:0:
135,93,6341,2,0,L|51:93,1,84
17,187,6786,2,0,P|14:208|19:229,1,42
26,248,7008,5,0,0:0:0:0:
122,276,7230,1,0,0:0:0:0:
118,296,7341,1,0,0:0:0:0:
217,250,7563,1,0,0:0:0:0:
306,297,7786,2,0,L|398:297,2,84
284,312,8341,2,0,P|211:285|142:316,1,157.5
129,334,8786,5,4,0:3:0:0:
130,342,8897,1,4,0:3:0:0:
64,192,9230,1,0,0:0:0:0:
65,183,9341,1,0,0:0:0:0:
159,148,9563,1,0,0:0:0:0:
257,215,9786,1,0,0:0:0:0:
270,214,9897,2,0,L|353:210,1,84
419,128,10341,2,0,P|405:112|387:100,1,42
367,97,10563,5,0,0:0:0:0:
280,149,10786,1,0,0:0:0:0:
259,154,10897,1,0,0:0:0:0:
168,110,11119,1,0,0:0:0:0:
93,177,11341,2,0,L|100:260,1,84
168,110,11897,2,0,L|175:26,1,84
239,178,12341,5,0,0:0:0:0:
267,184,12452,1,0,0:0:0:0:
296,180,12563,1,0,0:0:0:0:
322,167,12674,1,0,0:0:0:0:
343,146,12786,1,0,0:0:0:0:
369,132,12897,1,0,0:0:0:0:
396,121,13008,1,0,0:0:0:0:
425,119,13119,1,0,0:0:0:0:
453,124,13230,6,0,L|442:182,1,42
431,239,13452,2,0,L|420:297,1,42
351,323,13674,2,0,L|340:265,1,42
329,208,13896,2,0,L|318:150,1,42
303,83,14119,5,0,0:0:0:0:
281,52,14230,1,0,0:0:0:0:
252,28,14341,1,0,0:0:0:0:
217,13,14452,1,0,0:0:0:0:
180,8,14563,1,0,0:0:0:0:
142,13,14674,1,0,0:0:0:0:
108,28,14785,1,0,0:0:0:0:
80,54,14897,1,0,0:0:0:0:
57,84,15008,6,0,L|62:125,1,42
135,222,15230,2,0,B|128:240|128:240|129:262,1,42
191,134,15452,6,2,B|276:102|289:165|375:131,1,188.999994232178,0|0,0:0|0:0,0:1:0:0:
427,71,15897,5,4,1:0:0:0:
398,225,16119,1,2,0:0:0:0:
241,207,16341,1,8,1:0:0:0:
189,198,16452,2,0,L|198:281,1,52.5,2|0,0:0|0:0,0:0:0:0:
208,327,16674,1,2,0:0:0:0:
155,335,16786,1,0,1:0:0:0:
102,339,16897,2,0,L|104:220,1,105,2|0,0:0|0:0,0:0:0:0:
109,155,17230,2,0,L|56:157,1,52.5,10|0,1:2|0:0,0:0:0:0:
115,75,17452,1,2,0:0:0:0:
167,76,17563,1,0,0:0:0:0:
219,77,17674,6,0,L|271:78,1,52.5,2|0,1:2|0:0,0:0:0:0:
327,133,17897,2,0,L|425:128,1,52.5,2|0,0:0|0:0,0:0:0:0:
253,188,18119,1,10,1:0:0:0:
201,190,18230,2,0,L|149:191,1,52.5,0|0,0:2|0:0,0:0:0:0:
324,243,18452,1,0,0:0:0:0:
376,245,18563,2,0,L|490:247,2,105,2|2|8,1:2|0:0|1:2,0:0:0:0:
255,347,19230,1,2,0:0:0:0:
136,245,19452,6,0,L|59:253,1,52.5,2|0,1:2|0:0,0:0:0:0:
64,174,19674,2,0,L|-13:166,1,52.5,2|0,0:0|0:0,0:0:0:0:
37,93,19897,1,8,1:0:0:0:
89,93,20008,2,0,L|193:92,1,105,2|2,0:0|0:0,0:0:0:0:
272,95,20341,1,0,1:0:0:0:
300,139,20452,1,2,0:0:0:0:
350,154,20563,1,2,0:0:0:0:
402,149,20674,1,2,0:0:0:0:
441,114,20786,2,0,L|446:4,1,105,8|0,1:2|0:0,0:0:0:0:
294,35,21119,1,0,0:0:0:0:
297,86,21230,6,0,L|299:138,1,52.5,2|0,1:2|0:0,0:0:0:0:
402,149,21452,2,0,L|400:202,1,52.5,2|0,0:2|0:0,0:0:0:0:
254,204,21674,1,8,1:0:0:0:
258,257,21786,2,0,L|260:309,1,52.5,2|0,0:2|0:0,0:0:0:0:
454,256,22008,1,2,0:0:0:0:
450,309,22120,6,0,L|448:361,1,52.5,0|2,1:2|0:2,0:0:0:0:
377,349,22341,2,0,L|379:297,1,52.5,0|0,1:2|0:2,0:0:0:0:
258,257,22563,2,0,L|260:309,1,52.5,10|0,1:2|0:0,0:0:0:0:
184,309,22786,2,0,L|182:257,1,52.5,2|0,1:2|0:0,0:0:0:0:
66,219,23008,6,0,L|61:323,1,105,4|2,1:2|0:2,0:0:0:0:
187,359,23341,1,0,0:0:0:0:
184,309,23452,2,0,L|182:257,2,52.5,10|2|2,1:0|0:0|0:0,0:0:0:0:
307,325,23786,1,0,0:0:0:0:
310,272,23897,1,0,1:0:0:0:
311,219,24008,2,0,L|301:109,1,105,2|0,0:0|0:0,0:0:0:0:
351,53,24341,2,0,P|376:47|401:53,1,52.5,8|0,1:2|0:0,0:0:0:0:
239,66,24563,2,0,P|213:71|188:65,1,52.5,2|0,0:2|0:0,0:0:0:0:
301,114,24786,6,0,L|305:166,1,52.5,2|0,1:0|0:0,0:0:0:0:
369,212,25008,1,0,0:0:0:0:
365,264,25119,2,0,L|360:316,1,52.5,2|8,0:0|1:0,0:0:0:0:
411,376,25341,2,0,P|450:376|476:352,1,52.5,2|0,0:0|0:0,0:0:0:0:
297,364,25563,1,2,0:0:0:0:
248,344,25674,1,0,1:0:0:0:
195,337,25786,2,0,L|90:346,1,105,2|0,0:0|0:0,0:0:0:0:
16,301,26119,2,0,L|11:353,1,52.5,10|0,1:2|0:0,0:0:0:0:
91,265,26341,2,0,L|86:212,1,52.5,2|0,0:2|0:0,0:0:0:0:
46,144,26563,5,4,1:2:0:0:
98,139,26674,1,0,0:0:0:0:
136,102,26786,1,2,0:0:0:0:
159,55,26897,1,0,0:0:0:0:
198,20,27008,1,8,1:0:0:0:
250,17,27119,1,2,0:0:0:0:
293,45,27230,1,0,0:0:0:0:
308,95,27341,1,2,0:0:0:0:
298,146,27452,5,4,1:2:0:0:
346,127,27563,1,2,0:0:0:0:
397,135,27674,1,2,0:0:0:0:
438,167,27786,1,0,0:0:0:0:
455,216,27897,1,10,1:2:0:0:
446,267,28008,1,0,0:0:0:0:
416,310,28119,1,0,0:0:0:0:
368,331,28230,1,0,0:0:0:0:
315,326,28341,6,0,L|319:251,2,52.5,0|0|0,1:0|0:0|0:0,0:0:0:0:
219,369,28674,1,0,0:0:0:0:
216,316,28786,2,0,L|212:241,2,52.5,0|0|0,1:0|0:0|0:0,0:0:0:0:
90,351,29119,1,0,0:0:0:0:
93,298,29231,2,0,L|97:223,1,52.5,0|2,1:0|0:3,0:0:0:0:
102,168,29452,2,0,L|104:115,1,52.5,0|2,1:0|0:3,0:0:0:0:
42,67,29674,1,0,1:0:0:0:
113,31,29786,1,2,0:3:0:0:
174,80,29897,1,2,0:3:0:0:
341,206,30119,6,0,L|499:199,1,157.5,4|0,1:0|0:0,0:0:0:0:
507,120,30563,2,0,P|482:74|435:54,1,105,8|0,1:0|0:0,0:0:0:0:
358,72,30897,1,2,0:0:0:0:
358,72,31008,1,0,1:0:0:0:
200,68,31230,1,2,0:0:0:0:
341,206,31452,2,0,L|445:214,1,105,10|0,1:2|0:0,0:0:0:0:
496,370,31897,6,0,B|371:378|425:301|298:317,1,210,2|8,1:2|1:0,0:0:0:0:
151,365,32563,1,2,0:0:0:0:
25,269,32786,1,0,1:0:0:0:
40,248,32897,2,0,L|28:194,1,52.5
151,365,33230,1,8,1:2:0:0:
301,316,33452,1,0,0:0:0:0:
158,251,33674,6,0,L|170:88,1,157.5,0|0,1:0|0:0,0:0:0:0:
176,13,34119,2,0,P|223:-3|276:9,1,105,8|0,1:0|0:0,0:0:0:0:
329,65,34452,1,2,0:0:0:0:
329,65,34563,1,0,1:0:0:0:
485,41,34786,1,2,0:0:0:0:
328,147,35008,2,0,L|326:264,1,105,10|0,1:2|0:0,0:0:0:0:
202,349,35452,6,0,P|157:286|82:274,1,157.5,2|2,1:2|0:0,0:0:0:0:
158,253,35897,2,0,P|180:210|166:143,1,105,8|2,1:0|0:0,0:0:0:0:
23,105,36341,2,0,P|15:156|38:202,1,105,0|2,1:0|0:0,0:0:0:0:
251,214,36786,1,8,1:2:0:0:
303,212,36897,1,0,0:0:0:0:
355,212,37008,1,0,0:0:0:0:
407,212,37119,1,0,0:0:0:0:
459,213,37230,6,0,L|470:32,1,157.5,4|0,1:3|0:0,0:0:0:0:
389,59,37674,2,0,L|284:65,1,105,8|0,1:0|0:0,0:0:0:0:
204,68,38008,1,2,0:0:0:0:
204,68,38119,1,0,1:0:0:0:
187,224,38341,1,2,0:0:0:0:
284,65,38563,2,0,L|388:71,1,105,10|0,1:2|0:0,0:0:0:0:
452,255,39008,6,0,P|383:257|302:138,1,210,2|8,1:2|1:0,0:0:0:0:
436,72,39674,1,2,0:2:0:0:
468,237,39897,1,0,1:0:0:0:
452,255,40008,2,0,L|437:336,1,52.5
256,338,40341,1,8,1:2:0:0:
69,306,40563,2,0,L|60:255,1,52.5,0|2,0:0|0:0,0:0:0:0:
44,236,40785,5,0,1:0:0:0:
88,85,41008,1,2,0:0:0:0:
229,153,41230,1,8,1:0:0:0:
274,179,41341,2,0,L|382:153,1,105,2|2,0:0|0:0,0:0:0:0:
454,143,41674,2,0,P|471:193|448:245,1,105,0|0,1:2|0:0,0:0:0:0:
274,179,42119,2,0,P|255:130|306:32,1,157.5,10|2,1:2|0:0,0:0:0:0:
372,17,42563,5,2,1:3:0:0:
383,174,42786,1,2,0:3:0:0:
394,331,43008,1,10,1:3:0:0:
394,331,43119,1,2,0:3:0:0:
300,204,43341,1,2,0:3:0:0:
206,77,43563,1,2,0:3:0:0:
217,234,43786,1,2,0:3:0:0:
221,286,43897,1,8,1:2:0:0:
185,324,44008,1,2,0:3:0:0:
132,320,44119,1,0,0:0:0:0:
105,274,44230,1,0,0:0:0:0:
127,226,44341,6,0,P|135:172|97:121,1,105,6|2,1:0|0:2,0:0:0:0:
220,17,44786,1,8,1:0:0:0:
210,67,44897,2,0,P|220:92|237:111,1,52.5,2|0,0:2|0:0,0:0:0:0:
314,124,45119,2,0,P|304:149|287:168,1,52.5,2|0,0:2|1:0,0:0:0:0:
211,188,45341,1,2,0:0:0:0:
211,188,45452,1,2,0:0:0:0:
288,51,45674,1,8,1:2:0:0:
388,173,45897,1,2,0:0:0:0:
324,316,46119,6,0,L|219:314,1,105,2|2,1:2|0:0,0:0:0:0:
61,313,46563,1,8,1:0:0:0:
63,260,46674,2,0,L|66:143,1,105,2|2,0:0|0:0,0:0:0:0:
68,102,47008,1,0,1:0:0:0:
217,51,47230,1,0,1:0:0:0:
387,174,47452,1,14,1:2:0:0:
238,123,47674,1,0,1:0:0:0:
110,245,47897,6,0,P|159:231|206:252,1,105,4|2,1:2|0:0,0:0:0:0:
314,366,48341,1,8,1:0:0:0:
385,227,48563,1,2,0:0:0:0:
387,174,48674,1,2,0:0:0:0:
391,121,48786,2,0,L|500:127,1,105,0|2,1:0|0:0,0:0:0:0:
301,30,49230,2,0,L|196:35,1,105,10|0,1:2|0:0,0:0:0:0:
55,105,49674,6,0,P|101:147|196:102,1,157.5,2|0,1:2|0:0,0:0:0:0:
118,164,50119,2,0,P|108:215|216:263,1,157.5,10|0,1:0|0:0,0:0:0:0:
107,254,50563,1,2,1:2:0:0:
256,305,50786,1,0,1:0:0:0:
426,276,51008,1,14,1:2:0:0:
277,225,51231,1,2,1:2:0:0:
293,175,51341,1,0,0:0:0:0:
310,125,51452,6,0,L|199:139,1,105,6|2,1:2|0:0,0:0:0:0:
49,158,51897,1,8,1:0:0:0:
53,210,52008,2,0,L|57:262,1,52.5,2|0,0:2|0:0,0:0:0:0:
130,291,52230,2,0,L|125:343,1,52.5,2|0,0:2|1:0,0:0:0:0:
54,376,52452,1,2,0:2:0:0:
54,376,52563,1,2,0:2:0:0:
206,335,52786,1,8,1:2:0:0:
357,376,53008,1,2,0:2:0:0:
507,331,53230,6,0,B|507:226,1,105,2|2,1:2|0:2,0:0:0:0:
511,68,53674,1,8,1:0:0:0:
468,36,53786,2,0,P|424:32|370:63,1,105,2|2,0:0|0:0,0:0:0:0:
326,124,54119,2,0,L|331:198,2,52.5,0|0|0,1:0|0:0|0:0,0:0:0:0:
248,139,54452,1,0,0:0:0:0:
247,191,54563,1,8,1:2:0:0:
96,142,54786,1,0,0:0:0:0:
31,285,55008,5,4,1:2:0:0:
55,331,55119,1,0,0:0:0:0:
99,359,55230,1,2,0:0:0:0:
151,364,55341,1,0,0:0:0:0:
197,340,55452,1,10,0:1:0:0:
243,315,55563,1,0,0:0:0:0:
295,311,55674,1,0,0:0:0:0:
344,328,55786,1,0,0:0:0:0:
386,359,55897,5,6,1:2:0:0:
370,308,56008,1,0,0:0:0:0:
383,257,56119,1,0,0:0:0:0:
429,233,56230,1,2,0:0:0:0:
480,221,56341,1,8,0:2:0:0:
506,175,56452,1,0,0:0:0:0:
505,122,56563,1,0,0:0:0:0:
480,75,56674,1,0,0:0:0:0:
430,56,56786,6,0,L|327:72,2,70,4|0|0,1:1|1:1|1:1,0:0:0:0:
231,45,57230,2,0,L|296:126,2,70,4|0|0,1:1|1:1|1:1,0:0:0:0:
321,223,57674,1,4,1:2:0:0:
321,223,57897,6,0,L|346:157,1,52.5,0|0,0:1|0:1,0:0:0:0:
379,286,58119,6,2,P|322:311|264:290,1,125.999996154785,0|4,0:3|0:3,0:1:0:0:
23,305,58563,6,0,P|66:272|137:278,1,105,6|2,1:0|0:0,0:0:0:0:
186,303,58897,1,2,0:0:0:0:
193,251,59008,1,8,1:0:0:0:
201,199,59119,2,0,L|180:95,1,105,2|2,0:0|0:0,0:0:0:0:
228,34,59452,1,0,1:0:0:0:
279,45,59563,2,0,L|266:127,1,52.5,2|0,0:2|0:0,0:0:0:0:
361,31,59786,1,0,0:0:0:0:
412,19,59897,2,0,L|425:101,1,52.5,8|0,1:2|0:0,0:0:0:0:
512,39,60119,2,0,L|499:121,1,52.5,2|0,0:2|0:0,0:0:0:0:
447,145,60341,6,0,L|463:248,1,105,2|2,1:2|0:0,0:0:0:0:
345,354,60786,1,8,1:0:0:0:
293,364,60897,2,0,L|303:277,1,52.5,2|0,0:0|0:0,0:0:0:0:
214,379,61119,1,2,0:0:0:0:
163,363,61230,2,0,L|151:258,1,105,0|2,1:0|0:2,0:0:0:0:
59,39,61674,2,0,L|47:143,1,105,8|2,1:2|0:2,0:0:0:0:
234,179,62119,6,0,P|284:171|306:125,1,105,2|2,1:2|0:2,0:0:0:0:
295,48,62452,1,2,0:0:0:0:
347,45,62563,1,8,1:0:0:0:
399,44,62674,2,0,L|409:171,1,105,2|2,0:0|0:2,0:0:0:0:
417,227,63008,1,0,1:0:0:0:
364,228,63119,2,0,L|360:280,1,52.5,2|0,0:0|0:0,0:0:0:0:
282,278,63341,1,0,0:0:0:0:
229,273,63452,2,0,L|232:325,1,52.5,8|0,1:2|0:0,0:0:0:0:
140,285,63674,2,0,L|136:337,1,52.5,2|0,0:2|0:0,0:0:0:0:
56,262,63897,6,0,P|35:216|48:166,1,105,2|2,1:2|0:0,0:0:0:0:
167,62,64341,1,8,1:0:0:0:
213,86,64452,2,0,L|315:62,1,105,2|2,0:2|0:2,0:0:0:0:
388,93,64786,1,0,1:2:0:0:
438,77,64897,1,2,0:0:0:0:
488,63,65008,2,0,L|476:156,1,52.5
473,193,65230,1,8,1:2:0:0:
421,186,65341,1,0,0:0:0:0:
369,179,65452,1,2,0:2:0:0:
317,172,65563,1,0,0:0:0:0:
265,165,65674,6,0,L|274:269,1,105,2|0,1:2|0:0,0:0:0:0:
321,331,66008,2,0,P|346:339|372:335,1,52.5,2|8,0:2|1:0,0:0:0:0:
244,341,66230,1,0,0:0:0:0:
244,341,66341,2,0,P|218:337|193:345,1,52.5,2|0,0:2|0:0,0:0:0:0:
121,375,66563,2,0,P|113:323|151:278,2,105,0|2|8,1:0|0:2|1:2,0:0:0:0:
46,177,67230,1,2,0:0:0:0:
89,194,67341,1,0,0:0:0:0:
133,209,67452,6,0,L|201:203,1,52.5,2|0,1:2|0:0,0:0:0:0:
271,147,67674,1,2,0:0:0:0:
263,200,67786,2,0,L|331:206,1,52.5,2|8,0:2|1:0,0:0:0:0:
394,212,68008,2,0,L|446:207,1,52.5,2|0,0:2|0:0,0:0:0:0:
495,145,68230,1,2,0:0:0:0:
495,145,68341,1,0,1:0:0:0:
432,289,68563,1,0,0:0:0:0:
244,261,68786,2,0,P|167:268|111:322,1,157.5,10|2,1:2|0:2,0:0:0:0:
149,236,69230,5,4,1:2:0:0:
151,183,69341,1,0,0:0:0:0:
129,135,69452,1,0,0:0:0:0:
96,93,69563,1,0,0:0:0:0:
101,40,69674,1,8,1:0:0:0:
144,9,69786,1,0,0:0:0:0:
195,17,69897,1,0,0:0:0:0:
228,57,70008,1,0,0:0:0:0:
230,109,70119,5,4,1:2:0:0:
266,71,70230,1,0,0:0:0:0:
316,56,70341,1,0,0:0:0:0:
368,56,70452,1,0,0:0:0:0:
414,79,70563,1,8,1:2:0:0:
436,126,70674,1,0,0:0:0:0:
410,172,70786,1,0,0:0:0:0:
361,190,70897,1,0,0:0:0:0:
311,171,71008,6,0,L|315:275,1,105,0|0,1:0|0:0,0:0:0:0:
320,354,71341,1,0,0:0:0:0:
435,247,71563,1,2,0:2:0:0:
192,259,71786,1,2,0:2:0:0:
192,259,71897,2,0,L|121:265,1,52.5,0|0,1:0|0:0,0:0:0:0:
69,317,72119,2,0,L|47:365,1,52.5,0|0,1:0|0:0,0:0:0:0:
56,229,72341,2,0,L|-1:140,1,105,0|2,1:0|0:2,0:0:0:0:
101,29,72786,6,0,P|160:43|184:100,1,126,4|0,1:0|0:0,0:0:0:0:
197,24,73230,2,0,P|238:19|287:46,1,84,0|0,1:0|0:0,0:0:0:0:
307,104,73563,1,8,0:0:0:0:
302,145,73674,1,0,1:0:0:0:
198,216,73897,1,8,0:2:0:0:
90,150,74119,1,0,1:3:0:0:
53,129,74230,1,8,0:2:0:0:
90,109,74341,1,0,0:0:0:0:
95,301,74563,6,0,P|156:297|197:342,1,126,8|0,1:2|0:0,0:0:0:0:
173,269,75008,2,0,P|209:245|252:250,1,84,0|0,1:0|0:0,0:0:0:0:
309,291,75341,1,8,0:2:0:0:
306,332,75452,1,0,1:0:0:0:
434,252,75674,1,8,0:2:0:0:
357,121,75897,1,0,1:0:0:0:
339,83,76008,1,8,0:2:0:0:
380,89,76119,1,0,0:0:0:0:
242,151,76341,6,0,L|119:120,1,126,8|0,1:2|0:0,0:0:0:0:
126,44,76786,2,0,L|44:64,1,84,0|0,1:2|0:0,0:0:0:0:
37,139,77119,1,8,0:2:0:0:
32,180,77230,1,0,1:0:0:0:
146,233,77452,1,8,0:2:0:0:
268,204,77674,1,0,1:0:0:0:
307,188,77786,1,8,0:2:0:0:
271,164,77897,1,4,0:3:0:0:
321,305,78119,6,0,P|382:294|433:329,1,126,8|0,1:2|0:0,0:0:0:0:
394,262,78563,2,0,P|381:224|394:184,1,84,0|0,1:0|0:0,0:0:0:0:
456,141,78897,1,8,0:2:0:0:
497,144,79008,1,0,1:0:0:0:
374,55,79230,1,8,0:2:0:0:
260,154,79452,1,0,1:0:0:0:
104,53,79674,1,4,0:3:0:0:
55,249,79897,6,0,L|32:348,1,84,4|2,1:2|0:0,0:0:0:0:
178,280,80341,1,0,1:0:0:0:
170,238,80452,1,2,0:2:0:0:
321,238,80674,1,10,0:2:0:0:
313,280,80785,1,0,1:0:0:0:
437,366,81008,2,0,P|435:299|454:268,1,84,10|0,0:2|1:0,0:0:0:0:
443,208,81341,2,0,P|483:223|511:253,1,84,10|0,0:2|0:0,0:0:0:0:
442,133,81674,6,0,L|441:33,1,84,4|2,1:3|0:2,0:0:0:0:
297,98,82119,1,0,1:0:0:0:
305,139,82230,1,2,0:0:0:0:
169,71,82452,1,10,0:0:0:0:
177,30,82563,1,0,1:0:0:0:
40,95,82786,2,0,L|46:198,1,84,10|0,0:2|1:0,0:0:0:0:
54,253,83119,2,0,L|142:226,1,84,10|0,0:2|0:0,0:0:0:0:
207,209,83452,5,0,1:0:0:0:
193,248,83563,1,0,0:0:0:0:
195,289,83674,1,2,0:2:0:0:
215,325,83786,1,0,0:0:0:0:
247,352,83897,1,0,1:0:0:0:
287,362,84008,1,2,0:2:0:0:
330,358,84119,1,0,0:0:0:0:
367,339,84230,1,8,0:2:0:0:
409,342,84341,5,0,1:0:0:0:
393,303,84452,1,0,0:0:0:0:
408,263,84563,1,10,0:2:0:0:
447,248,84674,1,0,0:0:0:0:
485,229,84786,1,0,1:0:0:0:
496,188,84897,1,10,0:2:0:0:
487,146,85008,1,0,0:0:0:0:
452,121,85119,1,0,0:0:0:0:
410,121,85230,6,0,L|416:66,2,42,10|0|0,0:2|0:0|0:0,0:0:0:0:
301,165,85563,1,0,0:0:0:0:
305,135,85674,2,0,L|311:80,2,42,10|0|0,0:2|0:0|0:0,0:0:0:0:
194,177,86008,1,0,0:0:0:0:
198,147,86119,1,10,0:2:0:0:
55,178,86341,6,0,L|66:231,1,42
30,294,86563,6,2,B|143:311|100:229|204:251,1,188.999994232178,0|0,0:0|0:0,0:1:0:0:
279,276,87008,6,0,L|264:380,1,105,4|2,1:0|0:0,0:0:0:0:
415,337,87452,1,8,1:0:0:0:
424,285,87563,2,0,L|434:232,2,52.5,2|0|2,0:0|0:0|0:0,0:0:0:0:
450,160,87897,1,0,1:0:0:0:
397,164,88008,1,2,0:0:0:0:
344,168,88119,2,0,L|356:104,1,52.5
240,74,88341,2,0,L|249:125,1,52.5,8|0,1:2|0:0,0:0:0:0:
150,219,88563,2,0,L|162:155,1,52.5,2|0,0:0|0:0,0:0:0:0:
46,125,88785,6,0,L|65:227,1,105,2|2,1:2|0:0,0:0:0:0:
83,305,89119,1,2,0:0:0:0:
135,298,89230,1,8,1:0:0:0:
186,289,89341,2,0,L|244:280,1,52.5,2|0,0:0|0:0,0:0:0:0:
306,369,89563,2,0,L|254:360,1,52.5,2|0,0:0|1:0,0:0:0:0:
330,269,89786,6,0,P|313:221|326:170,1,105,2|0,0:0|0:0,0:0:0:0:
387,121,90119,2,0,L|450:134,1,52.5,8|0,1:2|0:0,0:0:0:0:
299,100,90341,2,0,L|247:89,1,52.5,2|0,0:0|0:0,0:0:0:0:
169,78,90563,6,0,L|73:120,1,105,2|2,1:2|0:2,0:0:0:0:
27,185,90897,1,2,0:0:0:0:
74,202,91008,2,0,P|84:227|84:253,1,52.5,8|2,1:0|0:0,0:0:0:0:
55,326,91230,1,0,0:0:0:0:
107,325,91341,1,2,0:0:0:0:
156,341,91452,1,0,1:0:0:0:
207,351,91563,1,2,0:0:0:0:
259,347,91674,2,0,L|246:269,1,52.5
235,217,91897,5,10,1:2:0:0:
279,188,92008,1,2,0:0:0:0:
331,185,92119,1,2,0:0:0:0:
377,208,92230,1,0,0:0:0:0:
414,245,92341,5,2,1:2:0:0:
425,193,92452,1,2,0:0:0:0:
408,143,92563,1,0,0:0:0:0:
419,91,92674,1,2,0:2:0:0:
392,45,92786,2,0,L|471:47,1,52.5,10|0,1:0|0:0,0:0:0:0:
325,100,93008,2,0,L|273:99,1,52.5,2|0,0:0|0:0,0:0:0:0:
156,45,93230,2,0,P|184:134|137:175,1,157.5,2|0,1:2|0:0,0:0:0:0:
68,201,93674,1,8,1:2:0:0:
88,222,93786,2,0,P|107:247|113:292,2,52.5,2|0|0,0:2|0:0|0:0,0:0:0:0:
194,258,94119,6,0,L|259:245,1,52.5,2|0,1:2|0:0,0:0:0:0:
304,299,94341,1,0,0:0:0:0:
347,328,94452,2,0,L|412:315,1,52.5,2|8,0:2|1:0,0:0:0:0:
477,327,94674,2,0,L|512:367,1,52.5,2|0,0:2|0:0,0:0:0:0:
447,254,94897,2,0,L|464:205,1,52.5,2|0,0:2|1:0,0:0:0:0:
491,131,95119,2,0,P|439:127|398:158,1,105,2|0,0:2|0:0,0:0:0:0:
319,143,95452,2,0,P|324:169|323:196,1,52.5,8|0,1:2|0:0,0:0:0:0:
243,127,95674,2,0,P|242:100|246:74,1,52.5,2|0,0:2|0:0,0:0:0:0:
162,115,95897,5,0,1:0:0:0:
109,110,96008,2,0,L|46:102,1,52.5,2|0,0:2|0:0,0:0:0:0:
29,205,96230,1,0,0:0:0:0:
82,200,96341,2,0,L|145:192,1,52.5,10|0,1:0|0:0,0:0:0:0:
167,281,96563,1,0,0:0:0:0:
114,278,96674,1,0,0:0:0:0:
61,276,96786,1,0,1:2:0:0:
85,320,96897,1,2,0:2:0:0:
114,363,97008,1,2,0:2:0:0:
271,363,97230,1,8,1:2:0:0:
300,320,97341,1,2,0:2:0:0:
324,276,97452,1,2,0:2:0:0:
397,136,97674,5,6,1:2:0:0:
443,160,97786,1,0,0:0:0:0:
491,139,97897,1,2,0:0:0:0:
508,89,98008,1,2,0:0:0:0:
477,46,98119,1,8,1:0:0:0:
424,39,98230,1,2,0:0:0:0:
372,49,98341,1,0,0:0:0:0:
319,44,98452,1,2,0:0:0:0:
276,13,98563,5,4,1:2:0:0:
281,65,98674,1,0,0:0:0:0:
250,108,98786,1,2,0:0:0:0:
200,124,98897,1,0,0:0:0:0:
147,128,99008,1,10,1:2:0:0:
97,144,99119,1,2,0:0:0:0:
58,179,99230,1,2,0:0:0:0:
39,228,99341,1,0,0:0:0:0:
49,279,99452,6,0,L|121:266,1,52.5,2|0,1:2|0:0,0:0:0:0:
194,224,99674,1,2,0:0:0:0:
183,259,99786,2,0,L|234:268,1,52.5,2|0,0:0|1:0,0:0:0:0:
313,280,100009,2,0,L|385:267,1,52.5,2|0,0:2|0:0,0:0:0:0:
455,224,100230,1,2,0:0:0:0:
447,260,100341,6,0,L|498:269,1,52.5,0|2,1:2|0:0,0:0:0:0:
350,201,100563,2,0,L|298:210,1,52.5,0|0,1:2|0:0,0:0:0:0:
211,339,100786,1,2,1:2:0:0:
83,193,101008,1,2,1:2:0:0:
17,375,101230,6,0,B|135:387|105:322|211:339,1,201.600004921875,4|0,1:0|0:0,0:0:0:0:
