osu file format v14

[General]
AudioFilename: audio.mp3
AudioLeadIn: 0
PreviewTime: 57897
Countdown: 0
SampleSet: Soft
StackLeniency: 0.2
Mode: 0
LetterboxInBreaks: 0
WidescreenStoryboard: 1

[Editor]
Bookmarks: 12341,12786,13341,14563,26563,28341,28786,29008,29230,55008,55452,56452,56786,69230,71008,83452,84341,84674,84786,95674,96008,96341,96674,97674,98119,98563,99008,99452,99897
DistanceSpacing: 1.1
BeatDivisor: 8
GridSize: 8
TimelineZoom: 2.899999

[Metadata]
Title:Vem brincar
TitleUnicode:Vem brincar
Artist:Caldeira feat. Teka Penteriche
ArtistUnicode:Caldeira feat. Téka Penteriche
Creator:Saturnalize
Version:Challenge
Source:DanceDanceRevolution SuperNOVA2
Tags:DJ Yoshitaka TOMOSUKE TROPICAL HOUSE Portuguese
BeatmapID:1848913
BeatmapSetID:884577

[Difficulty]
HPDrainRate:5.5
CircleSize:4
OverallDifficulty:8
ApproachRate:9.3
SliderMultiplier:2.4
SliderTickRate:1

[Events]
//Background and Video events
0,0,"redhead-long-hair-anime-anime-girls-blue-eyes-water-beach-dress-original-characters-winking-inflatable-rings-screenshot-2560x1280-px-computer-wallpaper-mangaka-617630.jpg",0,0
//Break Periods
//Storyboard Layer 0 (Background)
//Storyboard Layer 1 (Fail)
//Storyboard Layer 2 (Pass)
//Storyboard Layer 3 (Foreground)
//Storyboard Layer 4 (Overlay)
//Storyboard Sound Samples

[TimingPoints]
1675,444.444444444444,4,2,2,100,1,0
1675,-250,4,2,2,100,0,0
8341,-100,4,2,2,100,0,0
8786,-181.818181818182,4,2,2,100,0,0
10563,-142.857142857143,4,2,2,100,0,0
12286,-142.857142857143,4,2,3,100,0,0
12341,-117.647058823529,4,2,10,100,0,0
12730,-117.647058823529,4,2,11,100,0,0
12841,-117.647058823529,4,2,12,100,0,0
12952,-117.647058823529,4,2,17,100,0,0
13286,-117.647058823529,4,2,15,100,0,0
13397,-117.647058823529,4,2,14,100,0,0
13508,-117.647058823529,4,2,15,100,0,0
13619,-117.647058823529,4,2,12,100,0,0
13952,-100,4,2,11,100,0,0
14286,-100,4,2,12,100,0,0
14508,-100,4,2,13,100,0,0
14619,-100,4,2,14,100,0,0
14730,-100,4,2,15,100,0,0
14841,-100,4,2,16,100,0,0
14952,-100,4,2,17,100,0,0
15063,-100,4,2,18,100,0,0
15230,-71.4285714285714,4,2,2,100,0,0
15286,-71.4285714285714,4,2,2,5,0,0
15341,-71.4285714285714,4,2,2,100,0,0
15397,-71.4285714285714,4,2,2,5,0,0
15452,-55.5555555555556,4,2,2,100,0,0
15897,-83.3333333333333,4,2,2,100,0,1
15952,-83.3333333333333,4,2,2,100,0,0
22841,-83.3333333333333,4,2,99,100,0,0
22952,-83.3333333333333,4,2,2,100,0,0
30119,-100,4,2,2,100,0,0
32841,-100,4,2,98,100,0,0
32952,-100,4,2,2,100,0,0
36841,-100,4,2,98,100,0,0
36952,-100,4,2,2,100,0,0
37063,-100,4,2,99,100,0,0
37174,-100,4,2,97,100,0,0
37286,-100,4,2,2,100,0,0
39952,-100,4,2,98,100,0,0
40063,-100,4,2,2,100,0,0
44174,-100,4,2,99,100,0,0
44286,-100,4,2,2,100,0,0
44341,-83.3333333333333,4,2,2,100,0,0
50841,-83.3333333333333,4,2,98,100,0,0
50952,-83.3333333333333,4,2,2,100,0,0
51286,-83.3333333333333,4,2,99,100,0,0
51397,-83.3333333333333,4,2,2,100,0,0
56730,-83.3333333333333,4,2,97,100,0,0
57730,-83.3333333333333,4,2,2,100,0,0
57897,-55.5555555555556,4,2,2,100,0,0
57952,-55.5555555555556,4,2,2,5,0,0
58008,-55.5555555555556,4,2,2,100,0,0
58063,-55.5555555555556,4,2,2,5,0,0
58119,-55.5555555555556,4,2,2,100,0,0
58286,-55.5555555555556,4,2,2,5,0,0
58341,-55.5555555555556,4,2,97,100,0,0
58563,-71.4285714285714,4,2,2,100,0,1
59730,-71.4285714285714,4,2,98,100,0,1
59841,-71.4285714285714,4,2,2,100,0,1
61508,-71.4285714285714,4,2,98,100,0,1
61619,-71.4285714285714,4,2,2,100,0,1
61841,-71.4285714285714,4,2,2,5,0,1
61897,-71.4285714285714,4,2,2,100,0,1
63286,-71.4285714285714,4,2,98,100,0,1
63397,-71.4285714285714,4,2,2,100,0,1
65063,-71.4285714285714,4,2,98,100,0,1
65174,-71.4285714285714,4,2,2,100,0,1
65286,-71.4285714285714,4,2,98,100,0,1
65397,-71.4285714285714,4,2,2,100,0,1
65508,-71.4285714285714,4,2,99,100,0,1
65619,-71.4285714285714,4,2,2,100,0,1
72786,-100,4,2,2,100,0,0
73174,-100,4,2,97,100,0,0
79841,-100,4,2,2,100,0,0
79952,-100,4,2,97,100,0,0
86341,-55.5555555555556,4,2,2,100,0,0
86397,-55.5555555555556,4,2,2,5,0,0
86452,-55.5555555555556,4,2,2,100,0,0
86508,-55.5555555555556,4,2,2,5,0,0
86563,-55.5555555555556,4,2,2,100,0,0
87008,-83.3333333333333,4,2,2,100,0,1
87063,-83.3333333333333,4,2,2,100,0,0
93952,-83.3333333333333,4,2,99,100,0,0
94063,-83.3333333333333,4,2,2,100,0,0
99452,-100,4,2,2,100,0,0
101230,-250,4,2,2,100,0,0
101341,-250,4,2,2,85,0,0
101452,-250,4,2,2,60,0,0
101563,-250,4,2,2,45,0,0
101674,-250,4,2,2,30,0,0
101786,-250,4,2,2,20,0,0
101897,-250,4,2,2,10,0,0
102008,-250,4,2,2,5,0,0

[Colours]
Combo1 : 255,192,45
Combo2 : 72,255,72
Combo3 : 70,153,255
Combo4 : 242,38,69

[HitObjects]
74,78,1675,6,0,L|60:143,1,48,4|0,0:1|0:0,0:0:0:0:
149,91,2119,1,0,0:0:0:0:
143,113,2230,2,0,L|129:178,2,48,0|0|0,0:0|0:0|0:0,0:0:0:0:
149,91,2786,1,0,0:0:0:0:
54,201,3008,2,0,L|68:266,1,48,0|0,0:0|0:0,0:0:0:0:
68,264,3341,1,0,0:0:0:0:
72,280,3452,5,0,0:0:0:0:
166,212,3674,1,0,0:0:0:0:
163,228,3786,1,0,0:0:0:0:
250,287,4008,1,0,0:0:0:0:
363,216,4230,2,0,L|352:262,1,48,0|0,0:0|0:0,0:0:0:0:
349,279,4563,1,0,0:0:0:0:
452,282,4786,1,0,0:0:0:0:
349,279,5008,1,0,0:0:0:0:
248,276,5230,6,0,L|237:229,1,48,0|0,0:0|0:0,0:0:0:0:
165,272,5674,1,0,0:0:0:0:
159,250,5785,2,0,L|145:185,2,48,0|0|0,0:0|0:0|0:0,0:0:0:0:
165,272,6341,1,0,0:0:0:0:
218,152,6563,2,0,L|228:105,1,48,0|0,0:0|0:0,0:0:0:0:
232,88,6897,1,0,0:0:0:0:
236,71,7008,5,0,0:0:0:0:
337,160,7230,1,0,0:0:0:0:
332,143,7341,1,0,0:0:0:0:
430,82,7563,1,0,0:0:0:0:
512,158,7786,2,0,L|500:211,1,48,0|0,0:0|0:0,0:0:0:0:
498,221,8119,1,0,0:0:0:0:
380,291,8341,6,0,P|368:223|422:267,1,180
412,296,8786,5,4,0:3:0:0:
415,311,8897,1,4,0:3:0:0:
256,368,9230,1,0,0:0:0:0:
254,351,9341,2,0,L|245:282,2,66.0000020141602,0|0|0,0:0|0:0|0:0,0:0:0:0:
256,368,9897,1,0,0:0:0:0:
82,270,10119,2,0,L|91:201,1,66.0000020141602,0|0,0:0|0:0,0:0:0:0:
93,188,10452,1,0,0:0:0:0:
96,167,10563,5,0,0:0:0:0:
184,68,10786,1,0,0:0:0:0:
189,92,10897,1,0,0:0:0:0:
290,170,11119,1,0,0:0:0:0:
369,62,11341,2,0,L|393:145,1,83.9999974365235,0|0,0:0|0:0,0:0:0:0:
397,167,11674,1,0,0:0:0:0:
501,161,11897,1,0,0:0:0:0:
290,170,12119,1,0,0:0:0:0:
79,179,12341,5,0,0:0:0:0:
73,198,12452,1,0,0:0:0:0:
66,217,12563,1,0,0:0:0:0:
70,236,12674,1,0,0:0:0:0:
157,216,12786,5,0,0:0:0:0:
167,214,12897,1,0,0:0:0:0:
152,224,13008,1,0,0:0:0:0:
162,222,13119,1,0,0:0:0:0:
247,195,13230,5,0,0:0:0:0:
253,214,13341,1,0,0:0:0:0:
260,233,13452,1,0,0:0:0:0:
256,252,13563,1,0,0:0:0:0:
212,328,13674,5,0,0:0:0:0:
242,323,13786,1,0,0:0:0:0:
269,335,13897,1,0,0:0:0:0:
299,330,14009,1,0,0:0:0:0:
385,350,14119,5,0,0:0:0:0:
379,302,14230,1,0,0:0:0:0:
373,254,14341,1,0,0:0:0:0:
368,206,14452,1,0,0:0:0:0:
390,110,14563,5,0,0:0:0:0:
385,158,14674,1,0,0:0:0:0:
379,206,14785,1,0,0:0:0:0:
373,254,14896,1,0,0:0:0:0:
385,350,15008,5,0,0:0:0:0:
299,330,15119,1,0,0:0:0:0:
213,310,15230,6,0,L|215:353,1,41.9999987182618,0|0,0:0|0:0,0:0:0:0:
131,332,15341,2,0,L|132:373,1,41.9999987182618
213,310,15452,6,2,B|340:313|397:173|318:111|238:102|200:163|195:201,1,377.999988464356,0|0,0:1|0:0,0:1:0:0:
227,206,15897,6,0,P|253:172|299:159,1,71.9999978027344,4|0,1:0|0:0,0:0:0:0:
382,165,16119,2,0,P|419:184|440:227,1,71.9999978027344,2|0,0:2|0:0,0:0:0:0:
315,377,16341,1,10,1:0:0:0:
307,304,16452,2,0,L|301:232,1,71.9999978027344,2|0,0:2|0:0,0:0:0:0:
86,192,16674,1,2,0:0:0:0:
147,240,16786,1,0,1:0:0:0:
160,169,16897,2,0,L|180:18,1,143.999995605469,2|0,0:2|0:0,0:0:0:0:
32,31,17230,2,0,P|50:71|93:93,1,71.9999978027344,10|0,1:2|0:0,0:0:0:0:
252,112,17452,1,2,0:2:0:0:
330,98,17563,1,0,0:0:0:0:
275,44,17674,6,0,L|250:119,1,71.9999978027344,2|0,1:2|0:0,0:0:0:0:
379,223,17897,2,0,L|401:155,1,71.9999978027344,2|0,0:2|0:0,0:0:0:0:
367,23,18119,1,8,1:0:0:0:
275,44,18230,2,0,L|250:119,1,71.9999978027344,2|0,0:2|0:0,0:0:0:0:
359,306,18452,1,2,0:2:0:0:
379,223,18563,1,0,1:0:0:0:
286,245,18674,2,0,L|261:320,2,71.9999978027344,2|0|0,0:2|0:0|0:0,0:0:0:0:
359,306,19008,2,0,P|394:310|427:296,1,71.9999978027344,8|0,1:2|0:0,0:0:0:0:
186,269,19230,2,0,P|153:255|118:260,1,71.9999978027344,2|0,0:2|0:0,0:0:0:0:
47,313,19452,6,0,L|40:384,1,71.9999978027344,0|0,1:0|0:0,0:0:0:0:
108,176,19674,2,0,L|101:104,1,71.9999978027344,2|0,0:2|0:0,0:0:0:0:
186,269,19897,1,8,1:0:0:0:
257,309,20008,2,0,L|328:303,1,71.9999978027344,2|0,0:2|0:0,0:0:0:0:
453,164,20230,1,2,0:0:0:0:
399,222,20341,1,0,1:0:0:0:
321,208,20452,2,0,L|246:195,1,71.9999978027344,2|0,0:0|0:0,0:0:0:0:
239,194,20619,1,0,0:0:0:0:
228,192,20674,1,0,0:0:0:0:
191,121,20786,2,0,P|187:89|208:34,1,71.9999978027344,10|0,1:2|0:0,0:0:0:0:
321,208,21008,2,0,P|330:242|327:278,1,71.9999978027344,0|2,0:0|0:0,0:0:0:0:
273,336,21230,6,0,L|201:326,1,71.9999978027344,2|0,1:2|0:0,0:0:0:0:
406,270,21452,2,0,L|477:260,1,71.9999978027344,2|0,0:0|0:0,0:0:0:0:
277,345,21674,1,8,1:0:0:0:
197,336,21786,2,0,L|125:326,1,71.9999978027344,2|0,0:2|0:0,0:0:0:0:
21,194,22008,1,2,0:0:0:0:
99,178,22120,6,0,L|111:254,1,71.9999978027344,0|2,1:0|0:2,0:0:0:0:
317,243,22341,2,0,L|306:172,1,71.9999978027344,0|0,1:0|0:0,0:0:0:0:
214,151,22563,2,0,L|202:222,1,71.9999978027344,8|0,1:2|0:0,0:0:0:0:
409,216,22784,2,0,L|421:145,1,71.9999978027344,0|0,1:2|0:2,0:0:0:0:
295,101,23008,6,0,L|306:172,1,71.9999978027344,4|0,1:2|0:0,0:0:0:0:
323,283,23230,2,0,L|334:354,1,71.9999978027344,2|0,0:0|0:0,0:0:0:0:
167,370,23452,1,10,1:0:0:0:
174,291,23563,1,2,0:2:0:0:
123,230,23674,2,0,L|40:228,1,71.9999978027344,2|0,0:0|0:2,0:0:0:0:
15,110,23897,1,0,1:0:0:0:
86,143,24008,2,0,L|233:138,1,143.999995605469,2|0,0:2|0:0,0:0:0:0:
305,115,24341,2,0,P|314:78|305:34,1,71.9999978027344,8|0,1:2|0:0,0:0:0:0:
202,221,24563,2,0,P|197:256|206:291,1,71.9999978027344,2|0,0:0|0:0,0:0:0:0:
268,341,24786,6,0,L|373:338,1,71.9999978027344,2|0,1:2|0:0,0:0:0:0:
128,309,25008,2,0,L|23:306,1,71.9999978027344,2|2,0:2|0:0,0:0:0:0:
278,252,25230,1,8,1:0:0:0:
357,251,25341,2,0,L|462:248,1,71.9999978027344,2|0,0:0|0:0,0:0:0:0:
488,102,25563,1,2,0:0:0:0:
433,166,25674,1,0,1:0:0:0:
353,163,25786,2,0,L|256:157,2,71.9999978027344,2|0|0,0:2|0:0|0:0,0:0:0:0:
221,104,26119,2,0,L|149:108,1,71.9999978027344,10|0,1:2|0:0,0:0:0:0:
91,161,26341,2,0,L|19:156,1,71.9999978027344,2|0,0:0|0:0,0:0:0:0:
0,263,26563,5,4,1:2:0:0:
79,259,26674,1,0,0:0:0:0:
158,256,26786,1,0,0:2:0:0:
237,253,26897,1,0,0:0:0:0:
316,249,27008,5,10,1:0:0:0:
238,262,27119,1,0,0:2:0:0:
163,235,27230,1,0,0:0:0:0:
125,165,27341,1,2,0:2:0:0:
132,86,27452,5,4,1:2:0:0:
205,116,27563,1,2,0:0:0:0:
245,183,27674,1,2,0:0:0:0:
238,262,27786,1,2,0:0:0:0:
194,327,27897,5,8,1:2:0:0:
272,333,28008,1,0,0:0:0:0:
334,284,28119,1,0,0:0:0:0:
412,290,28230,1,0,0:0:0:0:
473,239,28341,5,0,1:0:0:0:
479,196,28452,1,0,0:0:0:0:
397,209,28563,5,0,0:0:0:0:
401,178,28674,1,0,0:0:0:0:
319,182,28786,5,0,1:0:0:0:
321,166,28897,1,0,0:0:0:0:
241,162,29008,5,0,0:0:0:0:
242,154,29119,1,0,0:0:0:0:
163,143,29230,5,0,1:0:0:0:
78,129,29341,1,2,0:3:0:0:
212,76,29452,5,0,1:0:0:0:
242,154,29563,1,2,0:3:0:0:
128,67,29674,5,0,1:0:0:0:
183,1,29785,1,2,0:3:0:0:
183,1,29897,1,2,0:3:0:0:
12,249,30119,6,0,L|202:221,1,180,4|0,1:0|0:0,0:0:0:0:
257,261,30563,2,0,L|341:248,1,60,10|0,1:0|0:0,0:0:0:0:
387,285,30786,1,2,0:0:0:0:
463,271,30897,1,2,0:0:0:0:
440,345,31008,1,0,1:0:0:0:
405,184,31230,1,2,0:2:0:0:
508,44,31452,2,0,L|503:173,1,120,10|0,1:2|0:0,0:0:0:0:
299,300,31897,6,0,B|275:335|167:328|225:253|103:249|83:292,1,240,2|8,1:2|1:0,0:0:0:0:
256,237,32563,1,2,0:2:0:0:
444,302,32786,1,0,1:0:0:0:
458,324,32897,2,0,L|445:382,1,60,0|0,0:3|0:0,0:0:0:0:
256,237,33230,1,8,1:2:0:0:
325,12,33452,1,0,0:0:0:0:
512,215,33674,6,0,L|332:210,1,180,0|0,1:0|0:0,0:0:0:0:
271,160,34119,2,0,L|211:158,1,60,10|0,1:0|0:0,0:0:0:0:
147,113,34341,1,2,0:0:0:0:
69,110,34452,1,2,0:0:0:0:
113,47,34563,1,0,1:0:0:0:
219,235,34786,1,2,0:0:0:0:
244,20,35008,1,10,1:2:0:0:
98,179,35230,1,0,0:0:0:0:
310,137,35452,6,0,P|366:142|478:85,1,180,2|2,1:2|0:2,0:0:0:0:
423,149,35897,2,0,P|411:202|430:265,1,120,8|2,1:0|0:2,0:0:0:0:
492,375,36341,1,0,1:0:0:0:
328,299,36563,1,2,0:2:0:0:
148,325,36786,1,8,1:2:0:0:
72,344,36897,1,0,0:0:0:0:
73,353,37008,1,0,0:0:0:0:
36,281,37119,1,0,0:3:0:0:
67,210,37230,6,0,L|251:249,1,180,4|0,1:3|0:0,0:0:0:0:
304,198,37674,2,0,L|362:210,1,60,10|0,1:0|0:0,0:0:0:0:
426,165,37897,1,2,0:2:0:0:
502,182,38008,1,2,0:2:0:0:
479,107,38119,1,0,1:0:0:0:
431,277,38341,1,2,0:2:0:0:
347,69,38563,2,0,L|215:77,1,120,10|0,1:2|0:0,0:0:0:0:
49,239,39008,6,0,P|120:259|231:156,1,240,2|8,1:2|1:0,0:0:0:0:
92,15,39674,1,2,0:2:0:0:
49,239,39897,1,0,1:0:0:0:
54,249,40008,2,0,L|46:313,1,60,0|0,0:3|0:0,0:0:0:0:
231,155,40341,1,8,1:2:0:0:
92,15,40563,2,0,L|84:79,1,60,0|2,0:0|0:2,0:0:0:0:
77,84,40786,5,0,1:0:0:0:
172,289,41008,1,0,0:2:0:0:
237,28,41230,1,10,1:0:0:0:
314,17,41341,2,0,L|301:101,1,60,0|0,0:2|0:0,0:0:0:0:
154,95,41563,1,2,0:2:0:0:
77,84,41674,2,0,L|90:168,1,60,0|0,1:0|0:0,0:0:0:0:
231,155,41897,1,0,0:0:0:0:
308,152,42008,1,0,0:0:0:0:
385,147,42119,2,0,L|356:269,1,120,10|0,1:2|0:0,0:0:0:0:
435,261,42452,1,2,0:2:0:0:
512,258,42563,5,2,1:3:0:0:
475,39,42786,1,2,0:3:0:0:
435,261,43008,1,10,1:3:0:0:
512,258,43119,2,0,L|503:198,1,60,2|0,0:3|0:0,0:0:0:0:
375,270,43341,2,0,L|435:261,1,60,2|0,0:3|1:0,0:0:0:0:
354,136,43563,2,0,L|363:196,1,60,2|0,0:3|0:0,0:0:0:0:
491,124,43786,1,2,0:3:0:0:
419,92,43897,1,8,1:2:0:0:
421,81,44008,1,2,0:3:0:0:
354,136,44119,1,2,0:3:0:0:
355,148,44230,1,0,0:3:0:0:
276,116,44341,6,0,L|133:113,1,143.999995605469,6|2,1:1|0:2,0:0:0:0:
7,290,44786,1,10,1:0:0:0:
75,329,44897,2,0,P|111:333|160:301,1,71.9999978027344,2|0,0:0|0:0,0:0:0:0:
196,377,45119,2,0,P|217:347|214:289,1,71.9999978027344,2|0,0:2|1:0,0:0:0:0:
300,303,45341,1,2,0:2:0:0:
378,297,45452,2,0,L|490:284,1,107.999996704102,2|0,0:2|0:0,0:0:0:0:
499,284,45674,2,0,L|512:204,1,71.9999978027344,10|0,1:2|0:0,0:0:0:0:
364,136,45897,2,0,L|375:207,1,71.9999978027344,2|0,0:2|0:0,0:0:0:0:
300,303,46119,6,0,L|155:282,1,143.999995605469,2|2,1:2|0:0,0:0:0:0:
35,71,46563,1,10,1:0:0:0:
112,52,46674,2,0,L|101:132,1,71.9999978027344,2|0,0:0|0:0,0:0:0:0:
79,269,46897,1,2,0:2:0:0:
2,250,47008,2,0,L|13:330,1,71.9999978027344,0|2,1:2|0:0,0:0:0:0:
241,299,47230,2,0,L|252:379,1,71.9999978027344,0|0,1:0|0:0,0:0:0:0:
327,182,47452,2,0,L|318:254,1,71.9999978027344,14|0,1:2|0:0,0:0:0:0:
88,197,47674,2,0,L|79:269,1,71.9999978027344,0|0,1:0|0:0,0:0:0:0:
35,71,47897,6,0,L|177:90,1,143.999995605469,6|0,1:2|0:2,0:0:0:0:
357,253,48341,1,10,1:0:0:0:
389,325,48452,1,0,0:0:0:0:
335,383,48563,1,2,0:0:0:0:
260,356,48674,2,0,P|218:350|175:357,1,71.9999978027344,2|0,0:2|1:0,0:0:0:0:
69,371,48897,1,0,0:0:0:0:
47,294,49008,2,0,L|30:221,1,71.9999978027344,2|0,0:0|0:0,0:0:0:0:
108,78,49230,2,0,P|144:76|177:90,1,71.9999978027344,10|0,1:2|0:0,0:0:0:0:
335,294,49452,2,0,P|367:307|403:305,1,71.9999978027344,2|0,0:2|0:0,0:0:0:0:
481,160,49674,6,0,L|457:54,1,107.999996704102,2|0,1:0|0:0,0:0:0:0:
455,43,49897,1,2,0:0:0:0:
385,80,50008,1,2,0:0:0:0:
401,157,50119,1,8,1:0:0:0:
485,173,50230,2,0,L|463:269,1,71.9999978027344,2|0,0:0|0:0,0:0:0:0:
439,384,50452,1,2,0:0:0:0:
361,366,50563,2,0,L|350:286,1,71.9999978027344,0|2,1:0|0:2,0:0:0:0:
142,327,50785,2,0,L|131:247,1,71.9999978027344,0|0,1:0|0:0,0:0:0:0:
0,254,51008,2,0,L|11:174,1,71.9999978027344,14|0,1:2|0:2,0:0:0:0:
249,201,51230,2,0,L|260:121,1,71.9999978027344,2|0,1:2|0:2,0:0:0:0:
481,160,51452,6,0,P|458:93|393:67,1,143.999995605469,6|2,1:2|0:2,0:1:0:0:
132,255,51897,1,10,1:0:0:0:
187,310,52008,2,0,P|225:319|267:307,1,71.9999978027344,2|0,0:0|0:0,0:0:0:0:
314,365,52230,2,0,P|334:331|335:287,1,71.9999978027344,2|0,0:0|1:0,0:0:0:0:
413,277,52452,1,2,0:0:0:0:
479,233,52563,2,0,L|492:112,1,107.999996704102,2|0,0:2|0:0,0:0:0:0:
492,114,52786,2,0,L|500:41,1,71.9999978027344,10|0,1:2|0:0,0:0:0:0:
346,152,53008,2,0,L|353:223,1,71.9999978027344,2|0,0:2|0:0,0:0:0:0:
222,111,53230,6,0,L|63:110,1,143.999995605469,2|2,1:2|0:0,0:0:0:0:
21,318,53674,1,10,1:0:0:0:
97,293,53786,1,2,0:0:0:0:
176,294,53897,1,0,0:0:0:0:
251,318,54008,1,2,0:2:0:0:
306,372,54119,2,0,P|297:338|298:302,2,71.9999978027344,0|2|0,1:0|0:2|0:0,0:0:0:0:
315,231,54452,1,0,0:0:0:0:
317,223,54563,2,0,P|326:188|345:157,1,71.9999978027344,10|0,1:2|0:2,0:0:0:0:
408,96,54786,2,0,P|433:70|464:53,1,71.9999978027344,2|0,0:2|0:0,0:0:0:0:
468,208,55008,5,4,1:2:0:0:
394,236,55119,1,0,0:0:0:0:
315,231,55230,1,2,0:0:0:0:
252,182,55341,1,0,0:2:0:0:
226,107,55452,5,10,0:1:0:0:
240,184,55563,1,0,0:0:0:0:
203,254,55674,1,0,0:0:0:0:
145,309,55786,1,0,0:0:0:0:
65,310,55897,5,6,1:2:0:0:
86,233,56008,1,0,0:0:0:0:
149,185,56119,1,0,0:0:0:0:
228,187,56230,1,2,0:2:0:0:
289,236,56341,5,8,0:2:0:0:
325,306,56452,1,0,0:0:0:0:
402,293,56563,1,0,0:2:0:0:
414,215,56675,1,0,0:0:0:0:
344,180,56786,5,6,1:1:0:0:
268,364,56934,5,0,1:3:0:0:
146,206,57082,5,0,1:3:0:0:
358,295,57230,5,6,1:1:0:0:
160,321,57378,5,0,1:3:0:0:
236,136,57526,5,0,1:3:0:0:
472,66,57674,5,6,1:2:0:0:
472,66,57897,6,0,L|485:11,1,53.9999983520508,0|0,0:0|0:0,0:0:0:0:
391,100,58008,2,0,L|403:152,1,53.9999983520508,0|0,0:0|0:0,0:0:0:0:
326,51,58119,6,2,P|242:64|132:2,1,215.999993408203,0|4,0:1|0:3,0:1:0:0:
28,284,58563,6,0,P|75:252|173:261,1,125.999996154785,6|0,1:1|0:0,0:0:0:0:
153,254,58786,1,2,0:2:0:0:
226,294,58897,1,2,0:2:0:0:
271,364,59008,1,8,1:0:0:0:
324,299,59119,2,0,P|367:295|414:296,1,83.9999974365235,2|0,0:2|0:3,0:3:0:0:
486,156,59341,2,0,P|444:156|402:152,1,83.9999974365235,2|0,0:2|1:3,0:3:0:0:
288,83,59563,2,0,L|298:0,2,83.9999974365235,2|0|0,0:2|0:0|0:0,0:0:0:0:
161,125,59897,2,0,P|119:119|79:110,1,83.9999974365235,10|0,1:2|0:0,0:3:0:0:
22,267,60119,2,0,P|55:228|115:208,1,83.9999974365235,2|0,0:2|0:0,0:0:0:0:
219,280,60341,6,0,L|350:270,1,125.999996154785,2|0,1:2|0:0,0:0:0:0:
357,270,60563,1,2,0:0:0:0:
404,200,60674,1,2,0:2:0:0:
480,164,60786,1,8,1:0:0:0:
413,112,60897,2,0,P|408:69|417:16,1,83.9999974365235,2|0,0:2|0:0,0:0:0:0:
280,162,61119,2,0,P|285:203|280:245,1,83.9999974365235,2|0,0:2|1:0,0:0:0:0:
176,86,61341,1,2,0:2:0:0:
92,81,61452,2,0,L|5:78,1,83.9999974365235,2|0,0:0|0:3,0:0:0:0:
1,251,61674,2,0,L|158:242,1,125.999996154785,8|0,1:2|0:2,0:0:0:0:
139,243,61897,2,0,L|222:238,1,83.9999974365235,2|0,0:2|0:0,0:0:0:0:
400,288,62119,6,0,P|324:321|264:301,1,125.999996154785,2|0,1:2|0:0,0:0:0:0:
273,305,62341,1,2,0:0:0:0:
222,238,62452,1,2,0:0:0:0:
225,154,62563,1,8,1:0:0:0:
282,92,62674,2,0,L|286:8,1,83.9999974365235,2|0,0:2|0:0,0:0:0:0:
142,108,62897,2,0,L|146:191,1,83.9999974365235,2|0,0:2|1:0,0:0:0:0:
273,305,63119,2,0,L|357:293,2,83.9999974365235,2|0|0,0:2|0:0|0:0,0:0:0:0:
146,192,63452,2,0,L|62:180,1,83.9999974365235,10|0,1:2|0:0,0:0:0:0:
281,91,63674,2,0,P|285:49|286:8,1,83.9999974365235,2|0,0:2|0:0,0:0:0:0:
444,101,63897,6,0,P|442:164|448:227,1,125.999996154785,2|0,1:2|0:0,0:0:0:0:
451,239,64119,1,2,0:2:0:0:
370,214,64230,1,2,0:0:0:0:
287,227,64341,1,8,1:0:0:0:
226,285,64452,2,0,P|231:337|225:370,1,83.9999974365235,2|0,0:2|0:0,0:0:0:0:
62,180,64674,2,0,P|56:138|61:96,1,83.9999974365235,2|0,0:2|1:0,0:0:0:0:
188,9,64897,2,0,L|276:11,2,83.9999974365235,2|0|0,0:2|0:2|0:2,0:2:0:0:
381,7,65230,1,8,1:2:0:0:
356,87,65341,1,0,0:0:0:0:
360,93,65452,1,2,0:0:0:0:
412,158,65563,1,0,0:3:0:0:
377,234,65674,6,0,P|368:276|387:362,1,125.999996154785,2|0,1:2|0:0,0:0:0:0:
391,366,65897,1,0,0:2:0:0:
316,327,66008,2,0,P|273:322|223:337,1,83.9999974365235,2|8,0:0|1:0,0:0:0:0:
79,323,66230,1,0,0:0:0:0:
158,295,66341,2,0,P|183:260|195:209,2,83.9999974365235,2|0|0,0:0|0:0|1:0,0:0:0:0:
280,99,66674,1,0,0:0:0:0:
264,181,66785,2,0,P|281:220|319:256,1,83.9999974365235,2|0,0:0|0:3,0:0:0:0:
352,346,67008,2,0,P|295:321|233:331,1,125.999996154785,8|0,1:2|0:0,0:0:0:0:
224,339,67230,1,2,0:0:0:0:
144,370,67341,1,0,0:0:0:0:
74,323,67452,6,0,P|81:255|75:174,1,125.999996154785,2|0,1:2|0:0,0:0:0:0:
74,185,67674,1,2,0:2:0:0:
175,215,67786,2,0,P|216:208|252:186,1,83.9999974365235,2|8,0:0|1:0,0:0:0:0:
355,97,68008,2,0,P|340:134|342:185,1,83.9999974365235,2|0,0:0|0:0,0:0:0:0:
366,310,68230,2,0,P|340:278|295:255,2,83.9999974365235,2|0|0,0:0|1:0|0:0,0:0:0:0:
340,177,68563,2,0,P|339:135|355:97,1,83.9999974365235,2|0,0:0|0:0,0:0:0:0:
252,186,68786,2,0,P|175:214|100:181,1,167.999994873047,10|0,1:2|0:0,0:0:0:0:
58,108,69119,1,2,0:2:0:0:
73,266,69230,5,4,1:2:0:0:
153,242,69341,1,0,0:0:0:0:
233,260,69452,1,0,0:0:0:0:
293,315,69563,1,0,0:0:0:0:
215,339,69674,5,8,1:0:0:0:
233,260,69785,1,0,0:0:0:0:
289,201,69897,1,0,0:0:0:0:
366,177,70008,1,0,0:0:0:0:
349,257,70119,5,4,1:2:0:0:
289,201,70230,1,0,0:0:0:0:
266,123,70342,1,0,0:0:0:0:
284,45,70453,1,0,0:0:0:0:
345,100,70563,5,8,1:2:0:0:
266,123,70674,1,0,0:0:0:0:
187,104,70786,1,0,0:0:0:0:
128,50,70897,1,0,0:0:0:0:
204,25,71008,5,0,1:0:0:0:
215,339,71230,5,0,0:0:0:0:
215,339,71341,2,0,L|227:253,1,83.9999974365235,0|0,0:0|1:0,0:0:0:0:
284,45,71563,1,2,0:0:0:0:
301,327,71786,1,2,0:0:0:0:
301,327,71897,1,0,1:0:0:0:
35,231,72119,1,0,1:0:0:0:
441,89,72341,1,0,1:0:0:0:
301,327,72563,1,2,0:0:0:0:
128,50,72786,6,0,P|70:58|12:158,1,180,4|0,1:0|0:0,0:0:0:0:
35,231,73230,2,0,P|101:209|155:223,1,120,0|0,1:2|0:0,0:0:0:0:
203,275,73563,1,8,0:2:0:0:
200,352,73674,1,0,1:2:0:0:
166,136,73897,5,8,0:2:0:0:
200,352,74119,1,0,1:2:0:0:
203,275,74230,1,8,0:2:0:0:
269,316,74341,1,0,0:2:0:0:
166,136,74563,6,0,P|195:58|289:35,1,180,10|2,1:2|0:2,0:0:0:0:
358,51,75008,2,0,L|342:178,1,120,0|2,1:0|0:0,0:0:0:0:
331,247,75341,1,8,0:2:0:0:
363,317,75452,1,0,1:0:0:0:
358,51,75674,1,8,0:2:0:0:
363,317,75897,1,0,1:0:0:0:
331,247,76008,1,8,0:2:0:0:
286,310,76119,1,0,0:0:0:0:
41,224,76341,6,0,P|29:278|124:335,1,180,10|0,1:2|0:0,0:0:0:0:
190,297,76786,2,0,P|179:261|203:180,1,120,0|0,1:0|0:0,0:0:0:0:
261,135,77119,1,8,0:2:0:0:
337,152,77230,1,0,1:0:0:0:
103,149,77452,1,8,0:2:0:0:
337,152,77674,1,0,1:0:0:0:
261,135,77785,1,8,0:2:0:0:
314,77,77897,1,4,0:3:0:0:
297,331,78119,6,0,P|377:362|452:317,1,180,8|0,1:2|0:0,0:0:0:0:
446,239,78563,2,0,P|385:234|333:262,1,120,0|0,1:0|0:0,0:0:0:0:
297,331,78897,1,8,0:2:0:0:
222,352,79008,1,0,1:0:0:0:
471,146,79230,1,8,0:2:0:0:
222,352,79452,1,0,1:0:0:0:
297,331,79563,1,8,0:0:0:0:
240,277,79674,1,2,0:0:0:0:
66,100,79897,5,4,1:2:0:0:
214,56,80119,2,0,L|210:115,1,60,2|0,0:2|0:0,0:0:0:0:
140,78,80341,1,0,1:0:0:0:
214,56,80452,1,2,0:2:0:0:
288,34,80563,1,0,0:0:0:0:
362,56,80674,2,0,L|358:115,2,60,8|0|0,0:2|1:0|0:0,0:0:0:0:
436,78,81008,2,0,L|428:197,1,120,10|0,0:2|1:0,0:0:0:0:
350,196,81341,2,0,L|342:315,1,120,10|0,0:2|0:0,0:0:0:0:
419,329,81674,5,4,1:3:0:0:
265,301,81897,2,0,L|278:359,1,60,2|0,0:2|0:0,0:0:0:0:
342,315,82119,1,0,1:0:0:0:
265,301,82230,1,2,0:2:0:0:
187,286,82341,1,0,0:0:0:0:
109,274,82452,2,0,L|122:332,2,60,8|0|0,0:2|1:0|0:0,0:0:0:0:
31,262,82786,2,0,L|57:144,1,120,10|0,0:2|1:0,0:0:0:0:
134,156,83119,2,0,L|160:38,1,120,10|0,0:2|0:0,0:0:0:0:
88,8,83452,5,0,1:0:0:0:
164,22,83563,1,0,0:0:0:0:
239,40,83674,1,2,0:2:0:0:
315,54,83785,1,0,0:0:0:0:
392,69,83897,5,0,1:0:0:0:
314,66,84008,1,2,0:2:0:0:
252,113,84119,1,0,0:0:0:0:
235,189,84230,1,8,0:2:0:0:
271,258,84341,5,0,1:0:0:0:
313,193,84452,1,0,0:3:0:0:
387,212,84563,1,10,0:2:0:0:
391,289,84675,1,0,0:3:0:0:
320,317,84786,5,0,1:3:0:0:
244,329,84897,1,10,0:2:0:0:
172,298,85008,1,0,0:0:0:0:
96,310,85119,1,0,0:3:0:0:
24,279,85230,6,0,L|12:218,1,60,10|0,0:2|0:0,0:0:0:0:
166,192,85452,1,0,0:0:0:0:
148,194,85563,1,0,0:0:0:0:
183,189,85674,2,0,L|171:130,1,60,10|0,0:2|0:0,0:0:0:0:
326,102,85897,1,0,0:0:0:0:
308,104,86008,1,0,0:0:0:0:
343,99,86119,1,10,0:2:0:0:
343,285,86341,6,0,L|332:338,1,53.9999983520508,0|0,0:2|0:0,0:0:0:0:
425,292,86452,2,0,L|414:345,1,53.9999983520508,0|0,0:2|0:0,0:0:0:0:
509,296,86563,6,2,B|521:110|282:239|301:31,1,377.999988464356,0|0,0:1|0:0,0:1:0:0:
302,20,87008,6,0,P|285:54|203:76,1,107.999996704102,6|0,1:0|0:0,0:0:0:0:
212,77,87230,1,2,0:2:0:0:
141,42,87341,1,2,0:0:0:0:
63,59,87452,1,8,1:1:0:0:
28,131,87563,2,0,L|37:208,1,71.9999978027344,2|0,0:0|0:0,0:0:0:0:
159,334,87786,1,2,0:0:0:0:
238,331,87897,1,0,1:0:0:0:
159,322,88008,2,0,L|167:251,1,71.9999978027344,2|0,0:0|0:0,0:0:0:0:
270,136,88230,1,0,0:3:0:0:
347,120,88341,2,0,L|355:192,1,71.9999978027344,10|0,1:2|0:0,0:0:0:0:
238,331,88563,2,0,L|246:260,1,71.9999978027344,2|0,0:0|0:0,0:0:0:0:
394,310,88786,6,0,P|368:356|317:372,1,107.999996704102,2|0,1:2|0:0,0:0:0:0:
307,370,89008,1,2,0:2:0:0:
238,331,89119,1,2,0:2:0:0:
246,253,89230,1,8,1:0:0:0:
172,283,89341,2,0,P|123:287|72:266,1,71.9999978027344,2|0,0:2|0:0,0:0:0:0:
321,224,89563,2,0,P|370:220|421:241,1,71.9999978027344,2|0,0:2|1:0,0:0:0:0:
172,283,89786,2,0,L|180:212,2,71.9999978027344,2|0|0,0:0|0:0|0:3,0:0:0:0:
113,155,90119,2,0,P|78:147|43:154,1,71.9999978027344,10|0,1:2|0:0,0:0:0:0:
267,285,90341,2,0,P|300:302|354:296,1,71.9999978027344,2|0,0:2|0:0,0:0:0:0:
479,200,90563,6,0,L|437:74,1,107.999996704102,2|0,1:2|0:0,0:0:0:0:
440,88,90786,1,2,0:2:0:0:
412,14,90897,1,2,0:2:0:0:
490,26,91008,1,8,1:0:0:0:
440,88,91119,1,2,0:2:0:0:
362,103,91230,1,0,0:0:0:0:
288,74,91341,1,2,0:2:0:0:
251,4,91452,1,0,1:0:0:0:
210,73,91563,1,2,0:2:0:0:
144,118,91674,2,0,L|59:122,1,71.9999978027344,0|0,0:2|0:3,0:0:0:0:
2,297,91897,1,10,1:2:0:0:
56,240,92008,1,2,0:2:0:0:
132,221,92119,1,2,0:2:0:0:
207,244,92230,1,0,0:0:0:0:
257,306,92341,5,2,1:2:0:0:
283,232,92452,1,2,0:2:0:0:
334,292,92563,1,0,0:2:0:0:
360,218,92674,1,2,0:2:0:0:
412,279,92786,2,0,L|416:364,1,71.9999978027344,10|0,1:0|0:2,0:0:0:0:
307,159,93008,2,0,L|312:47,1,107.999996704102,2|0,0:2|0:2,0:0:0:0:
318,45,93230,2,0,P|221:80|136:20,1,215.999993408203,2|0,1:2|0:0,0:0:0:0:
172,90,93674,1,8,1:2:0:0:
160,169,93786,1,2,0:2:0:0:
152,166,93897,1,0,0:0:0:0:
107,229,94008,1,0,0:3:0:0:
34,261,94119,6,0,P|86:264|143:324,1,107.999996704102,2|0,1:2|0:0,0:0:0:0:
133,307,94341,1,2,0:2:0:0:
168,378,94452,1,2,0:2:0:0:
212,313,94563,1,8,1:0:0:0:
280,274,94674,2,0,P|313:263|349:268,1,71.9999978027344,2|0,0:2|0:0,0:0:0:0:
469,297,94897,2,0,P|442:274|428:241,1,71.9999978027344,2|0,0:2|1:0,0:0:0:0:
449,91,95119,2,0,P|421:156|357:184,1,143.999995605469,2|0,0:2|0:3,0:0:0:0:
282,156,95452,2,0,L|290:71,1,71.9999978027344,10|0,1:2|0:0,0:0:0:0:
212,313,95674,2,0,L|218:384,1,71.9999978027344,2|0,0:2|0:0,0:0:0:0:
128,188,95897,5,0,1:2:0:0:
66,139,96008,1,2,0:0:0:0:
106,72,96119,1,0,0:0:0:0:
104,62,96230,1,0,0:0:0:0:
172,116,96341,1,10,1:0:0:0:
227,61,96452,1,0,0:0:0:0:
227,51,96563,1,0,0:0:0:0:
284,116,96674,1,2,0:0:0:0:
351,74,96786,5,2,1:0:0:0:
428,88,96897,1,2,0:0:0:0:
475,155,97008,2,0,L|486:254,1,71.9999978027344,2|0,0:2|0:3,0:0:0:0:
494,367,97230,1,8,1:2:0:0:
417,384,97341,1,2,0:0:0:0:
346,349,97452,2,0,L|335:250,1,71.9999978027344,2|0,0:2|0:3,0:0:0:0:
475,155,97674,5,6,1:2:0:0:
474,76,97786,1,0,0:0:0:0:
416,23,97897,1,2,0:2:0:0:
337,12,98008,1,0,0:0:0:0:
277,64,98119,1,8,1:0:0:0:
215,114,98230,1,2,0:2:0:0:
138,134,98341,1,0,0:0:0:0:
65,103,98452,1,2,0:2:0:0:
128,57,98563,5,4,1:2:0:0:
138,134,98674,1,0,0:0:0:0:
120,212,98786,1,2,0:2:0:0:
70,274,98897,1,0,0:0:0:0:
0,312,99008,1,10,1:2:0:0:
74,286,99119,1,2,0:0:0:0:
153,287,99230,1,0,0:2:0:0:
230,305,99341,1,0,0:0:0:0:
280,366,99452,5,2,1:2:0:0:
271,324,99563,1,0,0:0:0:0:
279,282,99674,1,2,0:0:0:0:
305,248,99786,1,0,0:0:0:0:
344,232,99897,1,0,1:0:0:0:
386,228,100008,2,0,L|457:239,1,60,2|0,0:2|0:0,0:0:0:0:
512,72,100230,1,2,0:2:0:0:
470,68,100341,2,0,L|399:79,1,60,0|2,1:2|0:2,0:0:0:0:
269,110,100563,2,0,L|210:100,1,60,0|0,1:2|0:0,0:0:0:0:
77,149,100786,5,0,1:0:0:0:
428,0,101008,1,0,1:2:0:0:
279,282,101230,6,0,P|286:351|351:293,1,192,4|0,1:1|0:0,0:0:0:0:
