osu file format v14

[General]
AudioFilename: Caladborg - Invoker.mp3
AudioLeadIn: 0
PreviewTime: 10364
Countdown: 0
SampleSet: Normal
StackLeniency: 0.7
Mode: 1
LetterboxInBreaks: 0
WidescreenStoryboard: 0

[Editor]
Bookmarks: 471,10318,20164,30010,39856,49702,59548,69394,79241,89087,103856
DistanceSpacing: 1
BeatDivisor: 2
GridSize: 16
TimelineZoom: 1.7

[Metadata]
Title:invoker
TitleUnicode:invoker
Artist:Caladborg
ArtistUnicode:Caladborg
Creator:-Kazu-
Version:Futsuu
Source:beatmania IIDX 21 SPADA
Tags:Backfire USAO Spy
BeatmapID:1477401
BeatmapSetID:351126

[Difficulty]
HPDrainRate:7
CircleSize:5
OverallDifficulty:4
ApproachRate:5
SliderMultiplier:1.4
SliderTickRate:1

[Events]
//Background and Video events
0,0,"BGBG.jpg",0,0
//Break Periods
//Storyboard Layer 0 (Background)
//Storyboard Layer 1 (Fail)
//Storyboard Layer 2 (Pass)
//Storyboard Layer 3 (Foreground)
//Storyboard Sound Samples

[TimingPoints]
517.881525745323,307.692307692308,4,1,0,100,1,0
49748,-100,4,1,0,100,0,1
51748,-100,4,1,0,100,0,0
52210,-100,4,1,0,100,0,1
59594,-100,4,1,0,100,0,0
79594,-100,4,1,0,50,0,0
89133,-100,4,1,0,100,0,0
103902,-100,4,1,0,100,0,1
123594,-100,4,1,0,100,0,0

[HitObjects]
256,192,517,5,4,0:0:0:0:
256,192,1133,1,0,0:0:0:0:
256,192,1287,1,0,0:0:0:0:
256,192,1748,1,0,0:0:0:0:
256,192,2364,1,0,0:0:0:0:
256,192,2671,1,0,0:0:0:0:
256,192,2979,1,0,0:0:0:0:
256,192,3594,1,0,0:0:0:0:
256,192,3748,1,0,0:0:0:0:
256,192,4210,1,0,0:0:0:0:
256,192,4671,1,0,0:0:0:0:
256,192,4825,1,8,0:0:0:0:
256,192,5133,1,8,0:0:0:0:
256,192,5440,1,0,0:0:0:0:
256,192,6056,1,0,0:0:0:0:
256,192,6210,1,0,0:0:0:0:
256,192,6671,1,0,0:0:0:0:
256,192,7287,1,0,0:0:0:0:
256,192,7594,1,0,0:0:0:0:
256,192,7902,1,0,0:0:0:0:
256,192,8517,1,0,0:0:0:0:
256,192,8671,1,0,0:0:0:0:
256,192,9133,1,0,0:0:0:0:
256,192,9748,1,8,0:0:0:0:
256,192,10056,1,8,0:0:0:0:
256,192,10364,1,4,0:0:0:0:
256,192,10671,1,8,0:0:0:0:
256,192,11287,1,8,0:0:0:0:
256,192,11902,1,8,0:0:0:0:
256,192,12517,1,8,0:0:0:0:
256,192,12825,1,0,0:0:0:0:
256,192,13133,1,8,0:0:0:0:
256,192,13748,1,8,0:0:0:0:
256,192,14364,1,8,0:0:0:0:
256,192,14979,1,4,0:0:0:0:
256,192,15287,1,4,0:0:0:0:
256,192,15594,1,8,0:0:0:0:
256,192,16210,1,8,0:0:0:0:
256,192,16825,1,8,0:0:0:0:
256,192,17440,1,8,0:0:0:0:
256,192,17748,1,4,0:0:0:0:
256,192,18056,1,8,0:0:0:0:
256,192,18671,1,8,0:0:0:0:
256,192,18979,1,4,0:0:0:0:
256,192,20210,1,0,0:0:0:0:
256,192,20825,1,0,0:0:0:0:
256,192,21133,1,0,0:0:0:0:
256,192,21440,1,0,0:0:0:0:
256,192,22056,1,0,0:0:0:0:
256,192,22210,1,0,0:0:0:0:
256,192,22364,1,8,0:0:0:0:
256,192,22671,1,0,0:0:0:0:
256,192,23287,1,0,0:0:0:0:
256,192,23594,1,0,0:0:0:0:
256,192,23902,1,0,0:0:0:0:
256,192,24517,1,0,0:0:0:0:
256,192,24825,1,8,0:0:0:0:
256,192,25133,1,0,0:0:0:0:
256,192,25748,1,0,0:0:0:0:
256,192,26056,1,0,0:0:0:0:
256,192,26364,1,0,0:0:0:0:
256,192,26979,1,0,0:0:0:0:
256,192,27133,1,8,0:0:0:0:
256,192,27287,1,8,0:0:0:0:
256,192,27594,1,0,0:0:0:0:
256,192,28210,1,0,0:0:0:0:
256,192,28517,1,0,0:0:0:0:
256,192,28825,1,0,0:0:0:0:
256,192,29748,1,8,0:0:0:0:
256,192,30056,1,0,0:0:0:0:
256,192,30364,1,8,0:0:0:0:
256,192,30825,1,0,0:0:0:0:
256,192,30979,1,8,0:0:0:0:
256,192,31287,1,0,0:0:0:0:
256,192,31594,1,8,0:0:0:0:
256,192,31902,1,0,0:0:0:0:
256,192,32056,1,0,0:0:0:0:
256,192,32210,1,8,0:0:0:0:
64,48,32517,1,0,0:0:0:0:
256,192,32825,1,8,0:0:0:0:
256,192,33287,1,0,0:0:0:0:
256,192,33440,1,8,0:0:0:0:
256,192,33748,1,0,0:0:0:0:
256,192,34056,1,8,0:0:0:0:
256,192,34364,1,0,0:0:0:0:
256,192,34671,1,8,0:0:0:0:
256,192,34979,1,0,0:0:0:0:
256,192,35133,1,0,0:0:0:0:
256,192,35287,1,8,0:0:0:0:
256,192,35748,1,0,0:0:0:0:
256,192,35902,1,8,0:0:0:0:
256,192,36210,1,0,0:0:0:0:
256,192,36517,1,8,0:0:0:0:
256,192,36979,1,0,0:0:0:0:
256,192,37133,1,8,0:0:0:0:
256,192,37440,1,0,0:0:0:0:
256,192,37748,1,8,0:0:0:0:
256,192,38364,1,8,0:0:0:0:
256,192,38671,1,0,0:0:0:0:
256,192,38979,1,8,0:0:0:0:
256,192,39133,1,0,0:0:0:0:
256,192,39440,1,0,0:0:0:0:
256,192,39594,1,8,0:0:0:0:
256,192,39902,1,4,0:0:0:0:
256,192,40210,1,8,0:0:0:0:
256,192,40825,1,8,0:0:0:0:
256,192,41440,1,8,0:0:0:0:
256,192,42056,1,8,0:0:0:0:
256,192,42364,1,0,0:0:0:0:
256,192,42671,1,8,0:0:0:0:
256,192,43287,1,8,0:0:0:0:
256,192,43902,1,8,0:0:0:0:
128,80,44210,1,0,0:0:0:0:
256,192,44364,1,0,0:0:0:0:
256,192,44517,1,8,0:0:0:0:
256,192,44825,1,8,0:0:0:0:
256,192,45133,1,8,0:0:0:0:
256,192,45748,1,8,0:0:0:0:
256,192,46364,1,8,0:0:0:0:
256,192,46979,1,8,0:0:0:0:
256,192,47287,1,0,0:0:0:0:
256,192,47594,1,8,0:0:0:0:
256,192,48210,1,8,0:0:0:0:
256,192,48825,1,8,0:0:0:0:
256,192,49133,1,0,0:0:0:0:
256,192,49748,1,4,0:0:0:0:
256,192,50056,1,12,0:0:0:0:
256,192,50210,1,0,0:0:0:0:
256,192,50517,1,0,0:0:0:0:
256,192,50825,1,0,0:0:0:0:
256,192,50979,1,4,0:0:0:0:
256,192,51287,1,12,0:0:0:0:
256,192,51440,1,0,0:0:0:0:
256,192,51748,1,0,0:0:0:0:
256,192,52210,1,4,0:0:0:0:
256,192,52517,1,12,0:0:0:0:
256,192,52671,1,0,0:0:0:0:
256,192,52979,1,0,0:0:0:0:
256,192,53287,1,0,0:0:0:0:
256,192,53440,1,4,0:0:0:0:
256,192,53748,1,12,0:0:0:0:
256,192,53902,1,0,0:0:0:0:
256,192,54210,1,0,0:0:0:0:
256,192,54364,1,0,0:0:0:0:
256,192,54671,1,4,0:0:0:0:
256,192,54979,1,12,0:0:0:0:
256,192,55133,1,0,0:0:0:0:
256,192,55440,1,0,0:0:0:0:
256,192,55748,1,0,0:0:0:0:
256,192,55902,1,4,0:0:0:0:
256,192,56210,1,12,0:0:0:0:
256,192,56364,1,0,0:0:0:0:
256,192,56825,1,8,0:0:0:0:
256,192,57133,1,4,0:0:0:0:
256,192,57440,1,12,0:0:0:0:
256,192,57594,1,0,0:0:0:0:
256,192,57902,1,0,0:0:0:0:
256,192,58210,1,0,0:0:0:0:
256,192,58364,1,4,0:0:0:0:
256,192,58671,1,12,0:0:0:0:
256,192,58825,1,0,0:0:0:0:
256,192,59287,1,8,0:0:0:0:
256,192,59594,1,0,0:0:0:0:
256,192,59902,1,8,0:0:0:0:
256,192,60517,1,8,0:0:0:0:
256,192,60825,1,0,0:0:0:0:
256,192,61133,1,8,0:0:0:0:
256,192,61748,1,8,0:0:0:0:
256,192,62056,1,4,0:0:0:0:
256,192,62517,1,4,0:0:0:0:
256,192,62979,1,0,0:0:0:0:
256,192,63287,1,4,0:0:0:0:
256,192,63594,1,8,0:0:0:0:
256,192,63748,1,0,0:0:0:0:
256,192,64056,1,0,0:0:0:0:
256,192,64210,1,8,0:0:0:0:
256,192,64517,1,0,0:0:0:0:
256,192,64825,1,8,0:0:0:0:
256,192,65440,1,8,0:0:0:0:
256,192,65748,1,0,0:0:0:0:
256,192,66056,1,8,0:0:0:0:
256,192,66671,1,8,0:0:0:0:
256,192,66979,1,4,0:0:0:0:
256,192,67440,1,4,0:0:0:0:
256,192,67902,1,8,0:0:0:0:
256,192,68210,1,4,0:0:0:0:
256,192,68517,1,0,0:0:0:0:
256,192,68671,1,0,0:0:0:0:
256,192,68979,1,0,0:0:0:0:
256,192,69133,1,8,0:0:0:0:
256,192,69440,1,4,0:0:0:0:
256,192,71594,1,4,0:0:0:0:
256,192,71902,1,4,0:0:0:0:
256,192,74364,1,4,0:0:0:0:
256,192,76517,1,4,0:0:0:0:
256,192,76825,1,4,0:0:0:0:
256,192,79287,1,0,0:0:0:0:
256,192,79594,1,8,0:0:0:0:
256,192,79748,1,0,0:0:0:0:
256,192,80056,1,0,0:0:0:0:
256,192,80364,1,8,0:0:0:0:
256,192,80825,1,8,0:0:0:0:
256,192,81133,1,0,0:0:0:0:
256,192,81440,1,8,0:0:0:0:
256,192,81748,1,0,0:0:0:0:
256,192,82056,1,8,0:0:0:0:
256,192,82210,1,0,0:0:0:0:
256,192,82671,1,0,0:0:0:0:
256,192,82979,1,0,0:0:0:0:
256,192,83287,1,8,0:0:0:0:
256,192,83594,1,8,0:0:0:0:
256,192,83902,1,0,0:0:0:0:
256,192,84210,1,0,0:0:0:0:
256,192,84517,1,8,0:0:0:0:
256,192,84671,1,0,0:0:0:0:
256,192,85133,1,8,0:0:0:0:
256,192,85440,1,0,0:0:0:0:
256,192,85748,1,8,0:0:0:0:
256,192,86056,1,8,0:0:0:0:
256,192,86671,1,0,0:0:0:0:
256,192,86979,1,8,0:0:0:0:
256,192,87133,1,0,0:0:0:0:
256,192,87594,1,8,0:0:0:0:
256,192,87902,1,0,0:0:0:0:
256,192,88210,1,8,0:0:0:0:
256,192,88517,1,8,0:0:0:0:
256,192,88825,1,8,0:0:0:0:
256,192,89133,1,4,0:0:0:0:
256,192,89440,1,8,0:0:0:0:
256,192,89594,1,0,0:0:0:0:
256,192,89902,1,8,0:0:0:0:
256,192,90210,1,8,0:0:0:0:
256,192,90364,1,0,0:0:0:0:
256,192,90671,1,8,0:0:0:0:
256,192,91287,1,8,0:0:0:0:
256,192,91594,1,4,0:0:0:0:
256,192,91902,1,8,0:0:0:0:
256,192,92056,1,0,0:0:0:0:
256,192,92364,1,8,0:0:0:0:
256,192,92671,1,8,0:0:0:0:
256,192,92825,1,0,0:0:0:0:
256,192,93133,1,8,0:0:0:0:
256,192,93440,1,0,0:0:0:0:
256,192,93594,1,8,0:0:0:0:
256,192,93748,1,8,0:0:0:0:
256,192,94056,1,4,0:0:0:0:
256,192,94364,1,8,0:0:0:0:
256,192,94517,1,0,0:0:0:0:
256,192,94979,1,0,0:0:0:0:
256,192,95287,1,4,0:0:0:0:
256,192,95594,1,8,0:0:0:0:
256,192,95748,1,0,0:0:0:0:
256,192,96210,1,0,0:0:0:0:
256,192,96517,1,4,0:0:0:0:
256,192,96825,1,8,0:0:0:0:
256,192,96979,1,0,0:0:0:0:
256,192,97440,1,0,0:0:0:0:
256,192,97748,1,4,0:0:0:0:
256,192,98056,1,8,0:0:0:0:
256,192,98210,1,0,0:0:0:0:
256,192,98671,1,0,0:0:0:0:
256,192,98979,1,4,0:0:0:0:
256,192,99594,1,4,0:0:0:0:
256,192,100210,1,4,0:0:0:0:
256,192,100825,1,4,0:0:0:0:
256,192,101440,1,4,0:0:0:0:
256,192,101748,1,4,0:0:0:0:
256,192,102056,1,4,0:0:0:0:
256,192,102364,1,4,0:0:0:0:
256,192,102671,1,4,0:0:0:0:
256,192,102979,1,4,0:0:0:0:
256,192,103287,1,0,0:0:0:0:
256,192,103440,1,0,0:0:0:0:
256,192,103594,1,8,0:0:0:0:
256,192,103902,1,0,0:0:0:0:
256,192,104364,1,8,0:0:0:0:
256,192,104671,1,0,0:0:0:0:
256,192,104979,1,8,0:0:0:0:
256,192,105133,1,0,0:0:0:0:
256,192,105440,1,8,0:0:0:0:
256,192,105748,1,8,0:0:0:0:
256,192,105902,1,0,0:0:0:0:
256,192,106056,1,8,0:0:0:0:
256,192,106364,1,0,0:0:0:0:
256,192,106671,1,8,0:0:0:0:
256,192,106979,1,0,0:0:0:0:
256,192,107133,1,8,0:0:0:0:
256,192,107440,1,8,0:0:0:0:
256,192,107594,1,0,0:0:0:0:
256,192,108210,1,0,0:0:0:0:
256,192,108517,1,8,0:0:0:0:
256,192,108825,1,0,0:0:0:0:
256,192,109287,1,0,0:0:0:0:
256,192,109594,1,8,0:0:0:0:
256,192,109902,1,8,0:0:0:0:
256,192,110056,1,0,0:0:0:0:
256,192,110364,1,8,0:0:0:0:
256,192,110671,1,8,0:0:0:0:
256,192,110825,1,0,0:0:0:0:
256,192,110979,1,8,0:0:0:0:
256,192,111287,1,8,0:0:0:0:
256,192,111440,1,8,0:0:0:0:
256,192,111594,1,8,0:0:0:0:
256,192,111902,1,0,0:0:0:0:
256,192,112517,1,0,0:0:0:0:
256,192,112825,1,8,0:0:0:0:
256,192,112979,1,0,0:0:0:0:
256,192,113133,1,0,0:0:0:0:
256,192,113440,1,8,0:0:0:0:
256,192,113748,1,4,0:0:0:0:
256,192,114364,1,0,0:0:0:0:
256,192,114671,1,8,0:0:0:0:
256,192,114825,1,8,0:0:0:0:
256,192,114979,1,0,0:0:0:0:
256,192,115287,1,8,0:0:0:0:
256,192,115594,1,8,0:0:0:0:
256,192,115902,1,0,0:0:0:0:
256,192,116210,1,0,0:0:0:0:
256,192,116825,1,0,0:0:0:0:
256,192,117133,1,8,0:0:0:0:
256,192,117287,1,0,0:0:0:0:
256,192,117440,1,0,0:0:0:0:
256,192,117748,1,8,0:0:0:0:
256,192,118056,1,0,0:0:0:0:
256,192,118364,1,8,0:0:0:0:
256,192,118671,1,0,0:0:0:0:
256,192,118979,1,8,0:0:0:0:
256,192,119133,1,0,0:0:0:0:
256,192,119287,1,0,0:0:0:0:
256,192,119440,1,0,0:0:0:0:
256,192,119594,1,8,0:0:0:0:
256,192,119902,1,0,0:0:0:0:
256,192,120210,1,8,0:0:0:0:
256,192,120364,1,8,0:0:0:0:
256,192,120517,1,8,0:0:0:0:
256,192,120671,1,8,0:0:0:0:
256,192,120825,1,0,0:0:0:0:
256,192,121133,1,0,0:0:0:0:
256,192,121287,1,0,0:0:0:0:
256,192,121440,1,8,0:0:0:0:
256,192,121748,1,0,0:0:0:0:
256,192,121902,1,8,0:0:0:0:
256,192,122056,1,0,0:0:0:0:
256,192,122210,1,8,0:0:0:0:
256,192,122364,12,8,123287,0:0:0:0:
256,192,123594,5,4,0:0:0:0:
