osu file format v14

[General]
AudioFilename: Caladborg - Invoker.mp3
AudioLeadIn: 0
PreviewTime: 10364
Countdown: 0
SampleSet: None
StackLeniency: 0.7
Mode: 1
LetterboxInBreaks: 0
WidescreenStoryboard: 0

[Editor]
Bookmarks: 471,10318,20164,30010,39856,49702,59548,69394,79241,89087,103856
DistanceSpacing: 1
BeatDivisor: 6
GridSize: 16
TimelineZoom: 4.399998

[Metadata]
Title:invoker
TitleUnicode:invoker
Artist:Caladborg
ArtistUnicode:Caladborg
Creator:-Kazu-
Version:Backfire's Inner Oni
Source:beatmania IIDX 21 SPADA
Tags:Backfire USAO Spy
BeatmapID:1477400
BeatmapSetID:351126

[Difficulty]
HPDrainRate:6
CircleSize:5
OverallDifficulty:6
ApproachRate:5
SliderMultiplier:1.4
SliderTickRate:1

[Events]
//Background and Video events
0,0,"BGBG.jpg",0,0
//Break Periods
//Storyboard Layer 0 (Background)
//Storyboard Layer 1 (Fail)
//Storyboard Layer 2 (Pass)
//Storyboard Layer 3 (Foreground)
//Storyboard Sound Samples

[TimingPoints]
517.881525745323,307.692307692308,4,1,0,100,1,0
49729,-90.9090909090909,4,1,0,100,0,0
49748,-90.9090909090909,4,1,0,100,0,1
51748,-90.9090909090909,4,1,0,100,0,0
52210,-90.9090909090909,4,1,0,100,0,1
59594,-90.9090909090909,4,1,0,100,0,0
59748,-100,4,1,0,100,0,0
79594,-100,4,1,0,50,0,0
89133,-100,4,1,0,70,0,0
90344,-90.9090909090909,4,1,0,70,0,0
91902,-100,4,1,0,70,0,0
92806,-90.9090909090909,4,1,0,70,0,0
94364,-100,4,1,0,70,0,0
95267,-95.2380952380952,4,1,0,70,0,0
96498,-90.9090909090909,4,1,0,70,0,0
97729,-86.9565217391304,4,1,0,70,0,0
98960,-83.3333333333333,4,1,0,70,0,0
101421,-76.9230769230769,4,1,0,70,0,0
103883,-83.3333333333333,4,1,0,100,0,0
103902,-83.3333333333333,4,1,0,100,0,1
123594,-83.3333333333333,4,1,0,100,0,0

[HitObjects]
256,192,517,5,4,0:0:0:0:
256,192,979,1,0,0:0:0:0:
256,192,1133,1,8,0:0:0:0:
256,192,1287,1,0,0:0:0:0:
256,192,1594,1,0,0:0:0:0:
256,192,1748,1,0,0:0:0:0:
256,192,2364,1,0,0:0:0:0:
256,192,2671,1,8,0:0:0:0:
256,192,2825,1,0,0:0:0:0:
256,192,2979,1,0,0:0:0:0:
256,192,3440,1,0,0:0:0:0:
256,192,3594,1,8,0:0:0:0:
256,192,3748,1,0,0:0:0:0:
256,192,4056,1,0,0:0:0:0:
256,192,4210,1,0,0:0:0:0:
256,192,4671,1,0,0:0:0:0:
256,192,4825,1,8,0:0:0:0:
256,192,4979,1,0,0:0:0:0:
256,192,5133,1,8,0:0:0:0:
256,192,5287,1,0,0:0:0:0:
256,192,5440,1,0,0:0:0:0:
256,192,5902,1,0,0:0:0:0:
256,192,6056,1,8,0:0:0:0:
256,192,6210,1,0,0:0:0:0:
256,192,6517,1,0,0:0:0:0:
256,192,6671,1,0,0:0:0:0:
256,192,7287,1,0,0:0:0:0:
256,192,7594,1,8,0:0:0:0:
256,192,7748,1,0,0:0:0:0:
256,192,7902,1,0,0:0:0:0:
256,192,8364,1,0,0:0:0:0:
256,192,8517,1,8,0:0:0:0:
256,192,8671,1,0,0:0:0:0:
256,192,8979,1,0,0:0:0:0:
256,192,9133,1,0,0:0:0:0:
256,192,9594,1,0,0:0:0:0:
256,192,9748,1,8,0:0:0:0:
256,192,9902,1,0,0:0:0:0:
256,192,10056,1,8,0:0:0:0:
256,192,10210,1,8,0:0:0:0:
256,192,10364,1,4,0:0:0:0:
256,192,10517,1,0,0:0:0:0:
256,192,10671,1,8,0:0:0:0:
256,192,10825,1,0,0:0:0:0:
256,192,11133,1,0,0:0:0:0:
256,192,11210,1,0,0:0:0:0:
256,192,11287,1,0,0:0:0:0:
256,192,11440,1,8,0:0:0:0:
256,192,11594,1,0,0:0:0:0:
256,192,11748,1,0,0:0:0:0:
256,192,11902,1,8,0:0:0:0:
256,192,12056,1,0,0:0:0:0:
256,192,12364,1,0,0:0:0:0:
256,192,12517,1,8,0:0:0:0:
288,144,12594,1,8,0:0:0:0:
256,192,12671,1,0,0:0:0:0:
256,128,12748,1,0,0:0:0:0:
256,192,12825,1,8,0:0:0:0:
256,192,12979,1,0,0:0:0:0:
256,192,13133,1,8,0:0:0:0:
256,192,13287,1,0,0:0:0:0:
256,192,13594,1,0,0:0:0:0:
256,192,13671,1,0,0:0:0:0:
256,192,13748,1,8,0:0:0:0:
256,192,13902,1,0,0:0:0:0:
256,192,14056,1,0,0:0:0:0:
256,192,14133,1,0,0:0:0:0:
256,192,14210,1,0,0:0:0:0:
256,192,14364,1,8,0:0:0:0:
256,192,14517,1,0,0:0:0:0:
256,192,14825,1,0,0:0:0:0:
256,192,14979,1,12,0:0:0:0:
256,128,15133,1,0,0:0:0:0:
256,192,15287,1,12,0:0:0:0:
256,192,15440,1,0,0:0:0:0:
256,192,15517,1,0,0:0:0:0:
256,192,15594,1,8,0:0:0:0:
256,192,15748,1,0,0:0:0:0:
400,160,15902,1,0,0:0:0:0:
400,176,15979,1,0,0:0:0:0:
416,176,16056,1,0,0:0:0:0:
256,192,16133,1,0,0:0:0:0:
256,192,16210,1,8,0:0:0:0:
256,192,16364,1,0,0:0:0:0:
256,192,16517,1,0,0:0:0:0:
256,192,16671,1,0,0:0:0:0:
256,144,16748,1,0,0:0:0:0:
256,192,16825,1,8,0:0:0:0:
256,192,16979,1,0,0:0:0:0:
400,144,17133,1,0,0:0:0:0:
448,192,17210,1,0,0:0:0:0:
256,192,17287,1,0,0:0:0:0:
272,128,17364,1,0,0:0:0:0:
256,192,17440,1,8,0:0:0:0:
272,128,17594,1,0,0:0:0:0:
256,192,17748,1,4,0:0:0:0:
256,192,17902,1,0,0:0:0:0:
256,192,17979,1,0,0:0:0:0:
256,192,18056,1,8,0:0:0:0:
256,192,18210,1,0,0:0:0:0:
272,128,18364,1,0,0:0:0:0:
272,128,18440,1,0,0:0:0:0:
256,192,18517,1,0,0:0:0:0:
272,128,18594,1,0,0:0:0:0:
256,192,18671,1,8,0:0:0:0:
256,192,18825,1,0,0:0:0:0:
256,192,18979,1,0,0:0:0:0:
256,192,19056,1,8,0:0:0:0:
256,192,19133,1,0,0:0:0:0:
256,192,19210,1,0,0:0:0:0:
256,192,19287,1,8,0:0:0:0:
240,144,19364,1,0,0:0:0:0:
256,192,19440,1,8,0:0:0:0:
256,192,19517,1,8,0:0:0:0:
256,192,19594,1,0,0:0:0:0:
256,192,19748,1,0,0:0:0:0:
256,192,19902,1,8,0:0:0:0:
256,192,19979,1,8,0:0:0:0:
256,192,20056,1,0,0:0:0:0:
256,192,20133,1,8,0:0:0:0:
256,192,20210,1,0,0:0:0:0:
256,192,20364,1,0,0:0:0:0:
256,192,20517,1,8,0:0:0:0:
272,128,20671,1,0,0:0:0:0:
272,128,20748,1,0,0:0:0:0:
256,192,20825,1,0,0:0:0:0:
256,192,20979,1,0,0:0:0:0:
256,192,21133,1,8,0:0:0:0:
256,192,21287,1,0,0:0:0:0:
256,192,21364,1,0,0:0:0:0:
256,192,21440,1,0,0:0:0:0:
256,192,21594,1,0,0:0:0:0:
256,192,21748,1,8,0:0:0:0:
272,128,21902,1,0,0:0:0:0:
272,128,21979,1,0,0:0:0:0:
256,192,22056,1,0,0:0:0:0:
256,192,22210,1,0,0:0:0:0:
256,192,22364,1,8,0:0:0:0:
272,128,22440,1,0,0:0:0:0:
256,192,22517,1,8,0:0:0:0:
272,128,22594,1,8,0:0:0:0:
256,192,22671,1,0,0:0:0:0:
256,192,22825,1,0,0:0:0:0:
256,192,22902,1,0,0:0:0:0:
256,192,22979,1,8,0:0:0:0:
272,128,23133,1,0,0:0:0:0:
256,192,23287,1,0,0:0:0:0:
256,192,23440,1,0,0:0:0:0:
256,192,23517,1,0,0:0:0:0:
256,192,23594,1,8,0:0:0:0:
256,192,23748,1,0,0:0:0:0:
256,192,23902,1,0,0:0:0:0:
256,192,24056,1,0,0:0:0:0:
272,128,24133,1,0,0:0:0:0:
256,192,24210,1,8,0:0:0:0:
256,192,24364,1,8,0:0:0:0:
256,192,24440,1,8,0:0:0:0:
256,192,24517,1,0,0:0:0:0:
240,112,24671,1,0,0:0:0:0:
256,192,24825,1,8,0:0:0:0:
256,192,25133,1,0,0:0:0:0:
256,192,25287,1,8,0:0:0:0:
256,192,25364,1,8,0:0:0:0:
256,192,25440,1,0,0:0:0:0:
256,192,25594,1,8,0:0:0:0:
256,192,25748,1,0,0:0:0:0:
256,192,25902,1,0,0:0:0:0:
256,192,25979,1,0,0:0:0:0:
256,192,26056,1,8,0:0:0:0:
256,192,26133,1,0,0:0:0:0:
256,192,26210,1,0,0:0:0:0:
256,192,26364,1,0,0:0:0:0:
256,192,26517,1,0,0:0:0:0:
256,192,26594,1,0,0:0:0:0:
256,192,26671,1,8,0:0:0:0:
256,192,26825,1,0,0:0:0:0:
256,192,26979,1,8,0:0:0:0:
304,192,27056,1,8,0:0:0:0:
256,192,27133,1,0,0:0:0:0:
256,192,27287,1,8,0:0:0:0:
256,192,27440,1,0,0:0:0:0:
256,192,27517,1,0,0:0:0:0:
256,192,27594,1,0,0:0:0:0:
256,192,27748,1,0,0:0:0:0:
256,192,27825,1,0,0:0:0:0:
256,192,27902,1,8,0:0:0:0:
256,192,28056,1,8,0:0:0:0:
256,192,28133,1,8,0:0:0:0:
256,192,28210,1,0,0:0:0:0:
256,192,28287,1,0,0:0:0:0:
256,192,28364,1,8,0:0:0:0:
256,192,28517,1,0,0:0:0:0:
256,192,28671,1,8,0:0:0:0:
256,160,28748,1,0,0:0:0:0:
256,160,28825,1,0,0:0:0:0:
256,192,28979,1,0,0:0:0:0:
256,112,29056,1,0,0:0:0:0:
256,192,29133,1,8,0:0:0:0:
256,192,29287,1,0,0:0:0:0:
256,128,29440,1,0,0:0:0:0:
256,192,29594,1,8,0:0:0:0:
256,192,29671,1,0,0:0:0:0:
256,192,29748,1,8,0:0:0:0:
272,160,29825,1,8,0:0:0:0:
272,160,29902,1,0,0:0:0:0:
256,160,29979,1,0,0:0:0:0:
256,160,30056,1,8,0:0:0:0:
256,192,30210,1,0,0:0:0:0:
256,192,30287,1,0,0:0:0:0:
256,192,30364,1,8,0:0:0:0:
256,192,30517,1,0,0:0:0:0:
256,192,30671,1,0,0:0:0:0:
256,192,30748,1,0,0:0:0:0:
256,192,30825,1,0,0:0:0:0:
256,192,30979,1,8,0:0:0:0:
272,160,31133,1,0,0:0:0:0:
256,192,31287,1,0,0:0:0:0:
256,192,31364,1,0,0:0:0:0:
256,192,31440,1,0,0:0:0:0:
256,192,31517,1,0,0:0:0:0:
256,192,31594,1,8,0:0:0:0:
256,192,31748,1,0,0:0:0:0:
256,192,31825,1,0,0:0:0:0:
256,192,31902,1,0,0:0:0:0:
256,192,32056,1,0,0:0:0:0:
256,192,32210,1,12,0:0:0:0:
256,192,32517,1,0,0:0:0:0:
256,192,32594,1,0,0:0:0:0:
256,192,32671,1,0,0:0:0:0:
256,192,32825,1,8,0:0:0:0:
256,192,32979,1,0,0:0:0:0:
256,192,33056,1,0,0:0:0:0:
256,192,33133,1,0,0:0:0:0:
256,192,33210,1,0,0:0:0:0:
256,192,33287,1,0,0:0:0:0:
256,192,33440,1,8,0:0:0:0:
272,176,33594,1,0,0:0:0:0:
272,176,33671,1,8,0:0:0:0:
256,192,33748,1,8,0:0:0:0:
256,192,33825,1,0,0:0:0:0:
256,192,33902,1,8,0:0:0:0:
256,192,33979,1,0,0:0:0:0:
256,192,34056,1,8,0:0:0:0:
256,192,34210,1,0,0:0:0:0:
256,192,34287,1,0,0:0:0:0:
256,192,34364,1,8,0:0:0:0:
272,176,34440,1,0,0:0:0:0:
256,192,34517,1,0,0:0:0:0:
256,192,34671,1,12,0:0:0:0:
256,192,34979,1,0,0:0:0:0:
256,192,35056,1,0,0:0:0:0:
256,192,35133,1,8,0:0:0:0:
256,192,35210,1,0,0:0:0:0:
256,192,35287,1,8,0:0:0:0:
256,192,35364,1,8,0:0:0:0:
256,192,35440,1,8,0:0:0:0:
256,192,35517,1,0,0:0:0:0:
256,192,35594,1,8,0:0:0:0:
256,192,35671,1,0,0:0:0:0:
256,192,35748,1,8,0:0:0:0:
256,192,35825,1,8,0:0:0:0:
256,192,35902,1,0,0:0:0:0:
256,192,35979,1,0,0:0:0:0:
256,192,36056,1,8,0:0:0:0:
256,192,36210,1,8,0:0:0:0:
256,192,36287,1,0,0:0:0:0:
256,192,36364,1,0,0:0:0:0:
256,192,36440,1,8,0:0:0:0:
256,192,36517,1,8,0:0:0:0:
256,192,36594,1,8,0:0:0:0:
256,192,36671,1,0,0:0:0:0:
256,192,36748,1,0,0:0:0:0:
256,192,36825,1,8,0:0:0:0:
256,192,36902,1,0,0:0:0:0:
256,192,36979,1,0,0:0:0:0:
256,192,37056,1,0,0:0:0:0:
256,192,37133,1,8,0:0:0:0:
240,144,37210,1,8,0:0:0:0:
256,192,37287,1,0,0:0:0:0:
256,192,37364,1,0,0:0:0:0:
256,192,37440,1,8,0:0:0:0:
272,160,37517,1,0,0:0:0:0:
272,160,37594,1,8,0:0:0:0:
256,192,37748,1,8,0:0:0:0:
272,160,37825,1,0,0:0:0:0:
272,160,37902,1,8,0:0:0:0:
272,160,38056,1,0,0:0:0:0:
272,160,38133,1,0,0:0:0:0:
256,192,38210,1,8,0:0:0:0:
256,192,38287,1,8,0:0:0:0:
256,192,38364,1,0,0:0:0:0:
272,144,38440,1,0,0:0:0:0:
256,192,38517,1,8,0:0:0:0:
256,192,38671,1,0,0:0:0:0:
256,192,38825,1,0,0:0:0:0:
256,192,38979,1,8,0:0:0:0:
256,192,39056,1,8,0:0:0:0:
256,192,39133,1,0,0:0:0:0:
256,192,39287,1,0,0:0:0:0:
256,192,39364,1,8,0:0:0:0:
256,192,39440,1,8,0:0:0:0:
256,192,39517,1,0,0:0:0:0:
256,192,39594,1,8,0:0:0:0:
272,144,39671,1,8,0:0:0:0:
272,144,39748,1,0,0:0:0:0:
256,192,39902,1,4,0:0:0:0:
256,192,40210,1,8,0:0:0:0:
256,192,40364,1,0,0:0:0:0:
256,192,40671,1,0,0:0:0:0:
256,192,40748,1,0,0:0:0:0:
256,192,40825,1,8,0:0:0:0:
256,192,40979,1,0,0:0:0:0:
256,192,41133,1,0,0:0:0:0:
256,192,41440,1,8,0:0:0:0:
256,192,41594,1,0,0:0:0:0:
256,192,41902,1,0,0:0:0:0:
272,160,41979,1,0,0:0:0:0:
256,192,42056,1,8,0:0:0:0:
256,192,42210,1,8,0:0:0:0:
256,192,42364,1,0,0:0:0:0:
240,176,42440,1,0,0:0:0:0:
240,176,42517,1,0,0:0:0:0:
256,192,42671,1,8,0:0:0:0:
256,192,42825,1,0,0:0:0:0:
256,192,43133,1,0,0:0:0:0:
256,192,43210,1,0,0:0:0:0:
256,192,43287,1,8,0:0:0:0:
256,192,43440,1,8,0:0:0:0:
256,192,43594,1,0,0:0:0:0:
240,160,43748,1,0,0:0:0:0:
240,160,43825,1,8,0:0:0:0:
240,160,43902,1,8,0:0:0:0:
256,192,44056,1,0,0:0:0:0:
256,192,44364,1,8,0:0:0:0:
256,192,44440,1,0,0:0:0:0:
256,192,44517,1,8,0:0:0:0:
256,192,44671,1,8,0:0:0:0:
256,192,44825,1,0,0:0:0:0:
256,192,45133,1,8,0:0:0:0:
256,192,45287,1,0,0:0:0:0:
256,192,45594,1,0,0:0:0:0:
256,192,45671,1,0,0:0:0:0:
256,192,45748,1,8,0:0:0:0:
256,192,45902,1,0,0:0:0:0:
256,192,46056,1,8,0:0:0:0:
240,160,46210,1,0,0:0:0:0:
240,160,46287,1,0,0:0:0:0:
256,192,46364,1,8,0:0:0:0:
256,192,46517,1,0,0:0:0:0:
256,192,46825,1,0,0:0:0:0:
256,192,46902,1,0,0:0:0:0:
256,192,46979,1,8,0:0:0:0:
256,192,47056,1,8,0:0:0:0:
256,192,47133,1,0,0:0:0:0:
256,192,47287,1,0,0:0:0:0:
256,192,47594,1,8,0:0:0:0:
256,192,47748,1,0,0:0:0:0:
240,160,47825,1,0,0:0:0:0:
240,160,47902,1,0,0:0:0:0:
256,192,48056,1,0,0:0:0:0:
256,192,48210,1,8,0:0:0:0:
256,192,48517,1,0,0:0:0:0:
256,192,48671,1,0,0:0:0:0:
256,192,48748,1,8,0:0:0:0:
256,192,48825,1,8,0:0:0:0:
256,192,48902,1,0,0:0:0:0:
256,192,48979,1,0,0:0:0:0:
256,192,49056,1,8,0:0:0:0:
256,192,49133,1,0,0:0:0:0:
256,192,49287,1,0,0:0:0:0:
256,192,49364,1,0,0:0:0:0:
256,192,49440,1,8,0:0:0:0:
256,160,49492,1,8,0:0:0:0:
288,160,49543,1,8,0:0:0:0:
256,192,49594,1,0,0:0:0:0:
256,192,49748,1,4,0:0:0:0:
256,192,49902,1,0,0:0:0:0:
256,192,49979,1,0,0:0:0:0:
256,192,50056,1,8,0:0:0:0:
288,144,50133,1,0,0:0:0:0:
256,192,50210,1,8,0:0:0:0:
256,192,50364,1,8,0:0:0:0:
256,192,50440,1,0,0:0:0:0:
256,192,50517,1,0,0:0:0:0:
256,192,50594,1,8,0:0:0:0:
256,192,50671,1,8,0:0:0:0:
256,192,50748,1,0,0:0:0:0:
256,192,50825,1,8,0:0:0:0:
256,192,50979,1,4,0:0:0:0:
256,192,51133,1,0,0:0:0:0:
256,192,51210,1,0,0:0:0:0:
256,192,51287,1,8,0:0:0:0:
256,192,51440,1,4,0:0:0:0:
256,192,51594,1,8,0:0:0:0:
256,192,51671,1,0,0:0:0:0:
256,192,51748,1,8,0:0:0:0:
256,192,52210,1,4,0:0:0:0:
256,192,52364,1,0,0:0:0:0:
256,192,52440,1,0,0:0:0:0:
256,192,52517,1,8,0:0:0:0:
256,160,52594,1,8,0:0:0:0:
256,192,52671,1,0,0:0:0:0:
256,192,52825,1,0,0:0:0:0:
256,192,52902,1,0,0:0:0:0:
256,192,52979,1,8,0:0:0:0:
256,192,53056,1,0,0:0:0:0:
256,192,53133,1,8,0:0:0:0:
256,192,53210,1,0,0:0:0:0:
256,192,53287,1,0,0:0:0:0:
256,192,53440,1,4,0:0:0:0:
256,192,53594,1,0,0:0:0:0:
256,192,53671,1,0,0:0:0:0:
256,192,53748,1,8,0:0:0:0:
256,192,53902,1,4,0:0:0:0:
256,192,54056,1,0,0:0:0:0:
256,192,54133,1,8,0:0:0:0:
256,192,54210,1,0,0:0:0:0:
288,144,54287,1,0,0:0:0:0:
256,192,54364,1,8,0:0:0:0:
256,192,54440,1,0,0:0:0:0:
256,192,54517,1,8,0:0:0:0:
256,192,54671,1,4,0:0:0:0:
256,192,54825,1,0,0:0:0:0:
256,192,54902,1,0,0:0:0:0:
256,192,54979,1,8,0:0:0:0:
256,192,55133,1,4,0:0:0:0:
256,192,55287,1,8,0:0:0:0:
256,192,55364,1,8,0:0:0:0:
256,192,55440,1,0,0:0:0:0:
256,192,55517,1,0,0:0:0:0:
256,192,55594,1,8,0:0:0:0:
256,192,55671,1,0,0:0:0:0:
256,192,55748,1,8,0:0:0:0:
256,192,55902,1,4,0:0:0:0:
256,192,56056,1,0,0:0:0:0:
256,192,56133,1,0,0:0:0:0:
256,192,56210,1,8,0:0:0:0:
256,192,56364,1,4,0:0:0:0:
256,192,56517,1,8,0:0:0:0:
256,192,56594,1,8,0:0:0:0:
256,192,56671,1,0,0:0:0:0:
256,192,56825,1,12,0:0:0:0:
256,192,57133,5,4,0:0:0:0:
256,192,57287,1,8,0:0:0:0:
256,192,57364,1,8,0:0:0:0:
256,192,57440,1,0,0:0:0:0:
272,160,57517,1,8,0:0:0:0:
256,192,57594,1,8,0:0:0:0:
304,144,57671,1,0,0:0:0:0:
256,192,57748,1,8,0:0:0:0:
256,192,57825,1,0,0:0:0:0:
256,192,57902,1,8,0:0:0:0:
256,192,58056,1,0,0:0:0:0:
256,192,58133,1,0,0:0:0:0:
256,192,58210,1,8,0:0:0:0:
256,192,58364,1,4,0:0:0:0:
256,192,58517,1,0,0:0:0:0:
256,192,58594,1,8,0:0:0:0:
256,192,58671,1,0,0:0:0:0:
256,192,58825,1,4,0:0:0:0:
256,192,58979,1,8,0:0:0:0:
256,192,59133,1,0,0:0:0:0:
256,192,59210,1,8,0:0:0:0:
256,192,59287,1,8,0:0:0:0:
256,176,59364,1,0,0:0:0:0:
256,192,59440,1,8,0:0:0:0:
256,192,59594,1,4,0:0:0:0:
256,192,59902,1,12,0:0:0:0:
256,192,60056,1,4,0:0:0:0:
256,192,60364,1,0,0:0:0:0:
256,192,60440,1,0,0:0:0:0:
256,192,60517,1,8,0:0:0:0:
256,192,60671,1,8,0:0:0:0:
256,192,60825,1,4,0:0:0:0:
256,192,61133,1,12,0:0:0:0:
256,192,61287,1,4,0:0:0:0:
256,192,61594,1,4,0:0:0:0:
256,192,61748,1,12,0:0:0:0:
256,192,62056,1,0,0:0:0:0:
256,192,62133,1,0,0:0:0:0:
256,192,62210,1,0,0:0:0:0:
256,192,62287,1,0,0:0:0:0:
256,192,62364,1,8,0:0:0:0:
256,192,62517,1,0,0:0:0:0:
256,192,62594,1,8,0:0:0:0:
256,192,62671,1,0,0:0:0:0:
256,192,62825,1,0,0:0:0:0:
256,192,62979,1,8,0:0:0:0:
256,192,63056,1,0,0:0:0:0:
256,192,63133,1,8,0:0:0:0:
256,192,63287,1,0,0:0:0:0:
256,192,63364,1,0,0:0:0:0:
256,192,63440,1,0,0:0:0:0:
288,144,63517,1,0,0:0:0:0:
256,192,63594,1,8,0:0:0:0:
256,192,63748,1,0,0:0:0:0:
256,192,63825,1,8,0:0:0:0:
256,192,63902,1,0,0:0:0:0:
256,192,63979,1,0,0:0:0:0:
256,192,64056,1,8,0:0:0:0:
256,192,64210,1,0,0:0:0:0:
256,192,64261,1,0,0:0:0:0:
352,144,64312,1,0,0:0:0:0:
336,144,64364,1,8,0:0:0:0:
256,192,64517,1,4,0:0:0:0:
256,192,64825,1,12,0:0:0:0:
256,192,64979,1,4,0:0:0:0:
256,192,65287,1,0,0:0:0:0:
256,192,65364,1,0,0:0:0:0:
256,192,65440,1,8,0:0:0:0:
256,192,65517,1,8,0:0:0:0:
256,192,65594,1,0,0:0:0:0:
256,192,65748,1,4,0:0:0:0:
256,192,66056,1,12,0:0:0:0:
256,192,66210,1,4,0:0:0:0:
256,192,66517,1,0,0:0:0:0:
256,192,66594,1,0,0:0:0:0:
256,192,66671,1,8,0:0:0:0:
256,192,66979,1,0,0:0:0:0:
256,192,67056,1,0,0:0:0:0:
256,192,67133,1,0,0:0:0:0:
256,192,67210,1,0,0:0:0:0:
256,192,67287,1,8,0:0:0:0:
256,192,67440,1,0,0:0:0:0:
256,192,67517,1,0,0:0:0:0:
256,192,67594,1,0,0:0:0:0:
256,192,67671,1,8,0:0:0:0:
256,192,67748,1,0,0:0:0:0:
256,192,67902,1,8,0:0:0:0:
256,192,67979,1,8,0:0:0:0:
256,192,68056,1,0,0:0:0:0:
256,192,68210,1,0,0:0:0:0:
256,192,68287,1,0,0:0:0:0:
256,192,68364,1,0,0:0:0:0:
256,192,68517,1,8,0:0:0:0:
256,192,68671,1,0,0:0:0:0:
256,192,68748,1,0,0:0:0:0:
256,192,68825,1,0,0:0:0:0:
256,192,68902,1,8,0:0:0:0:
256,192,68979,1,0,0:0:0:0:
256,192,69133,1,0,0:0:0:0:
336,160,69210,1,0,0:0:0:0:
336,160,69287,1,8,0:0:0:0:
256,192,69364,1,8,0:0:0:0:
256,192,69440,1,0,0:0:0:0:
256,192,69594,8,0,71440,0:0:0:0:
256,192,71594,5,4,0:0:0:0:
256,192,71902,1,4,0:0:0:0:
256,192,72056,8,0,74210,0:0:0:0:
256,192,74364,5,4,0:0:0:0:
256,160,74671,1,0,0:0:0:0:
256,160,74979,1,8,0:0:0:0:
256,160,75287,1,0,0:0:0:0:
288,192,75594,1,0,0:0:0:0:
288,176,75902,1,0,0:0:0:0:
288,176,76210,1,8,0:0:0:0:
256,192,76517,1,4,0:0:0:0:
256,192,76825,1,4,0:0:0:0:
288,176,77133,1,0,0:0:0:0:
288,176,77440,1,8,0:0:0:0:
288,176,77594,1,0,0:0:0:0:
288,144,77748,1,8,0:0:0:0:
288,176,78056,1,0,0:0:0:0:
240,192,78210,1,0,0:0:0:0:
288,160,78364,1,8,0:0:0:0:
288,160,78671,1,0,0:0:0:0:
288,160,78979,1,0,0:0:0:0:
256,192,79287,1,8,0:0:0:0:
256,192,79594,1,8,0:0:0:0:
256,192,79748,1,0,0:0:0:0:
256,144,79902,1,0,0:0:0:0:
256,192,80056,1,8,0:0:0:0:
256,192,80364,1,8,0:0:0:0:
256,192,80671,1,0,0:0:0:0:
256,192,80825,1,8,0:0:0:0:
256,144,80979,1,0,0:0:0:0:
256,192,81133,1,8,0:0:0:0:
240,144,81287,1,0,0:0:0:0:
256,192,81440,1,8,0:0:0:0:
256,192,81594,1,8,0:0:0:0:
256,192,81748,1,0,0:0:0:0:
256,192,82056,1,8,0:0:0:0:
256,192,82210,1,8,0:0:0:0:
240,160,82364,1,0,0:0:0:0:
256,192,82517,1,8,0:0:0:0:
256,192,82671,1,0,0:0:0:0:
256,192,82825,1,8,0:0:0:0:
256,192,82979,1,0,0:0:0:0:
256,192,83133,1,0,0:0:0:0:
256,192,83287,1,8,0:0:0:0:
240,160,83440,1,0,0:0:0:0:
256,192,83594,1,8,0:0:0:0:
240,160,83748,1,0,0:0:0:0:
256,192,83902,1,8,0:0:0:0:
256,192,84056,1,0,0:0:0:0:
256,192,84210,1,0,0:0:0:0:
256,192,84517,1,8,0:0:0:0:
256,192,84671,1,8,0:0:0:0:
256,160,84825,1,0,0:0:0:0:
256,192,84979,1,8,0:0:0:0:
256,160,85133,1,0,0:0:0:0:
256,192,85287,1,0,0:0:0:0:
256,192,85440,1,8,0:0:0:0:
256,192,85594,1,0,0:0:0:0:
256,192,85748,1,8,0:0:0:0:
256,192,86056,1,8,0:0:0:0:
256,192,86364,1,0,0:0:0:0:
256,192,86671,1,8,0:0:0:0:
240,160,86825,1,0,0:0:0:0:
256,192,86979,1,8,0:0:0:0:
256,192,87133,1,8,0:0:0:0:
240,160,87287,1,0,0:0:0:0:
256,192,87440,1,0,0:0:0:0:
240,160,87517,1,0,0:0:0:0:
256,192,87594,1,8,0:0:0:0:
256,192,87748,1,8,0:0:0:0:
240,160,87825,1,0,0:0:0:0:
256,192,87902,1,8,0:0:0:0:
240,160,87979,1,8,0:0:0:0:
256,192,88056,1,0,0:0:0:0:
256,192,88133,1,0,0:0:0:0:
256,192,88210,1,8,0:0:0:0:
256,192,88364,1,0,0:0:0:0:
256,192,88440,1,0,0:0:0:0:
256,192,88517,1,8,0:0:0:0:
256,192,88671,1,8,0:0:0:0:
256,192,88748,1,8,0:0:0:0:
256,192,88825,1,0,0:0:0:0:
256,192,88902,1,0,0:0:0:0:
256,192,88979,1,8,0:0:0:0:
256,192,89133,1,4,0:0:0:0:
256,192,89440,1,8,0:0:0:0:
256,192,89594,1,0,0:0:0:0:
256,192,89902,1,0,0:0:0:0:
256,192,90210,1,8,0:0:0:0:
256,192,90364,1,0,0:0:0:0:
256,192,90517,1,8,0:0:0:0:
256,192,90594,1,0,0:0:0:0:
256,192,90671,1,8,0:0:0:0:
256,192,90748,1,8,0:0:0:0:
256,192,90825,1,0,0:0:0:0:
256,192,90902,1,0,0:0:0:0:
256,192,90979,1,8,0:0:0:0:
256,192,91133,1,0,0:0:0:0:
256,192,91287,1,4,0:0:0:0:
256,192,91594,1,12,0:0:0:0:
256,192,91902,1,8,0:0:0:0:
256,192,92056,1,0,0:0:0:0:
256,192,92364,1,0,0:0:0:0:
256,192,92671,1,8,0:0:0:0:
256,192,92825,1,0,0:0:0:0:
256,192,92979,1,0,0:0:0:0:
256,192,93056,1,0,0:0:0:0:
256,192,93133,1,8,0:0:0:0:
256,192,93287,1,8,0:0:0:0:
256,192,93364,1,0,0:0:0:0:
256,192,93440,1,8,0:0:0:0:
256,192,93517,1,8,0:0:0:0:
256,192,93594,1,0,0:0:0:0:
256,192,93671,1,0,0:0:0:0:
256,192,93748,1,8,0:0:0:0:
256,192,93902,1,0,0:0:0:0:
256,192,94056,1,4,0:0:0:0:
256,192,94364,1,8,0:0:0:0:
256,192,94517,1,0,0:0:0:0:
256,192,94825,1,0,0:0:0:0:
256,192,95133,1,8,0:0:0:0:
256,192,95287,1,4,0:0:0:0:
256,192,95594,1,8,0:0:0:0:
256,192,95748,1,0,0:0:0:0:
256,192,96056,1,0,0:0:0:0:
256,192,96364,1,8,0:0:0:0:
256,192,96517,1,4,0:0:0:0:
256,192,96825,1,8,0:0:0:0:
256,192,96979,1,0,0:0:0:0:
256,192,97287,1,0,0:0:0:0:
256,192,97594,1,8,0:0:0:0:
256,192,97748,1,4,0:0:0:0:
256,192,98056,1,8,0:0:0:0:
256,192,98210,1,0,0:0:0:0:
256,192,98517,1,0,0:0:0:0:
256,192,98825,1,8,0:0:0:0:
256,192,98979,1,4,0:0:0:0:
256,192,99287,1,8,0:0:0:0:
256,192,99440,1,8,0:0:0:0:
256,192,99594,1,4,0:0:0:0:
256,192,99902,1,8,0:0:0:0:
256,192,100056,1,8,0:0:0:0:
256,192,100210,1,4,0:0:0:0:
256,192,100517,1,8,0:0:0:0:
256,192,100671,1,8,0:0:0:0:
256,192,100825,1,4,0:0:0:0:
256,192,101133,1,8,0:0:0:0:
256,192,101287,1,8,0:0:0:0:
256,192,101440,1,4,0:0:0:0:
256,192,101748,1,4,0:0:0:0:
256,192,102056,1,4,0:0:0:0:
256,192,102364,1,4,0:0:0:0:
256,192,102671,1,4,0:0:0:0:
256,192,102825,1,4,0:0:0:0:
256,192,102979,1,4,0:0:0:0:
256,192,103133,1,4,0:0:0:0:
256,192,103287,1,4,0:0:0:0:
256,192,103440,1,4,0:0:0:0:
256,192,103594,1,12,0:0:0:0:
256,192,103902,1,0,0:0:0:0:
256,192,103979,1,8,0:0:0:0:
256,192,104056,1,0,0:0:0:0:
256,192,104133,1,0,0:0:0:0:
256,192,104210,1,8,0:0:0:0:
272,176,104287,1,0,0:0:0:0:
256,192,104364,1,8,0:0:0:0:
256,192,104440,1,8,0:0:0:0:
256,192,104517,1,0,0:0:0:0:
256,192,104671,1,8,0:0:0:0:
256,192,104748,1,0,0:0:0:0:
256,192,104825,1,0,0:0:0:0:
256,192,104979,1,8,0:0:0:0:
256,192,105133,1,0,0:0:0:0:
256,192,105287,1,0,0:0:0:0:
256,192,105364,1,8,0:0:0:0:
256,192,105440,1,8,0:0:0:0:
256,176,105517,1,0,0:0:0:0:
256,176,105594,1,8,0:0:0:0:
256,192,105748,1,8,0:0:0:0:
256,192,105825,1,0,0:0:0:0:
256,192,105902,1,0,0:0:0:0:
256,192,105979,1,0,0:0:0:0:
256,192,106056,1,8,0:0:0:0:
256,192,106133,1,8,0:0:0:0:
256,192,106210,1,0,0:0:0:0:
256,192,106364,1,8,0:0:0:0:
272,176,106440,1,8,0:0:0:0:
256,192,106517,1,0,0:0:0:0:
256,192,106671,1,0,0:0:0:0:
256,192,106748,1,8,0:0:0:0:
256,192,106825,1,0,0:0:0:0:
256,192,106902,1,8,0:0:0:0:
256,192,106979,1,0,0:0:0:0:
256,192,107133,1,0,0:0:0:0:
256,192,107287,1,8,0:0:0:0:
256,192,107364,1,0,0:0:0:0:
256,192,107440,1,8,0:0:0:0:
256,192,107517,1,8,0:0:0:0:
256,192,107594,1,0,0:0:0:0:
256,192,107671,1,8,0:0:0:0:
256,192,107748,1,0,0:0:0:0:
256,192,107825,1,0,0:0:0:0:
256,192,107902,1,8,0:0:0:0:
256,192,108056,1,8,0:0:0:0:
272,176,108210,1,0,0:0:0:0:
272,176,108287,1,0,0:0:0:0:
256,192,108364,1,0,0:0:0:0:
256,192,108440,1,0,0:0:0:0:
256,192,108517,1,8,0:0:0:0:
256,192,108825,1,4,0:0:0:0:
256,192,108979,1,0,0:0:0:0:
256,192,109056,1,0,0:0:0:0:
256,192,109133,1,8,0:0:0:0:
256,192,109287,1,0,0:0:0:0:
256,192,109364,1,8,0:0:0:0:
256,192,109440,1,0,0:0:0:0:
256,192,109517,1,0,0:0:0:0:
256,192,109594,1,8,0:0:0:0:
256,192,109748,1,8,0:0:0:0:
256,192,109825,1,8,0:0:0:0:
256,192,109902,1,0,0:0:0:0:
256,192,109979,1,0,0:0:0:0:
256,192,110056,1,8,0:0:0:0:
256,192,110210,1,0,0:0:0:0:
256,192,110364,1,8,0:0:0:0:
256,192,110440,1,0,0:0:0:0:
256,192,110517,1,8,0:0:0:0:
272,160,110594,1,8,0:0:0:0:
256,192,110671,1,8,0:0:0:0:
256,192,110748,1,0,0:0:0:0:
256,192,110825,1,8,0:0:0:0:
256,192,110979,1,0,0:0:0:0:
256,192,111133,1,8,0:0:0:0:
256,192,111210,1,8,0:0:0:0:
256,192,111287,1,0,0:0:0:0:
256,192,111364,1,8,0:0:0:0:
256,192,111440,1,0,0:0:0:0:
256,192,111517,1,8,0:0:0:0:
256,192,111594,1,8,0:0:0:0:
256,192,111671,1,0,0:0:0:0:
256,192,111748,1,8,0:0:0:0:
256,192,111825,1,0,0:0:0:0:
256,192,111902,1,8,0:0:0:0:
256,192,112056,1,0,0:0:0:0:
256,192,112210,1,0,0:0:0:0:
256,192,112364,1,0,0:0:0:0:
256,192,112440,1,8,0:0:0:0:
256,192,112517,1,0,0:0:0:0:
256,192,112594,1,0,0:0:0:0:
256,192,112671,1,8,0:0:0:0:
240,128,112748,1,0,0:0:0:0:
256,192,112825,1,8,0:0:0:0:
240,128,112902,1,0,0:0:0:0:
256,192,112979,1,0,0:0:0:0:
256,192,113056,1,8,0:0:0:0:
256,192,113133,1,0,0:0:0:0:
256,192,113287,1,0,0:0:0:0:
256,192,113440,1,8,0:0:0:0:
272,160,113594,1,0,0:0:0:0:
256,192,113748,1,8,0:0:0:0:
256,160,113825,1,0,0:0:0:0:
256,192,113902,1,8,0:0:0:0:
256,192,113979,1,8,0:0:0:0:
256,192,114056,1,0,0:0:0:0:
256,192,114133,1,0,0:0:0:0:
256,192,114210,1,8,0:0:0:0:
256,192,114364,1,0,0:0:0:0:
272,160,114440,1,0,0:0:0:0:
256,192,114517,1,8,0:0:0:0:
256,192,114671,1,0,0:0:0:0:
256,192,114825,1,8,0:0:0:0:
256,192,114979,1,8,0:0:0:0:
256,192,115056,1,8,0:0:0:0:
256,192,115133,1,0,0:0:0:0:
256,192,115210,1,0,0:0:0:0:
256,192,115287,1,8,0:0:0:0:
256,192,115364,1,0,0:0:0:0:
256,192,115440,1,8,0:0:0:0:
256,192,115594,1,8,0:0:0:0:
256,192,115671,1,0,0:0:0:0:
256,192,115748,1,8,0:0:0:0:
256,192,115902,1,0,0:0:0:0:
256,192,116056,1,8,0:0:0:0:
256,208,116210,1,8,0:0:0:0:
256,208,116287,1,0,0:0:0:0:
256,208,116364,1,8,0:0:0:0:
256,208,116440,1,8,0:0:0:0:
256,192,116517,1,0,0:0:0:0:
256,192,116594,1,0,0:0:0:0:
256,192,116671,1,8,0:0:0:0:
256,192,116748,1,0,0:0:0:0:
256,192,116825,1,8,0:0:0:0:
256,192,116979,1,0,0:0:0:0:
256,192,117133,1,0,0:0:0:0:
256,192,117287,1,8,0:0:0:0:
256,192,117440,1,0,0:0:0:0:
256,192,117517,1,8,0:0:0:0:
256,192,117594,1,8,0:0:0:0:
256,192,117671,1,8,0:0:0:0:
256,192,117748,1,0,0:0:0:0:
256,192,117902,1,0,0:0:0:0:
256,192,118056,1,8,0:0:0:0:
256,192,118210,1,0,0:0:0:0:
256,192,118287,1,0,0:0:0:0:
256,192,118364,1,8,0:0:0:0:
272,160,118517,1,0,0:0:0:0:
256,192,118671,1,0,0:0:0:0:
272,160,118748,1,0,0:0:0:0:
256,192,118825,1,8,0:0:0:0:
256,192,118902,1,8,0:0:0:0:
256,192,118979,1,0,0:0:0:0:
256,192,119133,1,8,0:0:0:0:
256,192,119210,1,0,0:0:0:0:
256,192,119287,1,8,0:0:0:0:
256,192,119364,1,8,0:0:0:0:
256,192,119440,1,0,0:0:0:0:
256,192,119594,1,0,0:0:0:0:
256,192,119748,1,8,0:0:0:0:
256,192,119902,1,0,0:0:0:0:
256,192,119979,1,8,0:0:0:0:
256,192,120056,1,0,0:0:0:0:
256,192,120133,1,8,0:0:0:0:
256,192,120210,1,8,0:0:0:0:
256,192,120364,1,0,0:0:0:0:
272,160,120440,1,0,0:0:0:0:
256,192,120517,1,8,0:0:0:0:
256,192,120671,1,8,0:0:0:0:
256,192,120748,1,8,0:0:0:0:
256,192,120825,1,0,0:0:0:0:
272,160,120902,1,0,0:0:0:0:
256,192,120979,1,8,0:0:0:0:
256,192,121133,1,8,0:0:0:0:
256,192,121210,1,0,0:0:0:0:
256,192,121287,1,8,0:0:0:0:
256,192,121364,1,0,0:0:0:0:
256,192,121440,1,8,0:0:0:0:
256,192,121517,1,8,0:0:0:0:
256,192,121594,1,0,0:0:0:0:
256,192,121671,1,0,0:0:0:0:
256,192,121748,1,8,0:0:0:0:
272,160,121825,1,0,0:0:0:0:
256,192,121902,1,8,0:0:0:0:
256,192,121979,1,0,0:0:0:0:
256,192,122056,1,8,0:0:0:0:
256,192,122133,1,8,0:0:0:0:
256,192,122210,1,0,0:0:0:0:
272,160,122287,1,0,0:0:0:0:
272,160,122364,1,8,0:0:0:0:
272,160,122440,1,0,0:0:0:0:
272,160,122517,1,0,0:0:0:0:
272,160,122594,1,8,0:0:0:0:
272,160,122671,1,0,0:0:0:0:
272,160,122748,1,0,0:0:0:0:
272,160,122825,1,8,0:0:0:0:
272,160,122902,1,0,0:0:0:0:
272,144,122979,1,8,0:0:0:0:
336,128,123030,1,8,0:0:0:0:
336,144,123081,1,8,0:0:0:0:
320,144,123133,1,0,0:0:0:0:
256,192,123210,1,0,0:0:0:0:
320,176,123287,1,8,0:0:0:0:
320,176,123440,1,8,0:0:0:0:
256,192,123594,1,4,0:0:0:0:
