osu file format v14

[General]
AudioFilename: Caladborg - Invoker.mp3
AudioLeadIn: 0
PreviewTime: 10364
Countdown: 0
SampleSet: Soft
StackLeniency: 0.7
Mode: 3
LetterboxInBreaks: 0
SpecialStyle: 0
WidescreenStoryboard: 1

[Editor]
DistanceSpacing: 1
BeatDivisor: 4
GridSize: 16
TimelineZoom: 1.6

[Metadata]
Title:invoker
TitleUnicode:invoker
Artist:Caladborg
ArtistUnicode:Caladborg
Creator:-Kazu-
Version:Spy.K's Normal
Source:beatmania IIDX 21 SPADA
Tags:Backfire USAO Spy
BeatmapID:1477407
BeatmapSetID:351126

[Difficulty]
HPDrainRate:7
CircleSize:4
OverallDifficulty:7
ApproachRate:5
SliderMultiplier:1.2
SliderTickRate:1

[Events]
//Background and Video events
0,0,"BGBG.jpg",0,0
//Break Periods
//Storyboard Layer 0 (Background)
//Storyboard Layer 1 (Fail)
//Storyboard Layer 2 (Pass)
//Storyboard Layer 3 (Foreground)
//Storyboard Sound Samples
Sample,20210,0,"crash.wav",60
Sample,25133,0,"kick.wav",60
Sample,29979,0,"kick.wav",60
Sample,42287,0,"bass.wav",45
Sample,69133,0,"kick.wav",60
Sample,105902,0,"kick.wav",60
Sample,110825,0,"kick.wav",60
Sample,115748,0,"kick.wav",60
Sample,120056,0,"kick.wav",60
Sample,120364,0,"kick.wav",60
Sample,120671,0,"kick.wav",60
Sample,120979,0,"kick.wav",60
Sample,121210,0,"kick.wav",60
Sample,121364,0,"kick.wav",60
Sample,121517,0,"kick.wav",60
Sample,121671,0,"kick.wav",60
Sample,121825,0,"kick.wav",60
Sample,121979,0,"kick.wav",60
Sample,122133,0,"kick.wav",60
Sample,122287,0,"kick.wav",60
Sample,122402,0,"kick.wav",60
Sample,122440,0,"kick.wav",60
Sample,122479,0,"kick.wav",60
Sample,122517,0,"kick.wav",60
Sample,122556,0,"kick.wav",60
Sample,122594,0,"kick.wav",60
Sample,122633,0,"kick.wav",60
Sample,122671,0,"kick.wav",60
Sample,122710,0,"kick.wav",60
Sample,122748,0,"kick.wav",60
Sample,122787,0,"kick.wav",60
Sample,122825,0,"kick.wav",60
Sample,122864,0,"kick.wav",60
Sample,122902,0,"kick.wav",60
Sample,122940,0,"kick.wav",60
Sample,122979,0,"kick.wav",60
Sample,123017,0,"kick.wav",60
Sample,123056,0,"kick.wav",60
Sample,123094,0,"kick.wav",60
Sample,123133,0,"kick.wav",60
Sample,123171,0,"kick.wav",60
Sample,123210,0,"kick.wav",60
Sample,123248,0,"kick.wav",60

[TimingPoints]
517.881525745323,307.692307692308,4,2,1,60,1,0
49748,-100,4,2,1,60,0,1
51748,-100,4,2,1,60,0,0
52210,-100,4,2,1,60,0,1
59594,-100,4,2,1,60,0,0
103902,-100,4,2,1,60,0,1
123594,-100,4,2,1,60,0,0

[HitObjects]
64,192,517,5,0,0:0:0:60:kick.wav
448,192,517,1,0,0:0:0:60:crash.wav
320,192,979,1,0,0:0:0:0:
448,192,1133,1,0,0:0:0:0:
192,192,1287,1,0,0:0:0:0:
320,192,1594,1,0,0:0:0:0:
64,192,1748,1,0,0:0:0:0:
192,192,2364,1,0,0:0:0:0:
448,192,2671,1,0,0:0:0:0:
320,192,2825,1,0,0:0:0:0:
64,192,2979,1,0,0:0:0:0:
192,192,3440,1,0,0:0:0:0:
448,192,3594,1,0,0:0:0:0:
320,192,3748,1,0,0:0:0:0:
192,192,4056,1,0,0:0:0:0:
448,192,4210,1,0,0:0:0:0:
192,192,4671,1,0,0:0:0:0:
448,192,4825,1,0,0:0:0:0:
64,192,4979,1,0,0:0:0:0:
320,192,5133,1,0,0:0:0:0:
192,192,5287,1,0,0:0:0:0:
64,192,5440,1,0,0:0:0:0:
448,192,5902,1,0,0:0:0:0:
64,192,6056,1,0,0:0:0:0:
320,192,6210,1,0,0:0:0:0:
448,192,6517,1,0,0:0:0:0:
192,192,6671,1,0,0:0:0:0:
320,192,7287,1,0,0:0:0:0:
192,192,7594,1,0,0:0:0:0:
448,192,7748,1,0,0:0:0:0:
320,192,7902,1,0,0:0:0:0:
64,192,8364,1,0,0:0:0:0:
448,192,8517,1,0,0:0:0:0:
192,192,8671,1,0,0:0:0:0:
320,192,8979,1,0,0:0:0:0:
448,192,9133,1,0,0:0:0:0:
192,192,9594,1,0,0:0:0:0:
448,192,9748,1,0,0:0:0:0:
320,192,9902,1,0,0:0:0:0:
64,192,10056,1,0,0:0:0:0:
320,192,10210,1,0,0:0:0:0:
64,192,10364,1,0,0:0:0:60:kick.wav
448,192,10364,1,0,0:0:0:60:crash.wav
320,192,10517,1,0,0:0:0:0:
192,192,10671,1,0,0:0:0:0:
64,192,10825,1,0,0:0:0:0:
320,192,10979,1,0,0:0:0:0:
448,192,11133,1,0,0:0:0:0:
320,192,11287,1,0,0:0:0:0:
64,192,11440,1,0,0:0:0:0:
192,192,11594,1,0,0:0:0:0:
320,192,11748,1,0,0:0:0:0:
448,192,11902,1,0,0:0:0:0:
320,192,12056,1,0,0:0:0:0:
192,192,12210,1,0,0:0:0:0:
64,192,12364,1,0,0:0:0:0:
320,192,12517,1,0,0:0:0:0:
448,192,12671,1,0,0:0:0:0:
64,192,12825,1,0,0:0:0:0:
320,192,12979,1,0,0:0:0:0:
448,192,13133,1,0,0:0:0:0:
320,192,13287,1,0,0:0:0:0:
192,192,13440,1,0,0:0:0:0:
64,192,13594,1,0,0:0:0:0:
192,192,13748,1,0,0:0:0:0:
448,192,13902,1,0,0:0:0:0:
192,192,14056,1,0,0:0:0:0:
320,192,14210,1,0,0:0:0:0:
448,192,14364,1,0,0:0:0:0:
320,192,14517,1,0,0:0:0:0:
192,192,14671,1,0,0:0:0:0:
64,192,14825,1,0,0:0:0:0:
192,192,14979,1,0,0:0:0:60:kick.wav
448,192,14979,1,0,0:0:0:0:
320,192,15133,1,0,0:0:0:0:
64,192,15287,1,0,0:0:0:60:kick.wav
448,192,15287,1,0,0:0:0:0:
320,192,15440,1,0,0:0:0:0:
192,192,15594,1,0,0:0:0:60:snare.wav
64,192,15748,1,0,0:0:0:0:
192,192,15902,1,0,0:0:0:0:
448,192,16056,1,0,0:0:0:0:
192,192,16210,1,0,0:0:0:60:snare.wav
320,192,16364,1,0,0:0:0:0:
448,192,16517,1,0,0:0:0:0:
320,192,16671,1,0,0:0:0:0:
192,192,16825,1,0,0:0:0:60:snare.wav
64,192,16979,1,0,0:0:0:0:
192,192,17133,1,0,0:0:0:0:
448,192,17287,1,0,0:0:0:0:
192,192,17440,1,0,0:0:0:60:snare.wav
320,192,17594,1,0,0:0:0:0:
64,192,17748,1,0,0:0:0:60:kick.wav
448,192,17748,1,0,0:0:0:0:
320,192,17902,1,0,0:0:0:0:
448,192,18056,1,0,0:0:0:60:snare.wav
320,192,18210,1,0,0:0:0:0:
192,192,18364,1,0,0:0:0:0:
64,192,18517,1,0,0:0:0:0:
192,192,18671,1,0,0:0:0:60:snare.wav
448,192,18825,1,0,0:0:0:0:
320,192,18979,1,0,0:0:0:0:
64,192,20210,1,0,0:0:0:60:kick.wav
320,192,20364,1,0,0:0:0:0:
64,192,20517,1,0,0:0:0:60:kick.wav
320,192,20671,1,0,0:0:0:0:
64,192,20825,1,0,0:0:0:60:kick.wav
320,192,20979,1,0,0:0:0:0:
64,192,21133,1,0,0:0:0:60:kick.wav
320,192,21287,1,0,0:0:0:0:
64,192,21440,1,0,0:0:0:60:kick.wav
320,192,21594,1,0,0:0:0:0:
64,192,21748,1,0,0:0:0:60:kick.wav
320,192,21902,1,0,0:0:0:0:
64,192,22056,1,0,0:0:0:60:kick.wav
64,192,22210,1,0,0:0:0:60:kick.wav
64,192,22364,1,0,0:0:0:60:kick.wav
192,192,22517,1,0,0:0:0:0:
320,192,22671,1,0,0:0:0:60:kick.wav
64,192,22825,1,0,0:0:0:0:
320,192,22979,1,0,0:0:0:60:kick.wav
64,192,23133,1,0,0:0:0:0:
320,192,23287,1,0,0:0:0:60:kick.wav
64,192,23440,1,0,0:0:0:0:
320,192,23594,1,0,0:0:0:60:kick.wav
64,192,23748,1,0,0:0:0:0:
192,192,23902,1,0,0:0:0:60:kick.wav
448,192,24056,1,0,0:0:0:0:
192,192,24210,1,0,0:0:0:60:kick.wav
448,192,24364,1,0,0:0:0:0:
192,192,24517,1,0,0:0:0:60:kick.wav
448,192,24671,1,0,0:0:0:0:
64,192,24825,1,0,0:0:0:60:snare.wav
320,192,24825,1,0,0:0:0:0:
448,192,25133,1,0,0:0:0:60:crash.wav
192,192,25287,1,0,0:0:0:0:
448,192,25440,1,0,0:0:0:60:kick.wav
192,192,25594,1,0,0:0:0:0:
448,192,25748,1,0,0:0:0:60:kick.wav
192,192,25902,1,0,0:0:0:0:
448,192,26056,1,0,0:0:0:60:kick.wav
192,192,26210,1,0,0:0:0:0:
448,192,26364,1,0,0:0:0:60:kick.wav
192,192,26517,1,0,0:0:0:0:
448,192,26671,1,0,0:0:0:60:kick.wav
192,192,26825,1,0,0:0:0:0:
448,192,26979,1,0,0:0:0:60:kick.wav
448,192,27133,1,0,0:0:0:60:kick.wav
448,192,27287,1,0,0:0:0:60:kick.wav
320,192,27440,1,0,0:0:0:0:
192,192,27594,1,0,0:0:0:60:kick.wav
448,192,27748,1,0,0:0:0:0:
192,192,27902,1,0,0:0:0:60:kick.wav
448,192,28056,1,0,0:0:0:0:
192,192,28210,1,0,0:0:0:60:kick.wav
448,192,28364,1,0,0:0:0:0:
192,192,28517,1,0,0:0:0:60:kick.wav
448,192,28671,1,0,0:0:0:0:
320,192,28825,1,0,0:0:0:60:kick.wav
192,192,28979,1,0,0:0:0:0:
64,192,29133,1,0,0:0:0:60:kick.wav
320,192,29287,1,0,0:0:0:0:
448,192,29440,1,0,0:0:0:0:
64,192,29594,1,0,0:0:0:0:
192,192,29748,1,0,0:0:0:60:snare.wav
320,192,29902,1,0,0:0:0:60:kick.wav
64,192,30056,1,0,0:0:0:60:kick.wav
448,192,30056,1,0,0:0:0:60:crash.wav
448,192,30364,1,0,0:0:0:60:snare.wav
320,192,30364,1,0,0:0:0:60:kick.wav
192,192,30671,1,0,0:0:0:60:kick.wav
64,192,30979,1,0,0:0:0:60:snare.wav
320,192,30979,1,0,0:0:0:60:kick.wav
448,192,31287,1,0,0:0:0:60:kick.wav
192,192,31594,1,0,0:0:0:60:snare.wav
64,192,31594,1,0,0:0:0:60:kick.wav
448,192,31902,1,0,0:0:0:60:kick.wav
448,192,32056,1,0,0:0:0:60:kick.wav
64,192,32210,1,0,0:0:0:60:snare.wav
320,192,32210,1,0,0:0:0:60:kick.wav
448,192,32517,1,0,0:0:0:60:kick.wav
64,192,32825,1,0,0:0:0:60:kick.wav
192,192,32825,1,0,0:0:0:60:snare.wav
320,192,33133,1,0,0:0:0:60:kick.wav
192,192,33440,1,0,0:0:0:60:kick.wav
448,192,33440,1,0,0:0:0:60:snare.wav
320,192,33748,1,0,0:0:0:60:kick.wav
192,192,34056,1,0,0:0:0:60:kick.wav
64,192,34056,1,0,0:0:0:60:snare.wav
448,192,34364,1,0,0:0:0:60:kick.wav
320,192,34671,1,0,0:0:0:60:snare.wav
64,192,34671,1,0,0:0:0:0:
192,192,34979,1,0,0:0:0:60:kick.wav
448,192,34979,1,0,0:0:0:0:
64,192,35287,1,0,0:0:0:60:kick.wav
192,192,35287,1,0,0:0:0:60:snare.wav
448,192,35594,1,0,0:0:0:60:kick.wav
64,192,35902,1,0,0:0:0:60:kick.wav
192,192,35902,1,0,0:0:0:60:snare.wav
320,192,36210,1,0,0:0:0:60:kick.wav
448,192,36517,1,0,0:0:0:60:kick.wav
192,192,36517,1,0,0:0:0:60:snare.wav
64,192,36825,1,0,0:0:0:60:kick.wav
64,192,36979,1,0,0:0:0:60:kick.wav
448,192,37133,1,0,0:0:0:60:kick.wav
192,192,37133,1,0,0:0:0:60:snare.wav
320,192,37440,1,0,0:0:0:60:kick.wav
64,192,37748,1,0,0:0:0:60:kick.wav
448,192,37748,1,0,0:0:0:60:snare.wav
320,192,38056,1,0,0:0:0:60:kick.wav
192,192,38364,1,0,0:0:0:60:kick.wav
64,192,38364,1,0,0:0:0:60:snare.wav
320,192,38671,1,0,0:0:0:60:kick.wav
192,192,38979,1,0,0:0:0:60:kick.wav
448,192,38979,1,0,0:0:0:0:
320,192,39287,1,0,0:0:0:0:
64,192,39594,1,0,0:0:0:0:
192,192,39902,1,0,3:0:0:45:bass.wav
448,192,39902,1,0,0:0:0:60:crash.wav
320,192,40056,1,0,0:0:0:0:
192,192,40210,1,0,0:0:0:60:snare.wav
64,192,40364,1,0,0:0:0:0:
320,192,40517,1,0,3:0:0:45:bass.wav
448,192,40671,1,0,3:0:0:45:bass.wav
320,192,40825,1,0,0:0:0:60:snare.wav
64,192,40979,1,0,0:0:0:0:
192,192,41133,1,0,3:0:0:45:bass.wav
320,192,41287,1,0,0:0:0:0:
448,192,41440,1,0,0:0:0:60:snare.wav
320,192,41594,1,0,0:0:0:0:
192,192,41748,1,0,3:0:0:45:bass.wav
64,192,41902,1,0,3:0:0:45:bass.wav
320,192,42056,1,0,0:0:0:60:snare.wav
448,192,42210,1,0,3:0:0:45:bass.wav
64,192,42364,1,0,3:0:0:45:bass.wav
320,192,42517,1,0,0:0:0:0:
448,192,42671,1,0,0:0:0:60:snare.wav
320,192,42825,1,0,0:0:0:0:
192,192,42979,1,0,3:0:0:45:bass.wav
64,192,43133,1,0,3:0:0:45:bass.wav
192,192,43287,1,0,0:0:0:60:snare.wav
448,192,43440,1,0,0:0:0:0:
192,192,43594,1,0,3:0:0:45:bass.wav
320,192,43748,1,0,0:0:0:0:
448,192,43902,1,0,0:0:0:60:snare.wav
320,192,44056,1,0,0:0:0:0:
192,192,44210,1,0,3:0:0:45:bass.wav
64,192,44364,1,0,3:0:0:45:bass.wav
320,192,44517,1,0,0:0:0:60:snare.wav
448,192,44671,1,0,3:0:0:45:bass.wav
192,192,44825,1,0,3:0:0:45:bass.wav
448,192,44979,1,0,0:0:0:0:
320,192,45133,1,0,0:0:0:60:snare.wav
192,192,45287,1,0,0:0:0:0:
64,192,45440,1,0,3:0:0:45:bass.wav
448,192,45594,1,0,3:0:0:45:bass.wav
192,192,45748,1,0,0:0:0:60:snare.wav
320,192,45902,1,0,0:0:0:0:
192,192,46056,1,0,3:0:0:45:bass.wav
448,192,46210,1,0,0:0:0:0:
320,192,46364,1,0,0:0:0:60:snare.wav
192,192,46517,1,0,0:0:0:0:
64,192,46671,1,0,3:0:0:45:bass.wav
448,192,46825,1,0,3:0:0:45:bass.wav
192,192,46979,1,0,0:0:0:60:snare.wav
320,192,47133,1,0,0:0:0:0:
64,192,47287,1,0,3:0:0:45:bass.wav
320,192,47594,1,0,0:0:0:60:snare.wav
448,192,47902,1,0,0:0:0:45:bass.wav
448,192,48056,1,0,0:0:0:45:bass.wav
320,192,48210,1,0,0:0:0:60:snare.wav
192,192,48517,1,0,0:0:0:0:
320,192,49133,1,0,0:0:0:0:
64,192,49748,1,0,0:0:0:60:kick.wav
448,192,49748,1,0,0:0:0:60:crash.wav
320,192,50056,1,0,0:0:0:0:
448,192,50210,1,0,0:0:0:60:kick.wav
64,192,50210,1,0,0:0:0:0:
64,192,50517,1,0,0:0:0:60:kick.wav
448,192,50517,1,0,0:0:0:0:
192,192,50825,1,0,0:0:0:60:kick.wav
192,192,50979,1,0,0:0:0:60:kick.wav
448,192,50979,1,0,0:0:0:0:
320,192,51287,1,0,0:0:0:0:
64,192,51440,1,0,0:0:0:60:kick.wav
448,192,51440,1,0,0:0:0:0:
64,192,51748,1,0,0:0:0:60:kick.wav
448,192,51748,1,0,0:0:0:0:
192,192,52210,1,0,0:0:0:60:kick.wav
448,192,52210,1,0,0:0:0:0:
64,192,52517,1,0,0:0:0:0:
320,192,52671,1,0,0:0:0:60:kick.wav
448,192,52671,1,0,0:0:0:0:
192,192,52979,1,0,0:0:0:60:kick.wav
448,192,52979,1,0,0:0:0:0:
64,192,53440,1,0,0:0:0:60:kick.wav
448,192,53440,1,0,0:0:0:0:
192,192,53748,1,0,0:0:0:0:
64,192,53902,1,0,0:0:0:60:kick.wav
448,192,53902,1,0,0:0:0:0:
192,192,54210,1,0,0:0:0:60:kick.wav
320,192,54210,1,0,0:0:0:0:
64,192,54364,1,0,0:0:0:60:kick.wav
448,192,54440,1,0,0:0:0:60:kick.wav
64,192,54517,1,0,0:0:0:60:kick.wav
192,192,54671,1,0,0:0:0:60:kick.wav
448,192,54671,1,0,0:0:0:0:
320,192,54979,1,0,0:0:0:0:
448,192,55133,1,0,0:0:0:60:kick.wav
64,192,55133,1,0,0:0:0:0:
64,192,55440,1,0,0:0:0:60:kick.wav
448,192,55440,1,0,0:0:0:0:
192,192,55748,1,0,0:0:0:60:kick.wav
448,192,55902,1,0,0:0:0:60:kick.wav
192,192,55902,1,0,0:0:0:0:
320,192,56210,1,0,0:0:0:0:
64,192,56364,1,0,0:0:0:60:kick.wav
448,192,56364,1,0,0:0:0:0:
64,192,56671,1,0,0:0:0:60:kick.wav
448,192,56671,1,0,0:0:0:0:
320,192,56825,128,0,57133:0:0:0:0:
192,192,57133,1,0,0:0:0:60:kick.wav
448,192,57133,1,0,0:0:0:0:
64,192,57440,1,0,0:0:0:0:
320,192,57594,1,0,0:0:0:60:kick.wav
448,192,57594,1,0,0:0:0:0:
192,192,57902,1,0,0:0:0:60:kick.wav
448,192,57902,1,0,0:0:0:0:
64,192,58364,1,0,0:0:0:60:kick.wav
448,192,58364,1,0,0:0:0:0:
192,192,58671,1,0,0:0:0:0:
64,192,58825,1,0,0:0:0:60:kick.wav
448,192,58825,1,0,0:0:0:0:
192,192,59133,1,0,0:0:0:60:kick.wav
320,192,59133,1,0,0:0:0:0:
448,192,59287,1,0,0:0:0:0:
320,192,59440,1,0,0:0:0:0:
448,192,59594,1,0,0:0:0:60:kick.wav
192,192,59594,1,0,0:0:0:60:crash.wav
320,192,59902,1,0,0:0:0:60:snare.wav
64,192,60056,1,0,0:0:0:60:kick.wav
448,192,60056,1,0,0:0:0:0:
448,192,60364,1,0,0:0:0:60:kick.wav
64,192,60364,1,0,0:0:0:0:
192,192,60517,1,0,0:0:0:60:snare.wav
320,192,60671,1,0,0:0:0:60:kick.wav
448,192,60825,1,0,0:0:0:60:kick.wav
192,192,60825,1,0,0:0:0:0:
320,192,61133,1,0,0:0:0:60:snare.wav
448,192,61287,1,0,0:0:0:60:kick.wav
64,192,61287,1,0,0:0:0:0:
448,192,61594,1,0,0:0:0:60:kick.wav
64,192,61594,1,0,0:0:0:0:
320,192,61748,1,0,0:0:0:60:snare.wav
448,192,62056,1,0,0:0:0:60:kick.wav
192,192,62056,1,0,0:0:0:0:
64,192,62364,1,0,0:0:0:0:
448,192,62517,1,0,0:0:0:60:kick.wav
320,192,62517,1,0,0:0:0:0:
448,192,62825,1,0,0:0:0:60:kick.wav
192,192,62825,1,0,0:0:0:0:
320,192,62979,1,0,0:0:0:0:
64,192,63056,1,0,0:0:0:60:kick.wav
448,192,63287,1,0,0:0:0:60:kick.wav
64,192,63287,1,0,0:0:0:0:
320,192,63517,1,0,0:0:0:60:kick.wav
192,192,63594,1,0,0:0:0:60:snare.wav
448,192,63748,1,0,0:0:0:60:kick.wav
64,192,63748,1,0,0:0:0:0:
320,192,64056,1,0,0:0:0:60:kick.wav
192,192,64056,1,0,0:0:0:0:
64,192,64210,128,0,64364:0:0:0:0:
448,192,64517,1,0,0:0:0:60:kick.wav
192,192,64517,1,0,0:0:0:0:
320,192,64825,1,0,0:0:0:60:snare.wav
64,192,64979,1,0,0:0:0:60:kick.wav
448,192,64979,1,0,0:0:0:0:
448,192,65287,1,0,0:0:0:60:kick.wav
64,192,65287,1,0,0:0:0:0:
320,192,65440,1,0,0:0:0:60:snare.wav
192,192,65594,1,0,0:0:0:60:kick.wav
320,192,65748,1,0,0:0:0:60:kick.wav
64,192,65748,1,0,0:0:0:0:
192,192,66056,1,0,0:0:0:60:snare.wav
64,192,66210,1,0,0:0:0:60:kick.wav
448,192,66210,1,0,0:0:0:0:
64,192,66517,1,0,0:0:0:60:kick.wav
448,192,66517,1,0,0:0:0:0:
320,192,66671,1,0,0:0:0:60:snare.wav
192,192,66979,1,0,0:0:0:60:kick.wav
448,192,66979,1,0,0:0:0:0:
64,192,67287,1,0,0:0:0:60:snare.wav
448,192,67440,1,0,0:0:0:60:kick.wav
320,192,67440,1,0,0:0:0:0:
320,192,67748,1,0,0:0:0:60:kick.wav
448,192,67748,1,0,0:0:0:0:
64,192,67902,1,0,0:0:0:60:snare.wav
192,192,68210,1,0,0:0:0:60:kick.wav
320,192,68210,1,0,0:0:0:0:
64,192,68517,1,0,0:0:0:60:snare.wav
448,192,68517,1,0,0:0:0:0:
192,192,68671,1,0,0:0:0:60:kick.wav
320,192,68979,1,0,0:0:0:60:kick.wav
448,192,68979,1,0,0:0:0:0:
192,192,69133,1,0,0:0:0:60:snare.wav
448,192,69210,1,0,0:0:0:60:kick.wav
320,192,69287,1,0,0:0:0:60:kick.wav
64,192,69440,5,0,0:0:0:60:kick.wav
448,192,69440,128,0,70671:0:0:0:60:crash.wav
320,192,70671,128,0,71594:0:0:0:0:
64,192,71594,1,0,0:0:0:60:kick.wav
192,192,71594,1,0,0:0:0:0:
64,192,71902,1,0,0:0:0:60:kick.wav
192,192,71902,128,0,73133:0:0:0:0:
64,192,73133,128,0,74364:0:0:0:0:
192,192,74364,1,0,0:0:0:60:kick.wav
448,192,74364,1,0,0:0:0:60:crash.wav
320,192,74517,1,0,0:0:0:0:
448,192,74979,1,0,0:0:0:0:
192,192,75133,1,0,0:0:0:0:
320,192,75440,1,0,0:0:0:0:
64,192,75594,1,0,0:0:0:0:
192,192,75902,1,0,0:0:0:0:
192,192,76517,1,0,0:0:0:60:kick.wav
448,192,76517,1,0,0:0:0:60:crash.wav
192,192,76825,1,0,0:0:0:60:kick.wav
448,192,76825,1,0,0:0:0:60:crash.wav
64,192,77133,1,0,0:0:0:0:
320,192,77440,1,0,0:0:0:0:
320,192,77748,1,0,0:0:0:0:
448,192,78056,1,0,0:0:0:0:
320,192,78287,1,0,0:0:0:0:
64,192,78364,1,0,0:0:0:0:
192,192,78671,1,0,0:0:0:0:
64,192,79287,1,0,0:0:0:60:kick.wav
448,192,79287,1,0,0:0:0:60:crash.wav
192,192,79594,1,0,0:0:0:0:
448,192,79748,1,0,0:0:0:0:
320,192,79902,1,0,0:0:0:0:
192,192,80056,1,0,0:0:0:0:
320,192,80210,1,0,0:0:0:0:
64,192,80364,1,0,0:0:0:0:
448,192,80517,1,0,0:0:0:0:
320,192,80825,1,0,0:0:0:0:
192,192,81133,1,0,0:0:0:0:
64,192,81440,1,0,0:0:0:0:
192,192,81748,1,0,0:0:0:0:
448,192,82056,1,0,0:0:0:0:
64,192,82210,1,0,0:0:0:0:
192,192,82364,1,0,0:0:0:0:
320,192,82517,1,0,0:0:0:0:
192,192,82671,1,0,0:0:0:0:
448,192,82825,1,0,0:0:0:0:
320,192,82979,1,0,0:0:0:0:
192,192,83287,1,0,0:0:0:0:
64,192,83594,1,0,0:0:0:0:
320,192,83902,1,0,0:0:0:0:
192,192,84210,1,0,0:0:0:0:
448,192,84517,1,0,0:0:0:0:
192,192,84671,1,0,0:0:0:0:
320,192,84825,1,0,0:0:0:0:
192,192,84979,1,0,0:0:0:0:
64,192,85133,1,0,0:0:0:0:
320,192,85287,1,0,0:0:0:0:
192,192,85440,1,0,0:0:0:0:
320,192,85748,1,0,0:0:0:0:
192,192,86056,1,0,0:0:0:0:
64,192,86364,1,0,0:0:0:0:
192,192,86671,1,0,0:0:0:0:
448,192,86979,1,0,0:0:0:0:
192,192,87133,1,0,0:0:0:0:
320,192,87287,1,0,0:0:0:0:
448,192,87440,1,0,0:0:0:0:
192,192,87594,1,0,0:0:0:0:
320,192,87748,1,0,0:0:0:0:
64,192,87902,1,0,0:0:0:0:
192,192,88210,1,0,0:0:0:0:
320,192,88517,1,0,0:0:0:0:
448,192,88825,1,0,0:0:0:0:
64,192,89133,1,0,0:0:0:60:kick.wav
320,192,89133,1,0,0:0:0:0:
192,192,89440,1,0,0:0:0:0:
448,192,89594,1,0,0:0:0:0:
320,192,89748,1,0,0:0:0:0:
64,192,89902,1,0,0:0:0:0:
448,192,90056,1,0,0:0:0:0:
192,192,90210,1,0,0:0:0:0:
64,192,90364,1,0,0:0:0:0:
320,192,90517,1,0,0:0:0:0:
448,192,90671,1,0,0:0:0:0:
320,192,90825,1,0,0:0:0:0:
192,192,90979,1,0,0:0:0:0:
64,192,91133,1,0,0:0:0:0:
192,192,91287,1,0,0:0:0:60:kick.wav
448,192,91287,1,0,0:0:0:0:
320,192,91440,1,0,0:0:0:0:
64,192,91594,1,0,0:0:0:60:kick.wav
448,192,91594,1,0,0:0:0:0:
320,192,91902,1,0,0:0:0:0:
192,192,92056,1,0,0:0:0:0:
448,192,92210,1,0,0:0:0:0:
64,192,92364,1,0,0:0:0:0:
320,192,92517,1,0,0:0:0:0:
192,192,92671,1,0,0:0:0:0:
64,192,92825,1,0,0:0:0:0:
448,192,92979,128,0,93133:0:0:0:0:
192,192,93133,1,0,0:0:0:0:
320,192,93287,1,0,0:0:0:0:
64,192,93364,1,0,0:0:0:0:
448,192,93440,128,0,93748:0:0:0:0:
192,192,93748,128,0,94056:0:0:0:0:
64,192,94056,1,0,0:0:0:60:kick.wav
448,192,94056,1,0,0:0:0:0:
320,192,94364,1,0,0:0:0:0:
64,192,94517,1,0,0:0:0:0:
448,192,94671,1,0,0:0:0:0:
192,192,94825,1,0,0:0:0:0:
320,192,94979,1,0,0:0:0:0:
64,192,95133,1,0,0:0:0:0:
192,192,95287,1,0,0:0:0:60:kick.wav
448,192,95287,1,0,0:0:0:0:
320,192,95594,1,0,0:0:0:0:
64,192,95748,1,0,0:0:0:0:
192,192,95902,1,0,0:0:0:0:
448,192,96056,1,0,0:0:0:0:
192,192,96210,1,0,0:0:0:0:
320,192,96364,1,0,0:0:0:0:
64,192,96517,1,0,0:0:0:60:kick.wav
448,192,96517,1,0,0:0:0:0:
320,192,96825,1,0,0:0:0:0:
64,192,96979,1,0,0:0:0:0:
448,192,97133,1,0,0:0:0:0:
192,192,97287,1,0,0:0:0:0:
320,192,97440,1,0,0:0:0:0:
64,192,97594,1,0,0:0:0:0:
192,192,97748,1,0,0:0:0:60:kick.wav
448,192,97748,1,0,0:0:0:0:
320,192,98056,1,0,0:0:0:0:
64,192,98210,1,0,0:0:0:0:
192,192,98364,1,0,0:0:0:0:
448,192,98517,1,0,0:0:0:0:
64,192,98671,1,0,0:0:0:0:
320,192,98825,1,0,0:0:0:0:
192,192,98979,1,0,0:0:0:60:kick.wav
448,192,98979,1,0,0:0:0:0:
320,192,99287,1,0,0:0:0:0:
64,192,99440,1,0,0:0:0:0:
192,192,99594,1,0,0:0:0:60:kick.wav
448,192,99594,1,0,0:0:0:0:
320,192,99902,1,0,0:0:0:0:
64,192,100056,1,0,0:0:0:0:
192,192,100210,1,0,0:0:0:60:kick.wav
448,192,100210,1,0,0:0:0:0:
320,192,100517,1,0,0:0:0:0:
64,192,100671,1,0,0:0:0:0:
192,192,100825,1,0,0:0:0:60:kick.wav
448,192,100825,1,0,0:0:0:0:
320,192,101133,1,0,0:0:0:0:
64,192,101287,1,0,0:0:0:0:
192,192,101440,1,0,0:0:0:60:kick.wav
448,192,101440,1,0,0:0:0:0:
192,192,101748,1,0,0:0:0:60:kick.wav
448,192,101748,1,0,0:0:0:0:
192,192,102056,1,0,0:0:0:60:kick.wav
448,192,102056,1,0,0:0:0:0:
192,192,102364,1,0,0:0:0:60:kick.wav
448,192,102364,1,0,0:0:0:0:
192,192,102671,1,0,0:0:0:60:kick.wav
448,192,102671,1,0,0:0:0:0:
64,192,102825,1,0,0:0:0:60:kick.wav
448,192,102979,1,0,0:0:0:60:kick.wav
64,192,103133,1,0,0:0:0:60:kick.wav
448,192,103287,1,0,0:0:0:60:kick.wav
64,192,103440,1,0,0:0:0:60:kick.wav
448,192,103594,128,0,103902:0:0:0:60:kick.wav
64,192,103902,1,0,0:0:0:60:crash.wav
320,192,103902,1,0,0:0:0:60:kick.wav
192,192,104056,1,0,0:0:0:0:
320,192,104210,1,0,0:0:0:60:kick.wav
64,192,104364,1,0,0:0:0:0:
448,192,104517,1,0,0:0:0:60:kick.wav
64,192,104671,1,0,0:0:0:0:
320,192,104825,1,0,0:0:0:60:kick.wav
192,192,104979,1,0,0:0:0:0:
448,192,105133,1,0,0:0:0:60:kick.wav
320,192,105440,1,0,0:0:0:60:kick.wav
192,192,105748,1,0,0:0:0:60:kick.wav
64,192,105902,1,0,0:0:0:60:kick.wav
64,192,106056,1,0,0:0:0:60:kick.wav
320,192,106364,1,0,0:0:0:60:kick.wav
448,192,106517,1,0,0:0:0:0:
192,192,106671,1,0,0:0:0:60:kick.wav
448,192,106825,1,0,0:0:0:0:
320,192,106979,1,0,0:0:0:60:kick.wav
64,192,107133,1,0,0:0:0:0:
192,192,107287,1,0,0:0:0:60:kick.wav
64,192,107440,1,0,0:0:0:0:
448,192,107594,1,0,0:0:0:60:kick.wav
192,192,107902,1,0,0:0:0:60:kick.wav
64,192,108210,1,0,0:0:0:60:kick.wav
320,192,108517,1,0,0:0:0:60:snare.wav
192,192,108517,1,0,0:0:0:0:
448,192,108825,1,0,0:0:0:60:kick.wav
64,192,108825,1,0,0:0:0:60:crash.wav
320,192,108979,1,0,0:0:0:0:
192,192,109133,1,0,0:0:0:60:kick.wav
448,192,109287,1,0,0:0:0:0:
320,192,109440,1,0,0:0:0:60:kick.wav
64,192,109594,1,0,0:0:0:0:
320,192,109748,1,0,0:0:0:60:kick.wav
64,192,109902,1,0,0:0:0:0:
448,192,110056,1,0,0:0:0:60:kick.wav
320,192,110364,1,0,0:0:0:60:kick.wav
192,192,110671,1,0,0:0:0:60:kick.wav
64,192,110825,1,0,0:0:0:60:kick.wav
64,192,110979,1,0,0:0:0:60:kick.wav
320,192,111287,1,0,0:0:0:60:kick.wav
448,192,111440,1,0,0:0:0:0:
192,192,111594,1,0,0:0:0:60:kick.wav
64,192,111748,1,0,0:0:0:0:
448,192,111902,1,0,0:0:0:60:kick.wav
320,192,112056,1,0,0:0:0:0:
64,192,112210,1,0,0:0:0:60:kick.wav
448,192,112364,1,0,0:0:0:0:
320,192,112517,1,0,0:0:0:60:kick.wav
192,192,112825,1,0,0:0:0:60:kick.wav
64,192,113133,1,0,0:0:0:60:kick.wav
320,192,113440,1,0,0:0:0:60:kick.wav
192,192,113440,1,0,0:0:0:60:crash.wav
64,192,113748,1,0,0:0:0:60:kick.wav
448,192,113748,1,0,0:0:0:60:crash.wav
192,192,114056,1,0,0:0:0:60:kick.wav
448,192,114210,1,0,0:0:0:0:
320,192,114364,1,0,0:0:0:60:kick.wav
64,192,114517,1,0,0:0:0:0:
448,192,114671,1,0,0:0:0:60:kick.wav
192,192,114825,1,0,0:0:0:0:
320,192,114979,1,0,0:0:0:60:kick.wav
192,192,115287,1,0,0:0:0:60:kick.wav
64,192,115594,1,0,0:0:0:60:kick.wav
448,192,115748,1,0,0:0:0:60:kick.wav
448,192,115902,1,0,0:0:0:60:kick.wav
64,192,116210,1,0,0:0:0:60:kick.wav
320,192,116210,1,0,0:0:0:0:
192,192,116517,1,0,0:0:0:60:kick.wav
448,192,116671,1,0,0:0:0:0:
320,192,116825,1,0,0:0:0:60:kick.wav
64,192,116979,1,0,0:0:0:0:
192,192,117133,1,0,0:0:0:60:kick.wav
448,192,117287,1,0,0:0:0:0:
320,192,117440,1,0,0:0:0:60:kick.wav
64,192,117748,1,0,0:0:0:60:kick.wav
192,192,118056,1,0,0:0:0:60:kick.wav
448,192,118364,1,0,0:0:0:60:snare.wav
320,192,118364,1,0,0:0:0:0:
64,192,118671,1,0,0:0:0:60:kick.wav
448,192,118671,1,0,0:0:0:60:crash.wav
192,192,118825,1,0,0:0:0:60:kick.wav
448,192,118979,1,0,0:0:0:60:kick.wav
320,192,119133,1,0,0:0:0:60:kick.wav
64,192,119287,1,0,0:0:0:60:kick.wav
192,192,119440,1,0,0:0:0:60:kick.wav
448,192,119594,1,0,0:0:0:60:kick.wav
320,192,119748,1,0,0:0:0:60:kick.wav
64,192,119902,1,0,0:0:0:60:kick.wav
192,192,119902,1,0,0:0:0:60:crash.wav
320,192,120056,1,0,0:0:0:60:kick.wav
448,192,120210,1,0,0:0:0:60:kick.wav
64,192,120364,1,0,0:0:0:60:kick.wav
320,192,120517,1,0,0:0:0:60:kick.wav
448,192,120671,1,0,0:0:0:60:kick.wav
64,192,120825,1,0,0:0:0:60:kick.wav
192,192,120979,1,0,0:0:0:60:kick.wav
64,192,121133,1,0,0:0:0:60:crash.wav
448,192,121133,1,0,0:0:0:60:kick.wav
320,192,121287,1,0,0:0:0:0:
192,192,121440,1,0,0:0:0:0:
320,192,121594,1,0,0:0:0:0:
64,192,121748,1,0,0:0:0:60:crash.wav
448,192,121748,1,0,0:0:0:60:kick.wav
320,192,121902,1,0,0:0:0:60:kick.wav
192,192,122056,1,0,0:0:0:60:kick.wav
64,192,122210,1,0,0:0:0:60:kick.wav
320,192,122364,128,0,123287:0:0:0:60:kick.wav
192,192,122364,1,0,0:0:0:60:crash.wav
64,192,123287,1,0,0:0:0:60:kick.wav
448,192,123440,1,0,0:0:0:0:
64,192,123594,1,0,0:0:0:60:kick.wav
320,192,123594,1,0,0:0:0:60:crash.wav
