osu file format v14

[General]
AudioFilename: Caladborg - Invoker.mp3
AudioLeadIn: 0
PreviewTime: 10364
Countdown: 0
SampleSet: Normal
StackLeniency: 0.7
Mode: 1
LetterboxInBreaks: 0
WidescreenStoryboard: 0

[Editor]
Bookmarks: 471,10318,20164,30010,39856,49702,59548,69394,79241,89087,103856
DistanceSpacing: 1
BeatDivisor: 4
GridSize: 16
TimelineZoom: 2.699999

[Metadata]
Title:invoker
TitleUnicode:invoker
Artist:Caladborg
ArtistUnicode:Caladborg
Creator:-Kazu-
Version:Muzukashii
Source:beatmania IIDX 21 SPADA
Tags:Backfire USAO Spy
BeatmapID:1477403
BeatmapSetID:351126

[Difficulty]
HPDrainRate:6
CircleSize:5
OverallDifficulty:5
ApproachRate:5
SliderMultiplier:1.4
SliderTickRate:1

[Events]
//Background and Video events
0,0,"BGBG.jpg",0,0
//Break Periods
//Storyboard Layer 0 (Background)
//Storyboard Layer 1 (Fail)
//Storyboard Layer 2 (Pass)
//Storyboard Layer 3 (Foreground)
//Storyboard Sound Samples

[TimingPoints]
517.881525745323,307.692307692308,4,1,0,100,1,0
49748,-100,4,1,0,100,0,1
51748,-100,4,1,0,100,0,0
52210,-100,4,1,0,100,0,1
59594,-100,4,1,0,100,0,0
79594,-100,4,1,0,50,0,0
89133,-100,4,1,0,100,0,0
103902,-100,4,1,0,100,0,1
123594,-90.9090909090909,4,1,0,100,0,0

[HitObjects]
256,192,517,5,4,0:0:0:0:
256,192,979,1,0,0:0:0:0:
256,192,1133,1,8,0:0:0:0:
256,192,1287,1,0,0:0:0:0:
256,192,1594,1,0,0:0:0:0:
256,192,1748,1,0,0:0:0:0:
256,192,2364,1,0,0:0:0:0:
256,192,2671,1,0,0:0:0:0:
256,192,2825,1,8,0:0:0:0:
256,192,2979,1,0,0:0:0:0:
256,192,3440,1,0,0:0:0:0:
256,192,3594,1,8,0:0:0:0:
256,192,3748,1,0,0:0:0:0:
256,192,4056,1,0,0:0:0:0:
256,192,4210,1,0,0:0:0:0:
256,192,4671,1,0,0:0:0:0:
256,192,4825,1,8,0:0:0:0:
256,192,4979,1,0,0:0:0:0:
256,192,5133,1,8,0:0:0:0:
256,192,5287,1,0,0:0:0:0:
256,192,5440,1,0,0:0:0:0:
256,192,5902,1,0,0:0:0:0:
256,192,6056,1,8,0:0:0:0:
256,192,6210,1,0,0:0:0:0:
256,192,6517,1,0,0:0:0:0:
256,192,6671,1,0,0:0:0:0:
256,192,7287,1,0,0:0:0:0:
256,192,7594,1,0,0:0:0:0:
256,192,7748,1,0,0:0:0:0:
256,192,7902,1,0,0:0:0:0:
256,192,8364,1,0,0:0:0:0:
256,192,8517,1,8,0:0:0:0:
256,192,8671,1,0,0:0:0:0:
256,192,8979,1,0,0:0:0:0:
256,192,9133,1,0,0:0:0:0:
256,192,9594,1,0,0:0:0:0:
256,192,9748,1,8,0:0:0:0:
256,192,9902,1,0,0:0:0:0:
256,192,10056,1,8,0:0:0:0:
256,192,10210,1,0,0:0:0:0:
256,192,10364,1,4,0:0:0:0:
256,192,10517,1,8,0:0:0:0:
256,192,10825,1,8,0:0:0:0:
256,192,11133,1,8,0:0:0:0:
256,192,11440,1,8,0:0:0:0:
256,192,12056,1,8,0:0:0:0:
256,192,12364,1,8,0:0:0:0:
256,192,12671,1,8,0:0:0:0:
256,192,12979,1,8,0:0:0:0:
256,192,13287,1,8,0:0:0:0:
256,192,13594,1,8,0:0:0:0:
256,192,13902,1,8,0:0:0:0:
256,192,14517,1,8,0:0:0:0:
256,192,14825,1,8,0:0:0:0:
256,192,15133,1,8,0:0:0:0:
256,192,15287,1,4,0:0:0:0:
256,192,15594,1,8,0:0:0:0:
256,192,15748,1,0,0:0:0:0:
256,192,16056,1,0,0:0:0:0:
256,192,16210,1,8,0:0:0:0:
256,192,16364,1,0,0:0:0:0:
256,192,16517,1,0,0:0:0:0:
256,192,16825,1,8,0:0:0:0:
256,192,16979,1,0,0:0:0:0:
256,192,17287,1,0,0:0:0:0:
256,192,17440,1,8,0:0:0:0:
256,192,17594,1,0,0:0:0:0:
256,192,17748,1,4,0:0:0:0:
256,192,18056,1,8,0:0:0:0:
256,192,18210,1,0,0:0:0:0:
256,192,18517,1,0,0:0:0:0:
256,192,18671,1,8,0:0:0:0:
256,192,18979,1,0,0:0:0:0:
256,192,19133,1,8,0:0:0:0:
256,192,19440,1,0,0:0:0:0:
256,192,19594,1,8,0:0:0:0:
256,192,19902,1,0,0:0:0:0:
256,192,19979,1,0,0:0:0:0:
256,192,20056,1,0,0:0:0:0:
256,192,20210,1,0,0:0:0:0:
256,192,20364,1,8,0:0:0:0:
256,192,20671,1,8,0:0:0:0:
256,192,20825,1,0,0:0:0:0:
256,192,20979,1,8,0:0:0:0:
256,192,21287,1,8,0:0:0:0:
256,192,21440,1,0,0:0:0:0:
256,192,21594,1,8,0:0:0:0:
256,192,21902,1,8,0:0:0:0:
256,192,22056,1,0,0:0:0:0:
256,192,22210,1,0,0:0:0:0:
256,192,22364,1,0,0:0:0:0:
256,192,22517,1,8,0:0:0:0:
256,192,22825,1,8,0:0:0:0:
256,192,22979,1,0,0:0:0:0:
256,192,23133,1,8,0:0:0:0:
256,192,23440,1,8,0:0:0:0:
256,192,23594,1,0,0:0:0:0:
256,192,23748,1,8,0:0:0:0:
256,192,24056,1,8,0:0:0:0:
256,192,24210,1,0,0:0:0:0:
256,192,24364,1,8,0:0:0:0:
256,192,24517,1,0,0:0:0:0:
256,192,24825,1,8,0:0:0:0:
256,192,25133,1,0,0:0:0:0:
256,192,25287,1,8,0:0:0:0:
256,192,25440,1,0,0:0:0:0:
256,192,25594,1,8,0:0:0:0:
256,192,25902,1,0,0:0:0:0:
256,192,26056,1,0,0:0:0:0:
256,192,26210,1,8,0:0:0:0:
256,192,26517,1,0,0:0:0:0:
256,192,26671,1,0,0:0:0:0:
256,192,26825,1,8,0:0:0:0:
256,192,26979,1,0,0:0:0:0:
256,192,27133,1,0,0:0:0:0:
256,192,27287,1,0,0:0:0:0:
256,192,27440,1,8,0:0:0:0:
256,192,27748,1,0,0:0:0:0:
256,192,27902,1,0,0:0:0:0:
256,192,28056,1,8,0:0:0:0:
256,192,28364,1,0,0:0:0:0:
256,192,28517,1,0,0:0:0:0:
256,192,28671,1,8,0:0:0:0:
256,192,28979,1,0,0:0:0:0:
256,192,29133,1,0,0:0:0:0:
256,192,29594,1,0,0:0:0:0:
256,192,29748,1,8,0:0:0:0:
256,192,29902,1,8,0:0:0:0:
256,192,30056,1,0,0:0:0:0:
256,192,30364,1,8,0:0:0:0:
256,192,30517,1,0,0:0:0:0:
256,192,30825,1,0,0:0:0:0:
256,192,30979,1,8,0:0:0:0:
256,192,31287,1,0,0:0:0:0:
256,192,31594,1,8,0:0:0:0:
256,192,31748,1,0,0:0:0:0:
256,192,31902,1,0,0:0:0:0:
256,192,32056,1,0,0:0:0:0:
256,192,32210,1,8,0:0:0:0:
256,192,32517,1,0,0:0:0:0:
256,192,32825,1,8,0:0:0:0:
256,192,32979,1,0,0:0:0:0:
256,192,33287,1,0,0:0:0:0:
256,192,33440,1,8,0:0:0:0:
256,192,33594,1,0,0:0:0:0:
256,192,33748,1,0,0:0:0:0:
256,192,34056,1,8,0:0:0:0:
256,192,34210,1,0,0:0:0:0:
256,192,34364,1,0,0:0:0:0:
256,192,34671,1,8,0:0:0:0:
256,192,34979,1,0,0:0:0:0:
256,192,35133,1,0,0:0:0:0:
256,192,35287,1,8,0:0:0:0:
256,192,35440,1,0,0:0:0:0:
256,192,35748,1,0,0:0:0:0:
256,192,35902,1,8,0:0:0:0:
256,192,36056,1,0,0:0:0:0:
256,192,36133,1,0,0:0:0:0:
256,192,36210,1,0,0:0:0:0:
256,192,36364,1,0,0:0:0:0:
256,192,36517,1,8,0:0:0:0:
256,192,36825,1,0,0:0:0:0:
256,192,36979,1,0,0:0:0:0:
256,192,37133,1,8,0:0:0:0:
256,192,37440,1,0,0:0:0:0:
256,192,37748,1,8,0:0:0:0:
256,192,37902,1,0,0:0:0:0:
256,192,38210,1,0,0:0:0:0:
256,192,38364,1,8,0:0:0:0:
256,192,38440,1,8,0:0:0:0:
256,192,38517,1,8,0:0:0:0:
256,192,38671,1,0,0:0:0:0:
256,192,38979,1,8,0:0:0:0:
256,192,39133,1,0,0:0:0:0:
256,192,39440,1,0,0:0:0:0:
256,192,39594,1,8,0:0:0:0:
256,192,39902,1,0,0:0:0:0:
256,192,40210,1,8,0:0:0:0:
256,192,40364,1,8,0:0:0:0:
256,192,40671,1,0,0:0:0:0:
256,192,40825,1,8,0:0:0:0:
256,192,40979,1,0,0:0:0:0:
256,192,41133,1,0,0:0:0:0:
256,192,41440,1,8,0:0:0:0:
256,192,41748,1,0,0:0:0:0:
256,192,41902,1,0,0:0:0:0:
256,192,42056,1,8,0:0:0:0:
256,192,42210,1,8,0:0:0:0:
256,192,42364,1,0,0:0:0:0:
256,192,42671,1,8,0:0:0:0:
256,192,42825,1,8,0:0:0:0:
256,192,43133,1,0,0:0:0:0:
256,192,43287,1,8,0:0:0:0:
256,192,43594,1,0,0:0:0:0:
256,192,43902,1,8,0:0:0:0:
256,192,44056,1,8,0:0:0:0:
256,192,44364,1,0,0:0:0:0:
256,192,44517,1,0,0:0:0:0:
256,192,44671,1,8,0:0:0:0:
256,192,44825,1,0,0:0:0:0:
256,192,45133,1,8,0:0:0:0:
256,192,45287,1,8,0:0:0:0:
256,192,45440,1,0,0:0:0:0:
256,192,45594,1,0,0:0:0:0:
256,192,45748,1,8,0:0:0:0:
256,192,46056,1,0,0:0:0:0:
256,192,46364,1,8,0:0:0:0:
256,192,46517,1,8,0:0:0:0:
256,192,46825,1,0,0:0:0:0:
256,192,46979,1,8,0:0:0:0:
256,192,47287,1,0,0:0:0:0:
256,192,47594,1,8,0:0:0:0:
256,192,48056,1,0,0:0:0:0:
256,192,48210,1,8,0:0:0:0:
256,192,48517,1,0,0:0:0:0:
256,192,48825,1,8,0:0:0:0:
256,192,48902,1,8,0:0:0:0:
256,192,48979,1,8,0:0:0:0:
256,192,49133,1,0,0:0:0:0:
256,192,49440,1,8,0:0:0:0:
256,192,49748,5,0,0:0:0:0:
256,192,50056,1,8,0:0:0:0:
256,192,50210,1,0,0:0:0:0:
256,192,50364,1,0,0:0:0:0:
256,192,50440,1,0,0:0:0:0:
256,192,50517,1,0,0:0:0:0:
256,192,50671,1,8,0:0:0:0:
256,192,50979,1,0,0:0:0:0:
256,192,51287,1,8,0:0:0:0:
256,192,51440,1,0,0:0:0:0:
256,192,51594,1,0,0:0:0:0:
256,192,51748,1,8,0:0:0:0:
256,192,52210,1,0,0:0:0:0:
256,192,52517,1,8,0:0:0:0:
256,192,52671,1,0,0:0:0:0:
256,192,52825,1,0,0:0:0:0:
256,192,52902,1,0,0:0:0:0:
256,192,52979,1,0,0:0:0:0:
256,192,53133,1,0,0:0:0:0:
256,192,53287,1,8,0:0:0:0:
256,192,53440,1,0,0:0:0:0:
256,192,53748,1,8,0:0:0:0:
256,192,53902,1,0,0:0:0:0:
256,192,54056,1,0,0:0:0:0:
256,192,54210,1,8,0:0:0:0:
256,192,54364,1,0,0:0:0:0:
256,192,54440,1,0,0:0:0:0:
256,192,54517,1,0,0:0:0:0:
256,192,54671,1,0,0:0:0:0:
256,192,54979,1,8,0:0:0:0:
256,192,55133,1,0,0:0:0:0:
256,192,55287,1,0,0:0:0:0:
256,192,55364,1,0,0:0:0:0:
256,192,55440,1,0,0:0:0:0:
256,192,55594,1,8,0:0:0:0:
256,192,55902,1,0,0:0:0:0:
256,192,56210,1,8,0:0:0:0:
256,192,56364,1,0,0:0:0:0:
256,192,56671,1,0,0:0:0:0:
256,192,56825,1,12,0:0:0:0:
256,192,57133,1,0,0:0:0:0:
256,192,57440,1,8,0:0:0:0:
256,192,57594,1,0,0:0:0:0:
256,192,57748,1,0,0:0:0:0:
256,192,57825,1,0,0:0:0:0:
256,192,57902,1,0,0:0:0:0:
256,192,58056,1,8,0:0:0:0:
256,192,58210,1,0,0:0:0:0:
256,192,58364,1,0,0:0:0:0:
256,192,58671,1,8,0:0:0:0:
256,192,58825,1,0,0:0:0:0:
256,192,59133,1,0,0:0:0:0:
256,192,59287,1,8,0:0:0:0:
256,192,59440,1,0,0:0:0:0:
256,192,59517,1,0,0:0:0:0:
256,192,59594,1,0,0:0:0:0:
256,192,59902,1,8,0:0:0:0:
256,192,60056,1,0,0:0:0:0:
256,192,60364,1,0,0:0:0:0:
256,192,60517,1,8,0:0:0:0:
256,192,60671,1,8,0:0:0:0:
256,192,60825,1,0,0:0:0:0:
256,192,61133,1,8,0:0:0:0:
256,192,61287,1,0,0:0:0:0:
256,192,61594,1,0,0:0:0:0:
256,192,61748,1,8,0:0:0:0:
256,192,62056,1,0,0:0:0:0:
256,192,62364,1,8,0:0:0:0:
256,192,62517,1,0,0:0:0:0:
256,192,62825,1,8,0:0:0:0:
256,192,62979,1,0,0:0:0:0:
256,192,63056,1,0,0:0:0:0:
256,192,63133,1,0,0:0:0:0:
256,192,63287,1,0,0:0:0:0:
256,192,63594,1,8,0:0:0:0:
256,192,63748,1,0,0:0:0:0:
256,192,64056,1,0,0:0:0:0:
256,192,64210,1,8,0:0:0:0:
256,192,64287,1,8,0:0:0:0:
256,192,64364,1,8,0:0:0:0:
256,192,64517,1,0,0:0:0:0:
256,192,64825,1,8,0:0:0:0:
256,192,64979,1,0,0:0:0:0:
256,192,65287,1,0,0:0:0:0:
256,192,65440,1,8,0:0:0:0:
256,192,65594,1,0,0:0:0:0:
256,192,65748,1,0,0:0:0:0:
256,192,66056,1,8,0:0:0:0:
256,192,66210,1,0,0:0:0:0:
256,192,66517,1,0,0:0:0:0:
256,192,66671,1,8,0:0:0:0:
256,192,66979,1,0,0:0:0:0:
256,192,67287,1,8,0:0:0:0:
256,192,67440,1,0,0:0:0:0:
256,192,67748,1,0,0:0:0:0:
256,192,67902,1,8,0:0:0:0:
256,192,67979,1,8,0:0:0:0:
256,192,68056,1,8,0:0:0:0:
256,192,68210,1,0,0:0:0:0:
256,192,68517,1,8,0:0:0:0:
256,192,68671,1,0,0:0:0:0:
256,192,68979,1,0,0:0:0:0:
256,192,69133,1,0,0:0:0:0:
256,192,69210,1,0,0:0:0:0:
256,192,69287,1,0,0:0:0:0:
256,192,69440,1,4,0:0:0:0:
256,192,71594,1,4,0:0:0:0:
256,192,71902,1,4,0:0:0:0:
256,192,74364,1,4,0:0:0:0:
256,192,76517,1,4,0:0:0:0:
256,192,76825,1,4,0:0:0:0:
256,176,79287,1,4,0:0:0:0:
256,176,79594,1,8,0:0:0:0:
256,176,79748,1,8,0:0:0:0:
256,176,80056,1,0,0:0:0:0:
256,176,80364,1,0,0:0:0:0:
256,176,80671,1,0,0:0:0:0:
256,176,80825,1,8,0:0:0:0:
256,176,81133,1,8,0:0:0:0:
256,176,81440,1,0,0:0:0:0:
256,176,81748,1,0,0:0:0:0:
256,176,82056,1,8,0:0:0:0:
256,176,82210,1,8,0:0:0:0:
256,176,82517,1,0,0:0:0:0:
256,176,82671,1,0,0:0:0:0:
256,176,82825,1,8,0:0:0:0:
256,176,82979,1,0,0:0:0:0:
256,176,83287,1,8,0:0:0:0:
256,176,83594,1,8,0:0:0:0:
256,176,83902,1,0,0:0:0:0:
256,176,84056,1,8,0:0:0:0:
256,176,84210,1,0,0:0:0:0:
256,176,84517,1,8,0:0:0:0:
256,176,84671,1,8,0:0:0:0:
256,176,84979,1,0,0:0:0:0:
256,176,85287,1,0,0:0:0:0:
256,176,85594,1,0,0:0:0:0:
256,176,85748,1,8,0:0:0:0:
256,176,86056,1,8,0:0:0:0:
256,176,86364,1,0,0:0:0:0:
256,176,86671,1,0,0:0:0:0:
256,176,86979,1,8,0:0:0:0:
256,176,87133,1,0,0:0:0:0:
256,176,87440,1,0,0:0:0:0:
256,176,87594,1,0,0:0:0:0:
256,176,87748,1,8,0:0:0:0:
256,176,87902,1,0,0:0:0:0:
256,176,88056,1,8,0:0:0:0:
256,176,88133,1,8,0:0:0:0:
256,176,88210,1,8,0:0:0:0:
256,176,88364,1,0,0:0:0:0:
256,176,88517,1,8,0:0:0:0:
256,176,88825,1,8,0:0:0:0:
256,176,89133,1,4,0:0:0:0:
256,176,89440,1,8,0:0:0:0:
256,176,89594,1,0,0:0:0:0:
256,176,89902,1,0,0:0:0:0:
256,176,90210,1,0,0:0:0:0:
256,176,90364,1,0,0:0:0:0:
256,176,90517,1,8,0:0:0:0:
256,176,90594,1,8,0:0:0:0:
256,176,90671,1,8,0:0:0:0:
256,176,90825,1,0,0:0:0:0:
256,176,90979,1,8,0:0:0:0:
256,176,91133,1,0,0:0:0:0:
256,176,91287,1,4,0:0:0:0:
256,176,91594,1,4,0:0:0:0:
256,176,91902,1,8,0:0:0:0:
256,176,92056,1,0,0:0:0:0:
256,176,92364,1,0,0:0:0:0:
256,176,92671,1,8,0:0:0:0:
256,176,92825,1,0,0:0:0:0:
256,176,92979,1,0,0:0:0:0:
256,176,93133,1,8,0:0:0:0:
256,176,93287,1,8,0:0:0:0:
256,176,93440,1,0,0:0:0:0:
256,176,93594,1,8,0:0:0:0:
256,176,93748,1,8,0:0:0:0:
256,176,94056,1,4,0:0:0:0:
256,176,94364,1,8,0:0:0:0:
256,176,94517,1,0,0:0:0:0:
256,176,94979,1,0,0:0:0:0:
256,176,95287,1,4,0:0:0:0:
256,176,95594,1,8,0:0:0:0:
256,176,95748,1,0,0:0:0:0:
256,176,96210,1,0,0:0:0:0:
256,176,96517,1,4,0:0:0:0:
256,176,96825,1,8,0:0:0:0:
256,176,96979,1,0,0:0:0:0:
256,176,97440,1,0,0:0:0:0:
256,176,97748,1,4,0:0:0:0:
256,176,98056,1,8,0:0:0:0:
256,176,98210,1,0,0:0:0:0:
256,176,98671,1,0,0:0:0:0:
256,176,98979,1,4,0:0:0:0:
256,176,99287,1,8,0:0:0:0:
256,176,99594,1,4,0:0:0:0:
256,176,99902,1,8,0:0:0:0:
256,176,100210,1,4,0:0:0:0:
256,176,100517,1,8,0:0:0:0:
256,176,100825,1,4,0:0:0:0:
256,176,101133,1,8,0:0:0:0:
256,176,101440,1,4,0:0:0:0:
256,176,101748,1,4,0:0:0:0:
256,176,102056,1,4,0:0:0:0:
256,176,102364,1,4,0:0:0:0:
256,176,102671,1,0,0:0:0:0:
256,176,102825,1,0,0:0:0:0:
256,176,102979,1,0,0:0:0:0:
256,176,103133,1,0,0:0:0:0:
256,176,103287,1,0,0:0:0:0:
256,176,103440,1,0,0:0:0:0:
256,176,103594,1,12,0:0:0:0:
256,176,103902,1,0,0:0:0:0:
256,176,104056,1,8,0:0:0:0:
256,176,104133,1,8,0:0:0:0:
256,176,104210,1,8,0:0:0:0:
256,176,104364,1,0,0:0:0:0:
256,176,104671,1,0,0:0:0:0:
256,176,104825,1,0,0:0:0:0:
256,176,104979,1,8,0:0:0:0:
256,176,105133,1,0,0:0:0:0:
256,176,105287,1,8,0:0:0:0:
256,176,105440,1,8,0:0:0:0:
256,176,105748,1,0,0:0:0:0:
256,176,105902,1,0,0:0:0:0:
256,176,106056,1,8,0:0:0:0:
256,176,106364,1,0,0:0:0:0:
256,176,106517,1,0,0:0:0:0:
256,176,106671,1,8,0:0:0:0:
256,176,106825,1,8,0:0:0:0:
256,176,106979,1,8,0:0:0:0:
256,176,107287,1,0,0:0:0:0:
256,176,107440,1,0,0:0:0:0:
256,176,107594,1,0,0:0:0:0:
256,176,107748,1,8,0:0:0:0:
256,176,107902,1,8,0:0:0:0:
256,176,108056,1,0,0:0:0:0:
256,176,108210,1,8,0:0:0:0:
256,176,108364,1,0,0:0:0:0:
256,176,108517,1,8,0:0:0:0:
256,176,108825,1,0,0:0:0:0:
256,176,108979,1,8,0:0:0:0:
256,176,109056,1,8,0:0:0:0:
256,176,109133,1,8,0:0:0:0:
256,176,109287,1,0,0:0:0:0:
256,176,109594,1,0,0:0:0:0:
256,176,109902,1,8,0:0:0:0:
256,176,110056,1,0,0:0:0:0:
256,176,110210,1,8,0:0:0:0:
256,176,110364,1,8,0:0:0:0:
256,176,110671,1,0,0:0:0:0:
256,176,110825,1,8,0:0:0:0:
256,176,110979,1,0,0:0:0:0:
256,176,111287,1,8,0:0:0:0:
256,176,111440,1,8,0:0:0:0:
256,176,111517,1,8,0:0:0:0:
256,176,111594,1,8,0:0:0:0:
256,176,111748,1,8,0:0:0:0:
256,176,111902,1,0,0:0:0:0:
256,176,112210,1,0,0:0:0:0:
256,176,112364,1,8,0:0:0:0:
256,176,112671,1,0,0:0:0:0:
256,176,112825,1,8,0:0:0:0:
256,176,112979,1,0,0:0:0:0:
256,176,113056,1,0,0:0:0:0:
256,176,113133,1,0,0:0:0:0:
256,176,113287,1,8,0:0:0:0:
256,176,113440,1,0,0:0:0:0:
256,176,113748,1,0,0:0:0:0:
256,176,114056,1,8,0:0:0:0:
256,176,114210,1,0,0:0:0:0:
256,176,114364,1,0,0:0:0:0:
256,176,114517,1,0,0:0:0:0:
256,176,114671,1,8,0:0:0:0:
256,176,114825,1,0,0:0:0:0:
256,176,114979,1,0,0:0:0:0:
256,176,115287,1,8,0:0:0:0:
256,176,115440,1,0,0:0:0:0:
256,176,115517,1,0,0:0:0:0:
256,176,115594,1,0,0:0:0:0:
256,176,115748,1,0,0:0:0:0:
256,176,115902,1,8,0:0:0:0:
256,176,116210,1,8,0:0:0:0:
256,176,116517,1,8,0:0:0:0:
256,176,116671,1,0,0:0:0:0:
256,176,116979,1,0,0:0:0:0:
256,176,117133,1,8,0:0:0:0:
256,176,117287,1,8,0:0:0:0:
256,176,117440,1,0,0:0:0:0:
256,176,117594,1,0,0:0:0:0:
256,176,117671,1,0,0:0:0:0:
256,176,117748,1,0,0:0:0:0:
256,176,118056,1,0,0:0:0:0:
256,176,118210,1,8,0:0:0:0:
256,176,118287,1,8,0:0:0:0:
256,176,118364,1,8,0:0:0:0:
256,176,118671,1,0,0:0:0:0:
256,176,118825,1,0,0:0:0:0:
256,176,118979,1,8,0:0:0:0:
256,176,119133,1,8,0:0:0:0:
256,176,119287,1,0,0:0:0:0:
256,176,119440,1,0,0:0:0:0:
256,176,119594,1,8,0:0:0:0:
256,176,119748,1,8,0:0:0:0:
256,176,119902,1,0,0:0:0:0:
256,176,120210,1,8,0:0:0:0:
256,176,120517,1,0,0:0:0:0:
256,176,120825,1,8,0:0:0:0:
256,176,121133,1,0,0:0:0:0:
256,176,121210,1,0,0:0:0:0:
256,176,121287,1,0,0:0:0:0:
256,176,121440,1,8,0:0:0:0:
256,176,121594,1,8,0:0:0:0:
256,176,121748,1,0,0:0:0:0:
256,176,121825,1,0,0:0:0:0:
256,176,121902,1,0,0:0:0:0:
256,176,122056,1,8,0:0:0:0:
256,176,122210,1,8,0:0:0:0:
256,192,122364,12,0,123440,0:0:0:0:
256,192,123594,5,4,0:0:0:0:
