osu file format v14

[General]
AudioFilename: audio.mp3
AudioLeadIn: 0
PreviewTime: 91313
Countdown: 0
SampleSet: Soft
StackLeniency: 0.7
Mode: 0
LetterboxInBreaks: 0
WidescreenStoryboard: 1

[Editor]
DistanceSpacing: 1
BeatDivisor: 4
GridSize: 8
TimelineZoom: 1

[Metadata]
Title:Never There
TitleUnicode:Never There
Artist:Cake
ArtistUnicode:Cake
Creator:sodasurgeon
Version:Normally There
Source:
Tags:English Rock Alternative Prolonging the Magic
BeatmapID:3007993
BeatmapSetID:1464525

[Difficulty]
HPDrainRate:3
CircleSize:3
OverallDifficulty:5
ApproachRate:5.5
SliderMultiplier:1.2
SliderTickRate:1

[Events]
//Background and Video events
0,0,"never ever ever ever.jpg",0,0
//Break Periods
//Storyboard Layer 0 (Background)
//Storyboard Layer 1 (Fail)
//Storyboard Layer 2 (Pass)
//Storyboard Layer 3 (Foreground)
//Storyboard Layer 4 (Overlay)
//Storyboard Sound Samples

[TimingPoints]
7848,476.947535771065,4,2,0,40,1,0
29549,-100,4,2,0,35,0,0
30741,-100,4,2,0,50,0,0
46003,-90.9090909090909,4,2,0,50,0,0
66989,-90.9090909090909,4,2,0,55,0,0
67943,-90.9090909090909,4,2,0,50,0,0
79867,-100,4,2,0,50,0,0
80344,-100,4,2,0,40,0,0
91790,-83.3333333333333,4,2,0,40,0,0
99421,-100,4,2,0,40,0,0
114684,-90.9090909090909,4,2,0,40,0,0
156655,-166.666666666667,4,2,0,40,0,0
157132,-90.9090909090909,4,2,0,35,0,0
157609,-90.9090909090909,4,2,0,30,0,0
158086,-90.9090909090909,4,2,0,25,0,0
158563,-90.9090909090909,4,2,0,20,0,0
159040,-90.9090909090909,4,2,0,15,0,0
159517,-90.9090909090909,4,2,0,10,0,0
159994,-90.9090909090909,4,2,0,5,0,0
162379,-90.9090909090909,4,2,0,5,0,0

[Colours]
Combo1 : 166,176,215
Combo2 : 98,121,164
SliderTrackOverride : 115,111,136
SliderBorder : 236,203,196

[HitObjects]
115,2,7847,5,12,3:3:0:0:
53,113,8563,1,2,3:2:0:0:
53,113,8801,2,0,B|119:155|73:258|23:282,1,180,8|12,3:0|3:0,3:0:0:0:
180,374,10471,1,2,3:2:0:0:
180,374,10709,2,0,P|270:372|311:359,1,120,8|0,3:0|1:2,0:0:0:0:
408,322,11663,5,0,3:0:0:0:
414,162,12379,1,2,3:2:0:0:
414,162,12617,2,0,B|348:120|394:17|444:-7,1,180,8|12,3:0|3:3,3:0:0:0:
193,26,14286,1,0,3:0:0:0:
193,26,14525,2,0,P|107:50|80:84,1,120,8|0,3:0|1:2,3:0:0:0:
42,183,15479,6,0,P|27:236|64:311,1,120,8|12,3:3|1:3,0:0:0:0:
69,331,16194,2,0,P|158:361|253:316,1,180,0|0,0:0|1:0,0:0:0:0:
270,308,17148,1,12,3:0:0:0:
441,366,18102,2,0,P|479:299|484:195,1,180,2|12,3:2|1:3,0:0:0:0:
447,97,19294,5,0,3:0:0:0:
332,211,20010,1,0,3:0:0:0:
332,211,20248,2,0,B|258:237|205:137|217:83,1,180,8|12,3:0|3:0,0:0:0:0:
33,2,21917,1,0,3:0:0:0:
33,2,22156,2,0,P|28:47|71:134,1,120,8|12,3:0|1:3,3:0:0:0:
21,225,23110,6,0,P|58:325|138:365,1,180,0|0,3:0|3:0,0:0:0:0:
175,375,24064,2,0,P|248:367|300:332,1,120,8|12,3:0|1:3,0:0:0:0:
336,308,24779,1,0,0:0:0:0:
255,160,25733,6,0,P|304:46|361:29,1,180,0|12,0:0|1:3,0:0:0:0:
398,120,26925,2,0,B|387:219|434:258|434:258,1,120,0|14,0:0|1:3,0:0:0:0:
468,338,27879,6,0,L|394:358,1,60,8|0,3:0|3:0,0:0:0:0:
304,376,28595,1,0,3:0:0:0:
376,250,29310,2,0,B|375:201|439:191|443:123,1,120,0|2,0:0|0:0,0:0:0:0:
479,58,30264,1,2,0:0:0:0:
382,15,30741,6,2,B|365:10|279:49|298:161|211:172,1,240,10|8,3:0|0:3,0:0:0:0:
67,116,32410,1,0,3:0:0:0:
14,223,32887,1,0,3:0:0:0:
51,340,33364,2,0,B|112:403|174:351|237:351,1,180,2|12,0:0|1:3,0:0:0:0:
334,301,34557,6,0,B|398:231|376:169|376:169,1,120,8|12,3:3|1:3,0:0:0:0:
372,133,35272,1,0,3:0:0:0:
359,74,35510,2,0,B|338:56|326:5,1,60,8|0,3:0|3:0,3:0:0:0:
448,0,36226,2,0,B|482:55|513:101|491:185,1,180,2|12,0:0|1:3,0:0:0:0:
496,228,37180,2,0,B|481:319|446:363|446:363,2,120,2|2|0,2:0|3:2|3:2,0:0:0:0:
371,365,38611,6,0,B|326:328|253:322,1,120,0|0,3:0|3:0,0:0:0:0:
207,294,39326,2,0,B|162:256|141:229|134:128,1,180,8|0,3:0|0:0,3:0:0:0:
162,20,40518,1,2,0:0:0:0:
58,65,40995,2,0,B|8:115|16:207|53:256,1,180,2|12,2:0|1:3,0:0:0:0:
117,240,41949,6,0,B|206:212|281:260|288:309,1,180,14|12,3:0|1:3,0:0:0:0:
304,358,42903,1,2,3:2:0:0:
423,330,43380,1,2,3:2:0:0:
457,215,43857,2,0,B|395:173|484:77|393:67|393:33,1,180,14|0,3:0|1:0,0:0:0:0:
333,14,44811,2,0,B|277:51|203:2|148:58,1,180,2|12,3:2|1:3,0:0:0:0:
29,159,46003,6,0,B|84:120|130:137|199:211|279:217|346:147,1,330.000010070801,0|0,3:0|3:0,3:0:0:0:
405,73,47673,2,2,P|432:32|523:16,1,132.00000402832,14|2,3:3|3:2,3:2:0:0:
453,333,49342,5,12,1:3:0:0:
512,252,49819,2,0,P|452:247|360:149,1,198.000006042481,0|0,3:0|3:0,0:0:0:0:
357,108,50773,1,8,3:0:0:0:
315,88,51011,2,0,P|291:90|176:34,1,132.00000402832,0|14,3:0|3:0,0:0:0:0:
33,27,51965,5,2,0:0:0:0:
124,149,52442,1,2,3:2:0:0:
229,266,52919,1,8,3:0:0:0:
229,266,53158,5,12,1:3:0:0:
157,360,53634,2,8,B|107:342|83:324|55:269,1,132.00000402832,10|12,3:0|1:3,3:0:0:0:
64,227,54350,1,0,3:0:0:0:
28,208,54588,2,0,P|35:112|66:80,1,132.00000402832,8|12,3:0|1:3,0:0:0:0:
80,9,55304,2,2,P|142:40|186:101,1,132.00000402832,14|2,3:3|3:2,3:2:0:0:
288,28,56258,2,0,P|291:120|232:217,1,198.000006042481,0|0,3:0|1:0,0:0:0:0:
256,360,58881,1,0,1:0:0:0:
300,266,59358,6,0,B|354:167|428:253|494:176|503:89,1,264.000008056641,0|8,3:0|3:0,0:0:0:0:
391,101,60789,1,12,1:3:0:0:
391,101,61027,1,0,3:0:0:0:
319,16,61504,1,0,3:0:0:0:
236,85,61981,2,0,P|230:154|259:216,1,132.00000402832,2|2,3:2|3:2,0:0:0:0:
296,278,62696,1,12,1:3:0:0:
162,216,63173,6,0,B|123:166|157:124|126:84,1,132.00000402832,0|12,3:0|1:3,3:0:0:0:
102,45,63889,1,0,3:0:0:0:
55,19,64127,2,0,B|21:69|22:118|40:172,1,132.00000402832,8|12,3:0|1:3,0:0:0:0:
37,197,64843,2,0,B|52:265|177:254|176:341,1,198.000006042481,0|0,3:0|1:0,0:0:0:0:
223,362,65797,2,0,P|301:363|360:332,1,132.00000402832,2|2,3:2|3:2,0:0:0:0:
402,314,66512,1,12,1:3:0:0:
476,219,66989,6,0,B|480:147|333:87|339:-27,1,264.000008056641,0|8,3:0|3:0,3:0:0:0:
233,54,68420,1,0,1:0:0:0:
245,75,68658,2,0,B|273:123|343:134|374:222,1,198.000006042481,0|2,3:0|1:2,0:0:0:0:
341,298,69612,1,2,3:2:0:0:
319,309,69851,2,0,B|267:326|217:317|186:275,1,132.00000402832,8|12,3:0|1:3,0:0:0:0:
109,368,70805,6,0,B|0:311|201:159|-53:122|10:-7,1,396.000012084961,0|0,3:0|1:0,0:0:0:0:
256,192,72474,12,8,76528,0:3:0:0:
256,100,79867,5,8,1:2:0:0:
186,33,80344,6,0,P|132:19|66:33,1,120,4|12,3:0|1:3,0:0:0:0:
24,115,81297,2,0,P|36:184|26:237,1,120,8|12,3:0|1:3,0:0:0:0:
21,280,82013,1,0,3:0:0:0:
15,327,82251,2,0,B|82:416|160:319|251:350,1,240,0|10,3:0|3:3,3:0:0:0:
432,319,84159,6,0,B|400:265|327:272|327:272|330:195|255:168,1,240,0|10,3:0|3:3,3:0:0:0:
186,122,85590,1,14,1:3:0:0:
244,43,86067,2,2,B|310:-1|404:-9|493:64,1,240,2|10,0:0|3:3,0:0:0:0:
452,156,87498,1,14,1:3:0:0:
455,202,87736,1,2,0:2:0:0:
442,245,87975,6,0,B|337:262|295:176|185:237,1,240,0|8,3:0|3:0,3:0:0:0:
80,240,89406,1,12,1:3:0:0:
71,285,89644,1,0,0:0:0:0:
83,323,89882,2,0,P|130:362|200:368,1,120,0|12,3:0|1:3,0:0:0:0:
236,338,90598,1,2,3:2:0:0:
295,344,90836,2,0,P|317:361|374:369,1,60,8|2,3:0|3:2,0:0:0:0:
407,370,91313,1,12,1:3:0:0:
412,213,91790,5,6,0:2:0:0:
256,174,92267,1,2,1:2:0:0:
101,213,92744,1,10,0:3:0:0:
27,80,93221,1,2,1:2:0:0:
70,37,93460,1,2,0:0:0:0:
113,9,93698,6,0,L|199:4,1,71.9999978027344,2|2,0:0|0:0,0:0:0:0:
247,41,94175,2,0,L|347:41,1,71.9999978027344,2|2,1:2|3:2,0:0:0:0:
377,0,94652,1,8,3:0:0:0:
428,46,94890,1,2,3:2:0:0:
489,78,95129,2,0,P|464:143|468:167,1,71.9999978027344,12|0,1:3|3:3,0:0:0:0:
407,255,95844,2,0,P|352:219|345:191,1,71.9999978027344,8|2,3:3|1:2,0:0:0:0:
326,66,96560,5,2,1:2:0:0:
336,17,96798,1,0,0:0:0:0:
186,66,97275,1,4,0:2:0:0:
176,17,97513,1,0,0:0:0:0:
258,278,99421,6,2,B|212:284|184:378|94:365,1,180,10|2,3:0|3:2,0:0:0:0:
45,342,100375,2,0,P|33:271|40:220,1,120,2|12,3:2|1:3,0:0:0:0:
52,164,101091,1,0,3:0:0:0:
107,57,101568,1,0,0:0:0:0:
226,47,102045,2,0,B|208:116|124:180|155:283,1,240,2|2,3:2|3:0,0:0:0:0:
228,362,103475,6,0,P|302:326|394:350,1,180,0|10,3:0|3:3,0:0:0:0:
451,364,104429,2,0,P|477:312|482:234,1,120,0|0,3:0|3:0,0:0:0:0:
406,172,105383,1,0,3:0:0:0:
406,172,105622,1,12,1:3:0:0:
413,62,106099,2,0,P|350:32|283:49,1,120,8|0,3:0|1:0,0:0:0:0:
253,67,106814,5,0,3:0:0:0:
144,118,107291,2,0,P|80:123|32:168,1,120,0|0,3:0|3:0,0:0:0:0:
36,277,108245,1,0,3:0:0:0:
129,352,108722,1,0,3:0:0:0:
248,360,109199,2,0,P|312:355|360:310,1,120,0|2,3:0|3:2,3:0:0:0:
288,217,110153,2,0,B|267:149|337:104|333:47,1,180,2|0,3:2|3:0,0:0:0:0:
386,21,111107,6,0,P|418:39|466:38,1,60,0|12,3:0|1:3,0:0:0:0:
478,83,111584,2,0,P|495:133|465:269,1,180,0|12,3:0|1:3,0:0:0:0:
441,305,112537,1,2,0:0:0:0:
344,233,113014,2,2,P|267:258|233:350,1,180,2|8,0:2|3:0,0:2:0:0:
288,367,113968,1,0,3:0:0:0:
343,344,114207,1,12,1:3:0:0:
507,243,114684,6,0,B|452:282|406:265|337:191|257:185|190:255,1,330.000010070801,2|2,3:2|3:2,3:0:0:0:
101,287,116354,2,2,P|58:356|-7:386,1,132.00000402832,2|2,3:2|3:2,3:2:0:0:
106,65,118022,5,14,1:3:0:0:
17,19,118499,2,0,P|4:77|74:192,1,198.000006042481,0|2,3:0|3:2,0:0:0:0:
91,216,119453,1,8,3:0:0:0:
71,244,119692,2,0,P|60:264|73:391,1,132.00000402832,0|14,3:0|0:3,0:0:0:0:
198,372,120645,5,2,0:0:0:0:
350,368,121122,1,0,3:0:0:0:
507,379,121599,1,0,3:0:0:0:
507,379,121838,5,12,1:3:0:0:
408,317,122315,2,2,B|378:274|369:245|380:184,1,132.00000402832,2|12,0:0|1:3,0:0:0:0:
390,157,123030,1,0,0:0:0:0:
408,120,123269,2,2,P|346:47|306:40,1,132.00000402832,10|0,0:3|1:0,0:0:0:0:
246,0,123984,2,2,P|184:31|140:103,1,132.00000402832,14|2,0:3|0:0,0:0:0:0:
30,14,124938,2,0,P|27:106|86:203,1,198.000006042481,0|12,3:2|1:3,0:0:0:0:
24,299,126130,6,0,B|79:338|125:321|194:247|274:241|341:311,1,330.000010070801,0|2,3:0|3:2,0:0:0:0:
434,365,127800,2,2,P|476:270|475:160,1,198.000006042481,14|12,0:3|1:3,0:0:0:0:
451,0,129469,1,12,1:3:0:0:
500,80,129946,2,2,B|445:119|399:102|330:28|250:22|183:92,1,330.000010070801,2|0,0:2|3:0,0:2:0:0:
97,175,131616,2,2,B|26:135|83:32|-12:-2,1,198.000006042481,14|12,0:3|1:3,0:0:0:0:
277,0,133285,5,12,1:3:0:0:
344,91,133762,2,2,B|301:121|272:130|211:120,1,132.00000402832,2|12,0:0|1:3,0:0:0:0:
184,109,134477,1,0,0:0:0:0:
147,91,134715,2,0,P|74:153|66:197,1,132.00000402832,10|14,0:3|1:3,0:0:0:0:
4,241,135431,2,2,P|35:303|96:347,1,132.00000402832,14|2,0:3|0:0,0:0:0:0:
244,384,136385,2,0,P|259:350|258:305,1,66.0000020141602,0|8,3:0|3:0,0:0:0:0:
257,237,136862,1,0,3:0:0:0:
254,25,139008,1,12,1:3:0:0:
212,118,139485,6,0,B|158:217|84:131|18:208|9:295,1,264.000008056641,0|8,3:0|3:0,0:0:0:0:
101,366,140916,1,12,1:3:0:0:
101,366,141154,1,0,0:0:0:0:
229,338,141631,1,0,3:0:0:0:
246,208,142108,2,0,P|258:135|238:69,1,132.00000402832,2|2,3:0|3:0,3:0:0:0:
200,14,142823,1,2,1:3:0:0:
162,168,143301,6,0,B|123:218|157:260|126:300,1,132.00000402832,2|12,3:2|1:3,0:0:0:0:
102,339,144017,1,0,3:0:0:0:
55,365,144255,2,0,B|21:315|22:266|40:212,1,132.00000402832,8|12,3:0|1:3,0:0:0:0:
37,187,144971,2,0,B|52:119|177:130|176:43,1,198.000006042481,0|12,3:0|1:3,0:0:0:0:
219,27,145925,2,0,P|302:32|363:79,1,132.00000402832,2|2,3:0|3:0,3:0:0:0:
382,92,146640,1,14,1:3:0:0:
487,222,147117,6,0,B|462:289|303:284|262:391,1,264.000008056641,2|8,3:2|3:0,0:0:0:0:
168,291,148548,1,12,1:3:0:0:
168,266,148786,2,0,B|170:209|227:167|212:74,1,198.000006042481,0|2,3:0|1:2,0:0:0:0:
148,24,149740,1,2,3:0:0:0:
123,25,149979,2,0,B|69:34|29:64|21:116,1,132.00000402832,10|2,3:0|1:2,3:0:0:0:
11,208,150932,6,0,B|43:325|258:118|217:417|358:382,1,396.000012084961,2|4,3:2|1:3,0:0:0:0:
256,192,152601,12,4,155701,0:2:0:0:
473,158,156655,6,0,B|482:242|400:283|347:325|310:97|170:177|347:325|196:406|171:176|116:182|-4:267|50:347,1,575.999982421876,4|0,1:0|0:0,0:0:0:0:
