osu file format v14

[General]
AudioFilename: audio.mp3
AudioLeadIn: 0
PreviewTime: 91313
Countdown: 0
SampleSet: Soft
StackLeniency: 0.7
Mode: 0
LetterboxInBreaks: 0
WidescreenStoryboard: 0

[Editor]
DistanceSpacing: 1.9
BeatDivisor: 4
GridSize: 8
TimelineZoom: 2.2

[Metadata]
Title:Never There
TitleUnicode:Never There
Artist:Cake
ArtistUnicode:Cake
Creator:sodasurgeon
Version:Never There
Source:
Tags:English Rock Alternative Prolonging the Magic
BeatmapID:3007992
BeatmapSetID:1464525

[Difficulty]
HPDrainRate:5
CircleSize:5
OverallDifficulty:7.5
ApproachRate:7.5
SliderMultiplier:1.8
SliderTickRate:1

[Events]
//Background and Video events
0,0,"never ever ever ever.jpg",0,0
//Break Periods
//Storyboard Layer 0 (Background)
//Storyboard Layer 1 (Fail)
//Storyboard Layer 2 (Pass)
//Storyboard Layer 3 (Foreground)
//Storyboard Layer 4 (Overlay)
//Storyboard Sound Samples

[TimingPoints]
7848,476.947535771065,4,2,0,40,1,0
7848,-133.333333333333,4,2,0,40,0,0
29549,-133.333333333333,4,2,0,35,0,0
30741,-100,4,2,0,50,0,0
47673,-83.3333333333333,4,2,0,50,0,0
49342,-100,4,2,0,50,0,0
51488,-83.3333333333333,4,2,0,50,0,0
66989,-83.3333333333333,4,2,0,55,0,0
67943,-83.3333333333333,4,2,0,50,0,0
80344,-100,4,2,0,40,0,0
106814,-133.333333333333,4,2,0,40,0,0
109199,-100,4,2,0,40,0,0
120169,-83.3333333333333,4,2,0,40,0,0
126130,-100,4,2,0,40,0,0
131615,-83.3333333333333,4,2,0,40,0,0
139485,-100,4,2,0,40,0,0
152601,-83.3333333333333,4,2,0,40,0,0
157132,-83.3333333333333,4,2,0,35,0,0
157609,-83.3333333333333,4,2,0,30,0,0
158086,-83.3333333333333,4,2,0,25,0,0
158563,-83.3333333333333,4,2,0,20,0,0
159040,-83.3333333333333,4,2,0,15,0,0
159517,-83.3333333333333,4,2,0,10,0,0
159994,-83.3333333333333,4,2,0,5,0,0

[Colours]
Combo1 : 166,176,215
Combo2 : 98,121,164
SliderTrackOverride : 115,111,136
SliderBorder : 236,203,196

[HitObjects]
291,377,7847,5,12,3:3:0:0:
197,291,8086,1,0,3:0:0:0:
220,281,8205,1,0,3:0:0:0:
245,239,8324,1,0,1:0:0:0:
271,265,8444,1,0,3:0:0:0:
280,308,8563,1,2,3:2:0:0:
318,310,8682,1,0,3:0:0:0:
364,288,8801,2,0,L|371:343,1,33.7500012874604,8|0,3:0|3:0,3:0:0:0:
404,347,9040,1,0,3:0:0:0:
443,356,9159,1,0,3:0:0:0:
487,371,9278,1,12,1:3:0:0:
437,272,9517,5,12,3:0:0:0:
431,244,9636,1,0,0:0:0:0:
495,12,9994,1,0,0:0:0:0:
388,96,10232,1,12,1:3:0:0:
507,143,10471,5,2,3:2:0:0:
500,159,10590,1,0,3:0:0:0:
458,168,10709,1,8,3:0:0:0:
447,149,10828,1,0,3:0:0:0:
405,165,10948,1,2,3:2:0:0:
397,184,11067,1,0,3:0:0:0:
361,158,11186,1,0,1:2:0:0:
359,178,11305,1,0,3:0:0:0:
320,168,11425,1,0,3:2:0:0:
321,192,11544,1,0,3:0:0:0:
283,223,11663,1,0,3:0:0:0:
298,314,11902,5,0,3:0:0:0:
290,331,12021,1,0,3:0:0:0:
246,326,12140,1,12,1:3:0:0:
243,346,12259,1,0,3:0:0:0:
194,348,12379,1,2,3:2:0:0:
192,364,12498,1,0,3:0:0:0:
141,367,12617,2,0,L|137:320,1,33.7500012874604,8|0,3:0|3:0,3:0:0:0:
92,327,12855,1,0,3:0:0:0:
74,335,12975,1,0,3:0:0:0:
29,350,13094,1,12,1:3:0:0:
131,244,13332,5,12,3:3:0:0:
127,221,13452,1,0,0:0:0:0:
98,31,13809,1,0,0:0:0:0:
4,92,14048,1,12,1:3:0:0:
18,176,14286,5,0,3:0:0:0:
44,188,14406,1,0,3:0:0:0:
77,206,14525,2,0,L|81:146,1,33.7500012874604,8|0,3:0|3:0,3:0:0:0:
111,146,14763,1,2,3:2:0:0:
130,153,14882,1,0,3:0:0:0:
165,168,15002,2,0,L|178:218,1,33.7500012874604,0|0,1:2|0:0,0:0:0:0:
203,206,15240,1,2,3:2:0:0:
228,206,15359,1,0,3:0:0:0:
286,185,15479,6,0,B|333:197|370:166|370:166,1,67.5000025749208,8|0,3:3|0:0,0:0:0:0:
362,155,15836,1,0,0:0:0:0:
362,132,15956,1,12,1:3:0:0:
347,38,16194,1,0,0:0:0:0:
240,47,16433,2,0,B|181:46|181:46,2,33.7500012874604,8|0|0,0:3|0:0|0:0,0:0:0:0:
252,71,16790,1,0,0:0:0:0:
260,103,16910,1,0,1:0:0:0:
162,141,17148,1,12,3:0:0:0:
137,142,17268,1,0,0:0:0:0:
120,131,17386,2,0,B|84:121|71:74|71:74,1,67.5000025749208,0|0,0:0|0:0,0:0:0:0:
30,8,17863,1,12,1:3:0:0:
129,24,18102,5,2,3:2:0:0:
144,47,18221,1,0,3:0:0:0:
178,55,18340,1,8,3:0:0:0:
190,33,18460,1,0,3:0:0:0:
216,38,18579,1,2,3:2:0:0:
244,59,18698,1,0,3:0:0:0:
267,56,18817,1,12,1:3:0:0:
281,26,18937,1,0,3:0:0:0:
300,38,19056,1,0,3:0:0:0:
323,55,19175,1,0,3:0:0:0:
370,33,19294,1,0,3:0:0:0:
460,92,19533,5,0,3:0:0:0:
470,69,19652,1,0,3:0:0:0:
500,59,19771,1,12,1:3:0:0:
442,155,20010,1,0,3:0:0:0:
382,126,20248,1,8,3:0:0:0:
355,130,20367,1,0,3:0:0:0:
326,158,20487,1,2,3:2:0:0:
306,168,20606,1,0,3:0:0:0:
272,160,20725,1,0,1:0:0:0:
389,206,20964,5,12,3:0:0:0:
399,231,21083,1,0,0:0:0:0:
435,28,21441,1,0,0:0:0:0:
302,100,21679,1,12,1:3:0:0:
211,96,21917,5,0,3:0:0:0:
208,110,22037,1,0,3:0:0:0:
171,104,22156,2,0,L|163:148,1,33.7500012874604,8|0,3:0|3:0,3:0:0:0:
141,152,22394,1,2,3:2:0:0:
116,153,22514,1,0,3:0:0:0:
88,138,22633,2,0,L|80:96,1,33.7500012874604,12|0,1:3|0:0,0:0:0:0:
63,99,22871,1,2,3:2:0:0:
40,104,22991,1,0,3:0:0:0:
1,56,23110,6,0,P|40:35|77:33,1,67.5000025749208,0|0,3:0|0:0,0:0:0:0:
121,12,23468,1,0,0:0:0:0:
100,44,23587,1,12,1:3:0:0:
180,88,23825,2,0,P|160:130|133:162,1,67.5000025749208,0|8,3:0|3:0,3:0:0:0:
86,157,24183,1,0,3:0:0:0:
120,167,24302,1,2,3:2:0:0:
20,198,24541,1,12,1:3:0:0:
83,240,24779,6,0,B|83:298|108:315|108:315,1,67.5000025749208,0|0,0:0|0:0,0:0:0:0:
126,375,25256,1,0,0:0:0:0:
212,280,25495,1,12,1:3:0:0:
231,350,25733,2,0,B|276:366|300:355|300:355,1,67.5000025749208,0|8,0:0|0:3,0:0:0:0:
322,342,26091,1,0,0:0:0:0:
349,323,26210,2,0,B|398:302|430:324|430:324,1,67.5000025749208,0|12,0:0|1:3,0:0:0:0:
477,330,26568,1,0,0:0:0:0:
443,345,26687,1,0,0:0:0:0:
456,264,26925,6,0,B|492:212|493:181|493:181,1,67.5000025749208
478,143,27283,1,0,0:0:0:0:
486,174,27402,1,14,1:3:0:0:
402,109,27641,1,0,0:0:0:0:
405,214,27879,5,8,3:0:0:0:
396,234,27999,1,0,3:0:0:0:
355,233,28118,1,0,3:0:0:0:
348,245,28237,1,0,3:0:0:0:
304,250,28356,1,12,1:3:0:0:
298,263,28475,1,0,3:0:0:0:
257,236,28595,1,0,3:0:0:0:
257,236,29549,1,2,0:3:0:0:
240,258,29668,1,2,0:3:0:0:
212,236,29787,1,2,0:0:0:0:
198,259,29906,1,2,0:0:0:0:
174,229,30026,1,2,0:3:0:0:
161,250,30145,1,2,0:3:0:0:
130,220,30264,1,2,0:0:0:0:
113,240,30383,1,2,0:0:0:0:
80,220,30503,1,2,0:3:0:0:
51,249,30622,1,2,0:3:0:0:
15,262,30741,6,2,P|64:284|89:319,1,90,10|2,3:0|0:0,0:0:0:0:
113,375,31099,1,0,0:0:0:0:
103,339,31218,1,12,1:3:0:0:
192,374,31456,1,0,0:0:0:0:
192,374,31695,1,8,0:3:0:0:
232,317,31814,1,0,0:0:0:0:
11,290,32172,1,12,1:3:0:0:
11,290,32410,1,0,3:0:0:0:
78,267,32530,2,0,B|86:250|90:244|90:218,1,45,0|0,0:0|3:0,3:0:0:0:
57,9,32887,2,0,B|49:26|45:32|45:58,1,45,0|0,3:0|0:0,0:0:0:0:
56,94,33126,1,12,1:3:0:0:
134,49,33364,5,2,0:0:0:0:
145,60,33483,1,0,3:0:0:0:
180,52,33603,1,8,3:3:0:0:
185,63,33722,1,0,3:0:0:0:
225,53,33841,1,2,3:2:0:0:
232,67,33960,1,0,3:0:0:0:
276,61,34080,2,0,P|295:95|310:106,1,45,12|0,1:3|0:0,0:0:0:0:
326,84,34318,1,0,3:0:0:0:
346,106,34437,1,0,3:0:0:0:
350,143,34557,6,0,B|362:15|465:8|465:8,1,180,8|12,3:3|1:3,0:0:0:0:
505,16,35153,1,0,3:0:0:0:
488,43,35272,1,0,3:0:0:0:
495,70,35391,1,0,3:0:0:0:
464,95,35510,2,0,B|441:97|430:124,1,45,8|0,3:0|3:0,3:0:0:0:
447,182,35749,2,0,B|458:230|401:268,1,90,0|0,3:0|1:0,0:0:0:0:
342,376,36226,2,0,B|359:328|360:318|359:288,1,90,2|0,0:0|0:0,0:0:0:0:
360,228,36703,2,0,B|334:164|377:135|377:135,1,90,0|12,0:0|1:3,0:0:0:0:
310,258,37180,5,2,2:0:0:0:
287,290,37299,1,0,3:0:0:0:
254,287,37418,1,8,3:0:0:0:
251,316,37537,1,0,3:2:0:0:
206,320,37657,1,2,3:2:0:0:
201,340,37776,1,0,3:0:0:0:
163,345,37895,1,12,1:3:0:0:
144,328,38014,1,2,2:2:0:0:
128,354,38134,1,0,3:2:0:0:
99,348,38253,1,0,3:0:0:0:
63,364,38372,1,12,3:0:0:0:
103,244,38611,5,0,3:0:0:0:
75,232,38730,1,0,3:0:0:0:
47,250,38849,1,12,1:3:0:0:
27,228,38968,1,0,3:0:0:0:
18,199,39088,1,0,3:0:0:0:
40,173,39207,1,0,3:0:0:0:
60,149,39326,2,0,P|73:103|71:67,1,45,8|0,3:0|3:0,3:0:0:0:
66,61,39565,1,0,3:0:0:0:
55,23,39684,1,0,3:0:0:0:
21,3,39803,1,0,1:0:0:0:
185,2,40041,5,0,0:0:0:0:
139,49,40161,2,2,P|172:108|184:201,1,135
173,256,40757,1,12,1:3:0:0:
255,226,40995,1,2,2:0:0:0:
274,235,41115,1,0,3:0:0:0:
310,214,41234,1,8,3:0:0:0:
327,224,41353,1,0,3:0:0:0:
360,209,41472,1,2,3:2:0:0:
382,211,41592,1,0,3:0:0:0:
418,195,41711,1,12,1:3:0:0:
437,214,41830,1,0,3:0:0:0:
489,200,41949,6,0,P|488:260|426:374,1,180,14|0,3:0|0:0,0:0:0:0:
387,293,42665,1,12,1:3:0:0:
354,369,42903,1,2,3:2:0:0:
333,371,43022,1,0,3:0:0:0:
313,352,43142,1,8,3:0:0:0:
298,353,43261,1,0,3:0:0:0:
266,372,43380,1,2,3:2:0:0:
245,370,43499,1,0,3:0:0:0:
219,360,43619,1,12,1:3:0:0:
196,360,43738,1,0,1:0:0:0:
145,378,43857,6,0,P|90:350|15:244,1,180,14|0,3:0|0:0,0:0:0:0:
36,169,44572,1,0,1:0:0:0:
95,229,44811,1,2,3:2:0:0:
111,253,44930,1,0,3:0:0:0:
155,253,45049,1,8,3:0:0:0:
179,249,45169,1,0,3:0:0:0:
203,226,45288,1,2,3:2:0:0:
226,224,45407,1,0,3:0:0:0:
254,211,45526,1,12,1:3:0:0:
278,244,45646,1,0,3:0:0:0:
310,252,45765,1,0,3:0:0:0:
337,261,45884,1,0,3:0:0:0:
383,261,46003,6,0,P|400:308|396:366,1,90,0|0,3:0|3:0,3:0:0:0:
408,252,46361,1,0,3:0:0:0:
434,234,46480,1,0,1:3:0:0:
329,74,46719,1,0,3:0:0:0:
311,98,46838,1,0,3:0:0:0:
298,127,46957,2,0,P|308:175|342:222,1,90,8|0,3:0|3:0,3:0:0:0:
272,132,47315,1,0,3:0:0:0:
243,119,47434,1,12,1:3:0:0:
314,282,47673,2,2,B|290:319|171:366|96:330|96:330,1,215.999993408203,14|2,3:3|3:2,3:2:0:0:
37,317,48388,1,12,1:3:0:0:
91,267,48627,5,0,3:0:0:0:
110,247,48746,1,0,3:0:0:0:
95,224,48865,1,8,3:0:0:0:
107,198,48984,1,0,3:0:0:0:
96,180,49103,1,0,3:0:0:0:
77,159,49223,1,0,3:0:0:0:
86,116,49342,2,0,P|61:69|69:11,1,90,12|0,1:3|3:0,0:0:0:0:
53,138,49700,1,0,3:0:0:0:
17,127,49819,1,0,3:0:0:0:
136,115,50057,5,0,3:0:0:0:
167,126,50177,1,0,3:0:0:0:
170,163,50296,1,12,1:3:0:0:
196,175,50415,1,0,3:0:0:0:
194,198,50534,1,0,3:0:0:0:
196,222,50654,1,0,3:0:0:0:
214,239,50773,1,8,3:0:0:0:
243,241,50892,1,0,3:0:0:0:
258,268,51011,1,0,3:0:0:0:
261,285,51130,1,0,3:0:0:0:
280,310,51250,1,12,1:3:0:0:
473,373,51488,6,2,B|488:337|512:249|501:147|501:147,1,215.999993408203,14|2,3:0|0:0,0:0:0:0:
472,80,52204,1,0,1:0:0:0:
409,141,52442,1,2,3:2:0:0:
390,163,52561,1,0,0:0:0:0:
363,165,52681,1,8,3:3:0:0:
328,191,52800,1,8,3:0:0:0:
301,191,52919,1,8,3:0:0:0:
271,176,53038,1,2,3:2:0:0:
245,173,53158,1,12,1:3:0:0:
210,186,53277,1,8,3:0:0:0:
183,187,53396,1,8,3:0:0:0:
150,183,53515,1,0,2:0:0:0:
143,208,53634,6,8,P|127:141|131:90,1,107.999996704102,10|8,3:0|3:0,3:0:0:0:
112,227,53992,1,0,3:0:0:0:
84,227,54111,1,12,1:3:0:0:
23,181,54350,1,0,3:0:0:0:
137,313,54588,1,8,3:0:0:0:
162,320,54708,1,8,3:0:0:0:
194,302,54827,2,0,P|222:363|260:386,1,107.999996704102,0|12,3:0|1:3,0:0:0:0:
311,298,55304,2,2,B|366:390|508:384|508:384,1,215.999993408203,14|2,3:3|3:2,3:2:0:0:
512,303,56019,1,12,1:3:0:0:
448,265,56258,5,0,3:0:0:0:
425,247,56377,1,0,3:0:0:0:
435,219,56496,1,8,3:0:0:0:
414,191,56615,1,0,3:0:0:0:
421,160,56735,1,0,3:0:0:0:
400,142,56854,1,0,3:0:0:0:
407,114,56973,1,0,1:0:0:0:
379,88,57092,1,0,3:0:0:0:
390,63,57212,1,0,3:0:0:0:
350,67,57331,1,0,3:0:0:0:
314,29,57450,6,2,L|240:30,1,53.9999983520508,2|0,3:0|0:0,0:0:0:0:
184,30,57689,1,0,3:0:0:0:
239,101,57927,2,0,L|168:122,1,53.9999983520508,2|0,3:0|2:0,0:0:0:0:
115,134,58166,1,0,3:0:0:0:
232,177,58404,1,2,0:0:0:0:
107,215,58642,1,2,0:0:0:0:
319,18,58881,1,0,1:0:0:0:
22,19,59358,5,0,3:0:0:0:
22,19,59596,1,0,3:0:0:0:
30,57,59716,1,0,3:0:0:0:
58,89,59835,2,0,P|86:100|125:107,1,53.9999983520508,12|0,1:3|3:0,0:0:0:0:
146,119,60073,1,0,3:0:0:0:
140,143,60192,1,0,3:0:0:0:
146,160,60312,2,0,P|175:169|210:168,1,53.9999983520508,8|0,3:0|3:0,3:0:0:0:
201,194,60550,1,0,3:0:0:0:
196,214,60669,1,0,3:0:0:0:
209,233,60789,1,12,1:3:0:0:
110,252,61027,6,0,L|56:260,1,53.9999983520508,0|0,3:0|3:0,3:0:0:0:
25,268,61266,1,0,3:0:0:0:
171,295,61504,1,0,3:0:0:0:
265,188,61743,1,0,1:0:0:0:
171,295,61981,5,2,3:2:0:0:
193,300,62100,1,0,3:0:0:0:
206,332,62220,1,8,3:0:0:0:
243,340,62339,1,0,3:0:0:0:
251,356,62458,1,2,3:2:0:0:
291,354,62577,1,0,3:0:0:0:
301,367,62696,1,12,1:3:0:0:
331,356,62816,1,0,3:0:0:0:
350,368,62935,1,0,3:0:0:0:
382,356,63054,1,0,3:0:0:0:
412,363,63173,6,0,P|456:328|478:267,1,107.999996704102,0|0,3:0|3:0,3:0:0:0:
490,221,63531,1,0,3:0:0:0:
488,255,63650,1,12,1:3:0:0:
463,107,63889,1,0,3:0:0:0:
413,207,64127,1,8,3:0:0:0:
396,233,64247,1,0,3:0:0:0:
373,241,64366,1,0,3:0:0:0:
331,356,64604,1,12,1:3:0:0:
246,264,64843,1,0,3:0:0:0:
220,269,64962,1,0,3:0:0:0:
198,260,65081,2,0,P|171:197|171:158,1,107.999996704102,0|0,3:0|3:0,3:0:0:0:
288,114,65558,2,0,P|305:65|301:-1,1,107.999996704102,0|2,1:0|3:2,0:0:0:0:
312,141,65916,5,0,3:2:0:0:
326,149,66035,1,8,3:0:0:0:
349,123,66154,1,8,3:0:0:0:
365,135,66274,1,2,3:2:0:0:
372,109,66393,1,0,3:2:0:0:
396,114,66512,1,12,1:3:0:0:
403,85,66631,1,0,3:0:0:0:
421,91,66751,1,0,3:2:0:0:
430,66,66870,1,0,3:0:0:0:
476,92,66989,6,0,P|484:161|480:203,1,107.999996704102,0|0,3:0|3:0,3:0:0:0:
466,260,67347,1,0,3:0:0:0:
479,232,67466,1,12,1:3:0:0:
400,303,67704,1,0,0:0:0:0:
402,234,67943,1,8,3:0:0:0:
383,241,68062,1,0,3:0:0:0:
358,220,68181,1,0,3:0:0:0:
338,224,68301,1,0,3:0:0:0:
310,206,68420,2,0,L|309:265,1,53.9999983520508,0|0,1:0|3:0,0:0:0:0:
280,260,68658,1,0,3:0:0:0:
254,265,68778,1,0,3:0:0:0:
229,290,68897,5,2,0:2:0:0:
119,267,69135,1,2,0:2:0:0:
13,236,69374,1,2,1:2:0:0:
74,145,69612,5,2,3:2:0:0:
94,159,69731,1,0,3:0:0:0:
122,136,69851,1,8,3:0:0:0:
136,147,69970,1,0,3:0:0:0:
169,122,70089,1,2,3:2:0:0:
183,129,70208,1,0,3:0:0:0:
208,100,70328,1,12,1:3:0:0:
227,105,70447,1,0,3:0:0:0:
246,84,70566,1,0,3:0:0:0:
267,89,70685,1,0,3:0:0:0:
301,60,70805,5,0,3:0:0:0:
397,12,71043,1,0,3:0:0:0:
403,41,71162,1,0,3:0:0:0:
397,71,71282,2,0,P|382:136|343:183,1,107.999996704102,12|0,1:3|0:0,0:0:0:0:
273,205,71758,1,8,3:0:0:0:
279,232,71878,1,0,3:0:0:0:
298,250,71997,2,0,P|290:308|304:332,1,53.9999983520508,0|0,3:0|3:0,3:0:0:0:
336,384,72235,1,0,1:0:0:0:
379,206,72474,6,4,B|521:212|527:108|485:48|397:48|281:155|370:351|179:395|85:363,1,647.99998022461,4|0,0:0|0:0,0:0:0:0:
112,369,74143,1,0,0:0:0:0:
202,209,74382,2,4,B|189:319|99:310|52:266|65:189|172:104|329:208|394:48|379:-35,1,539.999983520508
378,5,76528,1,8,0:3:0:0:
111,368,79867,1,8,1:2:0:0:
378,5,80344,5,4,3:0:0:0:
360,22,80463,1,0,3:0:0:0:
353,52,80582,1,2,3:2:0:0:
318,57,80701,1,0,3:0:0:0:
290,65,80820,2,0,P|247:79|229:114,1,45,12|0,1:3|0:0,0:0:0:0:
233,62,81059,1,0,3:0:0:0:
205,52,81178,1,0,3:0:0:0:
183,38,81297,1,8,3:0:0:0:
149,41,81417,1,0,3:0:0:0:
137,66,81536,1,0,3:2:0:0:
103,73,81655,1,0,3:0:0:0:
57,58,81774,1,12,1:3:0:0:
53,146,82013,5,0,3:0:0:0:
26,147,82132,1,0,3:0:0:0:
8,130,82251,2,0,P|4:190|25:248,1,90,0|0,3:0|3:0,3:0:0:0:
71,361,82728,2,0,P|75:301|54:243,1,90,12|2,1:3|3:0,0:0:0:0:
58,147,83205,1,10,3:3:0:0:
82,160,83324,1,0,3:0:0:0:
111,186,83444,1,8,3:3:0:0:
131,168,83563,1,0,3:0:0:0:
160,155,83682,2,0,P|198:152|214:160,1,45,12|0,1:3|3:0,0:0:0:0:
216,178,83921,1,2,3:2:0:0:
244,190,84040,1,8,3:3:0:0:
269,148,84159,6,0,P|281:89|271:21,1,90,0|0,3:0|3:0,3:0:0:0:
290,172,84517,1,0,3:0:0:0:
325,168,84636,1,0,1:0:0:0:
339,273,84875,1,0,3:0:0:0:
367,273,84994,1,0,3:0:0:0:
397,283,85113,2,2,P|416:261|426:231,1,45,10|2,3:3|3:2,3:2:0:0:
433,208,85351,1,0,3:0:0:0:
466,203,85471,1,0,3:0:0:0:
498,185,85590,2,2,P|498:148|494:127,1,45,14|2,1:3|3:2,0:2:0:0:
491,107,85828,1,0,3:0:0:0:
476,78,85948,1,0,3:0:0:0:
457,49,86067,6,2,P|387:42|342:49,1,90
226,80,86544,2,2,P|286:92|329:84,1,90,14|2,1:3|0:2,0:2:0:0:
223,61,86902,1,0,3:0:0:0:
219,41,87021,1,10,3:3:0:0:
190,62,87140,1,0,3:0:0:0:
162,65,87259,1,8,3:0:0:0:
122,91,87379,1,0,3:0:0:0:
86,89,87498,2,2,B|35:41|27:18|27:18,1,90,14|2,1:3|0:2,0:2:0:0:
31,89,87855,1,2,0:0:0:0:
39,117,87975,6,0,P|56:169|48:218,1,90,0|0,3:0|3:0,3:0:0:0:
117,177,88332,1,0,3:0:0:0:
102,208,88452,2,0,P|85:245|56:286,1,90,12|0,1:3|3:0,0:0:0:0:
115,285,88809,1,0,3:0:0:0:
123,311,88929,1,8,3:0:0:0:
129,343,89048,1,0,3:0:0:0:
149,344,89167,1,0,3:0:0:0:
181,329,89286,1,0,3:0:0:0:
210,316,89406,2,0,P|262:321|301:350,1,90,12|0,1:3|0:0,0:0:0:0:
224,288,89763,5,0,3:0:0:0:
206,259,89882,1,0,3:0:0:0:
306,345,90121,1,0,3:0:0:0:
376,240,90359,1,12,1:3:0:0:
401,370,90598,1,2,3:2:0:0:
429,370,90717,1,0,3:0:0:0:
458,343,90836,1,8,3:0:0:0:
475,333,90956,1,0,3:0:0:0:
509,309,91075,1,2,3:2:0:0:
510,286,91194,1,0,3:0:0:0:
480,263,91313,1,12,1:3:0:0:
476,153,91552,5,0,0:3:0:0:
476,153,91790,2,0,L|461:217,1,45,6|0,0:2|0:0,0:0:0:0:
433,49,92029,1,8,0:3:0:0:
433,49,92267,2,0,L|418:113,1,45,2|0,1:2|0:0,0:0:0:0:
397,222,92506,1,8,0:3:0:0:
397,222,92744,2,0,L|382:286,1,45,10|0,0:3|0:0,0:0:0:0:
355,116,92983,1,8,0:3:0:0:
355,116,93221,6,0,L|340:180,1,45,2|0,1:2|0:0,0:0:0:0:
286,123,93460,2,0,L|275:188,1,45,2|0,0:0|0:0,0:0:0:0:
215,143,93698,2,0,L|209:208,1,45,2|0,0:0|0:0,0:0:0:0:
145,162,93937,2,0,L|139:228,1,45,2|0,0:0|0:0,0:0:0:0:
74,184,94175,2,0,L|72:250,1,45,2|0,1:2|0:0,0:0:0:0:
9,273,94413,5,2,3:2:0:0:
7,304,94533,1,0,3:3:0:0:
50,301,94652,1,8,3:0:0:0:
50,324,94771,1,0,3:0:0:0:
94,309,94890,1,2,3:2:0:0:
98,332,95010,1,0,3:3:0:0:
134,299,95129,1,12,1:3:0:0:
146,324,95248,1,0,3:0:0:0:
180,293,95367,1,0,3:3:0:0:
193,329,95487,1,0,3:3:0:0:
232,352,95606,6,0,L|287:352,1,45,6|0,0:0|0:0,0:0:0:0:
363,290,95844,1,8,3:3:0:0:
363,290,96083,2,0,L|308:290,1,45,2|0,1:2|0:0,0:0:0:0:
149,290,96321,1,8,3:3:0:0:
149,290,96560,2,0,L|204:290,1,45,2|0,1:2|0:0,0:0:0:0:
279,231,96798,1,0,0:0:0:0:
279,231,97037,2,0,L|224:231,1,45,2|0,1:2|0:0,0:0:0:0:
256,119,97275,1,4,0:2:0:0:
256,119,98229,2,0,L|256:164,1,45,2|2,0:3|0:3,0:3:0:0:
298,24,98468,2,0,L|293:75,1,45,2|2,0:0|0:0,0:0:0:0:
216,25,98706,2,0,L|223:97,1,45,2|2,0:3|0:3,0:3:0:0:
361,93,98944,2,0,L|330:133,1,45,2|2,0:0|0:0,0:0:0:0:
149,92,99183,2,0,L|194:149,1,45,2|2,0:3|0:3,0:3:0:0:
333,128,99421,6,2,P|398:93|427:99,1,90,10|2,3:0|0:0,0:0:0:0:
471,124,99779,1,0,0:0:0:0:
445,101,99898,1,12,1:3:0:0:
500,196,100137,1,2,3:2:0:0:
490,213,100256,1,0,3:2:0:0:
457,202,100375,1,2,3:2:0:0:
434,209,100495,1,0,3:2:0:0:
421,237,100614,1,2,3:2:0:0:
397,251,100733,1,0,3:2:0:0:
362,251,100852,2,0,P|326:217|326:216,1,45,12|0,1:3|3:0,0:0:0:0:
382,313,101091,5,0,3:0:0:0:
365,344,101210,1,0,3:0:0:0:
341,354,101329,1,0,3:0:0:0:
341,354,101568,1,0,0:0:0:0:
330,230,101806,1,12,1:3:0:0:
262,328,102045,1,2,3:2:0:0:
237,329,102164,1,0,3:0:0:0:
209,361,102283,2,0,L|202:306,1,45,8|0,3:0|3:0,3:0:0:0:
166,316,102522,1,2,3:2:0:0:
135,320,102641,1,0,3:0:0:0:
126,285,102760,2,0,P|118:227|118:226,1,45,12|0,1:3|3:0,0:0:0:0:
83,239,102999,1,2,3:0:0:0:
56,238,103118,1,0,3:0:0:0:
21,205,103237,1,0,3:0:0:0:
12,67,103475,5,0,3:0:0:0:
36,85,103595,1,0,3:0:0:0:
63,82,103714,2,2,P|91:83|123:100,1,45,14|2,3:3|3:2,3:2:0:0:
133,99,103952,1,0,3:0:0:0:
147,132,104072,1,0,3:0:0:0:
178,144,104191,2,2,P|200:150|223:150,1,45,10|2,3:3|3:2,3:2:0:0:
235,176,104429,1,0,3:0:0:0:
264,184,104549,1,0,3:0:0:0:
293,161,104668,1,12,1:3:0:0:
445,166,104906,1,0,3:0:0:0:
426,189,105026,1,0,3:0:0:0:
432,217,105145,2,0,P|406:274|379:294,1,90,0|0,3:0|3:0,3:0:0:0:
505,186,105622,1,12,1:3:0:0:
359,185,105860,5,0,3:0:0:0:
351,154,105979,1,0,3:0:0:0:
378,134,106099,1,8,3:0:0:0:
370,109,106218,1,0,3:0:0:0:
406,93,106337,1,2,3:2:0:0:
406,74,106456,1,0,3:0:0:0:
425,55,106576,1,0,1:0:0:0:
288,12,106814,5,0,3:0:0:0:
301,26,106933,1,0,3:0:0:0:
319,43,107053,1,0,3:0:0:0:
219,63,107291,1,0,3:0:0:0:
198,56,107410,1,0,3:0:0:0:
177,38,107530,2,0,P|157:28|149:20,1,33.7500012874604,12|0,1:3|3:0,0:0:0:0:
180,101,107768,1,0,3:0:0:0:
153,123,107887,1,0,3:0:0:0:
139,159,108006,2,0,L|157:204,1,33.7500012874604,8|0,3:0|3:0,3:0:0:0:
140,223,108245,1,0,3:0:0:0:
111,231,108364,1,0,3:0:0:0:
93,258,108483,2,0,P|115:282|123:303,1,33.7500012874604,12|0,1:3|3:0,0:0:0:0:
44,222,108722,2,0,L|35:179,1,33.7500012874604,0|0,3:0|3:0,3:0:0:0:
27,151,108960,1,0,3:0:0:0:
187,275,109199,6,0,P|188:353|173:397,1,90,0|0,3:0|1:0,3:0:0:0:
218,211,109676,1,2,3:2:0:0:
231,191,109795,1,0,3:0:0:0:
263,206,109914,1,8,3:0:0:0:
282,206,110034,1,0,3:0:0:0:
286,229,110153,1,2,3:2:0:0:
309,231,110272,1,0,3:0:0:0:
335,247,110391,2,0,L|317:292,1,45,12|0,1:3|3:0,0:0:0:0:
304,317,110630,1,0,3:0:0:0:
287,346,110749,1,0,3:0:0:0:
305,368,110868,1,0,3:0:0:0:
401,242,111107,5,0,3:0:0:0:
416,232,111226,1,0,3:0:0:0:
441,237,111345,2,0,P|439:209|452:192,1,45,12|0,1:3|3:0,3:0:0:0:
464,179,111584,1,0,3:0:0:0:
480,157,111703,1,0,3:0:0:0:
469,130,111822,2,0,P|444:102|438:80,1,45,8|0,3:0|3:0,3:0:0:0:
418,105,112061,1,0,3:0:0:0:
412,75,112180,1,0,3:0:0:0:
415,44,112299,1,12,1:3:0:0:
366,215,112537,2,2,P|347:154|349:105,1,90,2|2,0:0|0:0,0:0:0:0:
263,5,113014,2,2,P|286:59|294:112,1,90,2|14,0:2|1:3,0:2:0:0:
293,172,113491,5,0,3:0:0:0:
279,198,113611,1,0,3:0:0:0:
245,188,113730,1,8,3:0:0:0:
230,197,113849,1,0,3:0:0:0:
199,182,113968,1,0,3:0:0:0:
176,179,114088,1,0,3:0:0:0:
165,148,114207,1,12,1:3:0:0:
139,149,114326,1,0,3:0:0:0:
102,141,114445,1,0,3:0:0:0:
72,158,114565,1,0,3:0:0:0:
60,193,114684,6,0,P|75:251|120:287,1,90,2|2,3:2|3:2,3:0:0:0:
31,193,115041,1,0,3:0:0:0:
14,159,115161,1,12,1:3:0:0:
188,254,115399,1,0,3:0:0:0:
210,275,115518,1,0,3:0:0:0:
233,287,115638,2,0,P|214:353|186:391,1,90,10|2,3:3|3:2,3:0:0:0:
256,263,115995,1,0,3:0:0:0:
280,244,116115,1,0,1:0:0:0:
358,382,116353,2,2,P|444:326|501:242,1,180,2|2,3:2|3:2,3:2:0:0:
512,191,117068,1,12,1:3:0:0:
440,204,117307,5,2,3:2:0:0:
406,202,117426,1,0,3:0:0:0:
384,215,117545,1,8,3:0:0:0:
363,206,117665,1,0,3:0:0:0:
347,213,117784,1,2,3:2:0:0:
325,225,117903,1,0,3:0:0:0:
292,216,118022,2,2,P|285:166|293:119,1,90,14|2,1:3|3:2,3:2:0:0:
269,227,118380,1,0,3:0:0:0:
242,246,118499,1,0,3:0:0:0:
185,182,118738,5,2,3:2:0:0:
181,164,118857,1,0,3:0:0:0:
192,139,118976,1,12,1:3:0:0:
204,115,119096,1,0,3:0:0:0:
203,96,119215,1,2,3:2:0:0:
179,81,119334,1,0,3:0:0:0:
179,62,119453,1,8,3:0:0:0:
150,58,119572,1,0,3:0:0:0:
149,44,119692,1,0,3:0:0:0:
123,33,119811,1,0,3:0:0:0:
101,1,119930,1,12,1:3:0:0:
12,174,120169,6,2,B|-20:294|33:374|52:403,1,215.999993408203,14|2,0:3|0:0,0:0:0:0:
102,312,120884,1,0,1:0:0:0:
156,382,121123,1,0,3:0:0:0:
171,363,121242,1,0,3:0:0:0:
197,368,121361,1,8,3:0:0:0:
213,356,121480,1,0,3:0:0:0:
237,365,121599,1,0,3:0:0:0:
252,355,121719,1,0,3:0:0:0:
269,357,121838,1,12,1:3:0:0:
292,351,121957,2,0,P|327:345|352:354,1,53.9999983520508,0|0,3:0|3:0,3:0:0:0:
364,360,122196,1,0,3:0:0:0:
401,357,122315,6,2,P|435:288|427:229,1,107.999996704102
421,367,122673,1,0,0:0:0:0:
449,376,122792,1,12,1:3:0:0:
427,226,123030,1,0,0:0:0:0:
330,253,123269,2,2,P|311:163|321:127,1,107.999996704102,10|2,0:3|0:0,0:0:0:0:
319,275,123627,1,0,0:0:0:0:
293,287,123746,1,0,1:0:0:0:
258,102,123984,2,2,B|201:115|128:149|53:248,1,215.999993408203,14|2,0:3|0:0,0:0:0:0:
23,260,124700,1,12,1:3:0:0:
81,146,124938,1,0,3:2:0:0:
107,146,125057,1,0,3:2:0:0:
133,127,125177,2,2,P|146:57|125:-1,1,107.999996704102,10|2,3:3|3:2,3:2:0:0:
145,201,125654,1,12,1:3:0:0:
218,81,125892,1,0,0:0:0:0:
296,150,126130,5,0,3:0:0:0:
330,154,126250,1,0,3:0:0:0:
355,137,126369,2,2,P|379:76|385:38,1,90,2|2,3:2|1:2,3:2:0:0:
512,166,126846,1,0,3:2:0:0:
492,144,126965,1,0,3:2:0:0:
464,145,127084,2,2,P|440:205|439:249,1,90,10|2,3:3|3:2,3:2:0:0:
445,78,127561,1,12,1:3:0:0:
363,234,127800,2,2,B|260:269|200:275|152:270,1,180,14|2,0:3|0:0,0:0:0:0:
96,266,128515,1,12,1:3:0:0:
149,202,128754,5,2,3:2:0:0:
169,199,128873,1,0,3:0:0:0:
166,174,128992,1,8,3:0:0:0:
183,172,129111,1,0,3:0:0:0:
179,147,129231,1,2,3:2:0:0:
198,143,129350,1,0,3:0:0:0:
203,111,129469,2,0,P|219:80|235:69,1,45,12|0,1:3|3:0,0:0:0:0:
253,54,129708,1,0,3:0:0:0:
417,28,129946,6,2,B|407:74|350:188|283:183,1,180,2|2,0:2|1:2,0:2:0:0:
234,177,130661,1,0,3:0:0:0:
224,202,130781,1,0,3:0:0:0:
231,222,130900,1,8,3:0:0:0:
233,241,131019,1,0,3:0:0:0:
229,269,131138,1,0,3:0:0:0:
255,286,131258,1,0,3:0:0:0:
261,310,131377,1,12,1:3:0:0:
451,370,131615,6,2,B|492:282|497:215|467:117,1,215.999993408203,14|2,0:3|0:0,0:0:0:0:
434,74,132331,1,12,1:3:0:0:
396,133,132569,1,0,3:0:0:0:
402,151,132689,1,0,3:0:0:0:
378,160,132808,1,8,3:0:0:0:
355,178,132927,1,0,3:0:0:0:
357,197,133046,1,0,3:0:0:0:
335,203,133165,1,0,3:0:0:0:
312,219,133285,2,0,P|268:219|253:214,1,53.9999983520508,12|0,1:3|3:0,0:0:0:0:
226,197,133523,1,0,3:0:0:0:
192,203,133642,1,0,3:0:0:0:
156,179,133762,6,2,P|138:104|158:50,1,107.999996704102
140,207,134119,1,0,0:0:0:0:
107,220,134239,1,12,1:3:0:0:
26,177,134477,1,0,0:0:0:0:
154,285,134716,1,10,0:3:0:0:
176,302,134835,1,2,0:0:0:0:
200,302,134954,2,2,P|235:360|272:381,1,107.999996704102,2|14,0:2|1:3,0:2:0:0:
313,275,135431,2,2,B|331:349|456:393|517:384,1,215.999993408203,14|2,0:3|0:0,0:0:0:0:
512,293,136146,1,12,1:3:0:0:
426,243,136385,5,0,3:0:0:0:
415,264,136504,1,0,3:0:0:0:
394,251,136623,1,8,3:0:0:0:
380,269,136743,1,0,3:0:0:0:
352,261,136862,1,0,3:0:0:0:
341,280,136981,1,0,3:0:0:0:
309,261,137100,1,12,1:3:0:0:
305,281,137220,1,0,3:0:0:0:
286,269,137339,1,0,3:0:0:0:
257,283,137458,1,0,3:0:0:0:
212,263,137577,6,0,L|227:332,1,53.9999983520508,2|0,3:0|0:0,0:0:0:0:
240,381,137816,1,0,3:0:0:0:
98,222,138054,2,0,L|118:291,1,53.9999983520508,2|0,3:0|0:0,0:0:0:0:
131,341,138293,1,0,3:0:0:0:
6,231,138531,1,2,0:0:0:0:
31,324,138770,1,2,0:0:0:0:
67,78,139008,1,12,1:3:0:0:
67,78,139485,5,0,3:0:0:0:
67,78,139723,1,0,3:0:0:0:
87,64,139843,1,0,3:0:0:0:
112,60,139962,1,12,1:3:0:0:
139,62,140081,1,0,3:0:0:0:
150,46,140200,1,0,3:0:0:0:
176,35,140320,1,0,3:0:0:0:
212,68,140439,2,0,L|212:9,1,45,8|0,3:0|3:0,3:0:0:0:
247,78,140677,1,0,3:0:0:0:
273,73,140797,1,0,3:0:0:0:
305,84,140916,2,0,P|362:109|418:103,1,90,12|0,1:3|0:0,0:0:0:0:
452,108,141274,1,0,3:0:0:0:
417,121,141393,1,0,3:0:0:0:
477,28,141631,1,0,3:0:0:0:
380,177,141870,1,0,1:0:0:0:
477,28,142108,6,0,L|458:87,1,45,2|2,3:0|3:0,3:0:0:0:
359,62,142347,2,0,L|373:120,1,45,10|2,3:0|3:0,3:0:0:0:
485,158,142585,2,0,L|471:210,1,45,2|2,3:0|3:0,3:0:0:0:
378,204,142824,2,0,L|393:260,1,45,2|2,1:3|0:0,0:0:0:0:
449,306,143062,1,0,3:2:0:0:
470,321,143181,1,2,3:2:0:0:
494,323,143301,1,2,3:2:0:0:
388,245,143539,1,0,3:3:0:0:
347,357,143778,5,12,1:3:0:0:
328,346,143897,1,0,3:0:0:0:
305,365,144016,1,0,3:0:0:0:
286,357,144135,1,0,3:0:0:0:
263,374,144254,1,8,3:0:0:0:
240,364,144374,1,0,3:0:0:0:
214,382,144493,1,0,3:0:0:0:
194,364,144612,1,0,3:0:0:0:
150,371,144731,2,0,P|130:302|132:243,1,90,12|0,1:3|3:0,0:0:0:0:
109,347,145089,1,0,3:0:0:0:
78,361,145208,1,0,3:0:0:0:
151,235,145447,1,0,3:0:0:0:
24,370,145685,1,12,1:3:0:0:
31,262,145924,6,0,L|19:210,1,45,2|2,3:0|3:0,3:0:0:0:
137,218,146162,2,0,L|144:162,1,45,10|2,3:3|3:0,3:0:0:0:
36,121,146401,1,2,3:0:0:0:
25,135,146520,1,2,3:0:0:0:
13,145,146639,2,2,L|5:87,1,45,14|2,1:3|3:0,0:0:0:0:
101,59,146878,1,2,3:2:0:0:
119,47,146997,1,2,3:2:0:0:
126,20,147116,1,2,3:2:0:0:
180,113,147355,1,0,3:0:0:0:
204,129,147474,1,0,3:0:0:0:
233,135,147593,1,12,1:3:0:0:
281,15,147832,1,0,3:0:0:0:
306,136,148070,5,8,3:0:0:0:
322,152,148189,1,0,3:0:0:0:
343,129,148309,1,0,3:0:0:0:
360,127,148428,1,0,3:0:0:0:
381,149,148547,1,12,1:3:0:0:
400,150,148666,1,0,3:0:0:0:
423,127,148785,1,0,3:0:0:0:
441,117,148905,1,0,3:0:0:0:
484,106,149024,5,2,3:2:0:0:
447,216,149262,1,2,3:2:0:0:
411,319,149501,1,2,1:2:0:0:
219,372,149739,6,0,L|204:317,1,45,2|2,3:0|3:0,3:0:0:0:
313,304,149978,2,0,L|320:252,1,45,10|2,3:0|3:0,3:0:0:0:
204,209,150216,2,0,L|195:143,1,45,2|2,3:0|3:0,3:0:0:0:
312,173,150455,2,0,L|320:126,1,45,2|2,1:2|3:2,0:0:0:0:
256,56,150693,2,0,L|256:11,2,45,2|2|2,3:2|3:2|3:2,3:0:0:0:
335,111,151170,1,0,3:0:0:0:
321,137,151289,1,0,3:0:0:0:
300,152,151409,1,12,1:3:0:0:
336,39,151647,5,0,3:0:0:0:
212,144,151886,1,8,3:0:0:0:
205,170,152005,1,0,3:0:0:0:
182,180,152124,1,0,3:0:0:0:
155,195,152243,1,0,3:0:0:0:
145,218,152363,1,12,1:3:0:0:
379,206,152601,6,4,B|521:212|527:108|485:48|397:48|281:155|370:351|179:395|85:363,1,647.99998022461,4|0,0:0|0:0,0:0:0:0:
112,369,154270,1,0,0:0:0:0:
202,209,154509,2,4,B|189:319|99:310|52:266|65:189|172:104|329:208|394:48|379:-35,1,539.999983520508
378,5,156655,1,4,1:0:0:0:
256,192,156774,12,0,162379,0:0:0:0:
