osu file format v14

[General]
AudioFilename: audio.mp3
AudioLeadIn: 0
PreviewTime: 54323
Countdown: 0
SampleSet: Normal
StackLeniency: 0.3
Mode: 0
LetterboxInBreaks: 0
WidescreenStoryboard: 0

[Editor]
Bookmarks: 22573,38573,44573,54573,57573,58573,61573,62573,65573,66573,68573,69573,70573,77573,77823,78573,81573,82573,83448,83573,85573,86573,94323,94573,110573,126073,126573,127323,127573,127698,128323,128948,129573,130573,132323,133573,134573,137573,138573,140323,141573,142323,142573,148823,149573,149823,150573,151448,151573,151698,152573,152698,153448,153573,154323,154448,154573,154823,155573,155698,156448,156573,156698,157573,158573,171573,172573,173573,173948,174073,174323,174573,174698,174823,175323,175573,175698,177573,178573,179073,179573,179698,180323,181573,182573,183573,183698,184323,184573,184823,184948,185573,186573,187573,187698,188323,188573,188823,188948,189573,190323,190573,197573,197823,198573,199448,199573,199698,200448,201448,201573,202323,202448,202573,202698,202823,202948,203448,203573,203698,204448,205573,206948
DistanceSpacing: 1.2
BeatDivisor: 4
GridSize: 4
TimelineZoom: 2

[Metadata]
Title:Hell For A Honeymoon
TitleUnicode:Hell For A Honeymoon
Artist:Caitlyn Scarlett
ArtistUnicode:Caitlyn Scarlett
Creator:Starz15
Version:Heaven
Source:
Tags:Red Tape Vol. 1
BeatmapID:1727246
BeatmapSetID:824293

[Difficulty]
HPDrainRate:3
CircleSize:4
OverallDifficulty:10
ApproachRate:9.3
SliderMultiplier:1.4
SliderTickRate:1

[Events]
//Background and Video events
0,0,"wallhaven-647952.jpg",0,0
//Break Periods
2,86772,93769
//Storyboard Layer 0 (Background)
//Storyboard Layer 1 (Fail)
//Storyboard Layer 2 (Pass)
//Storyboard Layer 3 (Foreground)
//Storyboard Sound Samples

[TimingPoints]
6573,500,4,1,0,40,1,0
54573,250,4,1,0,55,1,0
54573,-50,4,1,0,55,0,0
55698,-66.6666666666667,4,1,0,55,0,0
57573,500,4,1,0,55,1,0
57573,-200,4,1,0,55,0,0
58573,250,4,1,0,55,1,0
58573,-66.6666666666667,4,1,0,55,0,0
59698,-100,4,1,0,55,0,0
60948,-66.6666666666667,4,1,0,55,0,0
61573,500,4,1,0,55,1,0
61573,-200,4,1,0,55,0,0
62573,250,4,1,0,55,1,0
62573,-66.6666666666667,4,1,0,55,0,0
63698,-100,4,1,0,55,0,0
64948,-66.6666666666667,4,1,0,55,0,0
65573,500,4,1,0,55,1,0
65573,-200,4,1,0,55,0,0
66573,250,4,1,0,55,1,0
66573,-66.6666666666667,4,1,0,55,0,0
67698,-100,4,1,0,55,0,0
68948,-66.6666666666667,4,1,0,55,0,0
69573,500,4,1,0,55,1,0
69573,-200,4,1,0,55,0,0
70573,250,4,1,0,55,1,0
70573,-66.6666666666667,4,1,0,55,0,1
76948,-76.9230769230769,4,1,0,55,0,1
77573,-66.6666666666667,4,1,0,55,0,1
78573,-66.6666666666667,4,1,0,55,0,0
79573,-100,4,1,0,55,0,0
81573,500,4,1,0,55,1,0
81573,-200,4,1,0,55,0,0
82010,-200,4,1,0,5,0,0
82135,-200,4,1,0,55,0,0
82573,250,4,1,0,55,1,0
82573,-66.6666666666667,4,1,0,55,0,0
83698,-100,4,1,0,55,0,0
84823,-66.6666666666667,4,1,0,55,0,0
85573,500,4,1,0,55,1,0
85573,-200,4,1,0,55,0,0
94323,-100,4,1,0,40,0,0
110573,-100,4,1,0,45,0,0
126573,250,4,1,0,55,1,0
126573,-50,4,1,0,55,0,0
127698,-66.6666666666667,4,1,0,55,0,0
129573,500,4,1,0,55,1,0
129573,-200,4,1,0,55,0,0
130573,250,4,1,0,55,1,0
130573,-66.6666666666667,4,1,0,55,0,0
131698,-100,4,1,0,55,0,0
132948,-66.6666666666667,4,1,0,55,0,0
133573,500,4,1,0,55,1,0
133573,-200,4,1,0,55,0,0
134573,250,4,1,0,55,1,0
134573,-66.6666666666667,4,1,0,55,0,0
135698,-100,4,1,0,55,0,0
136948,-66.6666666666667,4,1,0,55,0,0
137573,500,4,1,0,55,1,0
137573,-200,4,1,0,55,0,0
138573,250,4,1,0,55,1,0
138573,-66.6666666666667,4,1,0,55,0,0
139698,-100,4,1,0,55,0,0
140948,-66.6666666666667,4,1,0,55,0,0
141573,500,4,1,0,55,1,0
141573,-200,4,1,0,55,0,0
142573,250,4,1,0,55,1,0
142573,-66.6666666666667,4,1,0,55,0,1
150573,-66.6666666666667,4,1,0,55,0,0
151698,-100,4,1,0,55,0,0
153573,500,4,1,0,55,1,0
153573,-200,4,1,0,55,0,0
153948,-200,4,1,0,5,0,0
154198,-200,4,1,0,55,0,0
154573,250,4,1,0,55,1,0
154573,-66.6666666666667,4,1,0,55,0,0
155698,-100,4,1,0,55,0,0
156573,-66.6666666666667,4,1,0,55,0,0
157573,500,4,1,0,55,1,0
157573,-200,4,1,0,55,0,0
158573,-133.333333333333,4,2,0,40,0,0
173573,250,4,1,0,45,1,0
173573,-100,4,1,0,45,0,0
174573,-66.6666666666667,4,1,0,55,0,0
175698,-80,4,1,0,55,0,0
176948,-66.6666666666667,4,1,0,55,0,0
177573,500,4,1,0,55,1,0
177573,-200,4,1,0,55,0,0
178573,250,4,1,0,55,1,0
178573,-66.6666666666667,4,1,0,55,0,0
179698,-100,4,1,0,55,0,0
180948,-66.6666666666667,4,1,0,55,0,0
181573,500,4,1,0,55,1,0
181573,-200,4,1,0,55,0,0
182573,250,4,1,0,55,1,0
182573,-66.6666666666667,4,1,0,55,0,0
183698,-100,4,1,0,55,0,0
184948,-66.6666666666667,4,1,0,55,0,0
185573,500,4,1,0,55,1,0
185573,-200,4,1,0,55,0,0
186573,250,4,1,0,55,1,0
186573,-66.6666666666667,4,1,0,55,0,0
187698,-100,4,1,0,55,0,0
188948,-66.6666666666667,4,1,0,55,0,0
189573,500,4,1,0,55,1,0
189573,-200,4,1,0,55,0,0
190573,250,4,1,0,55,1,0
190573,-66.6666666666667,4,1,0,55,0,1
198573,-66.6666666666667,4,1,0,55,0,0
199698,-100,4,1,0,55,0,0
201573,500,4,1,0,55,1,0
201573,-200,4,1,0,55,0,0
202010,-200,4,1,0,5,0,0
202135,-200,4,1,0,55,0,0
202323,250,4,1,0,55,1,0
202323,-66.6666666666667,4,1,0,55,0,0
203573,-100,4,1,0,55,0,0
204573,-66.6666666666667,4,1,0,55,0,0
205573,2000,4,1,0,45,1,0
205573,-200,4,1,0,45,0,0
206885,-1000,4,1,0,5,0,0

[Colours]
Combo1 : 48,157,222
Combo2 : 21,234,213
Combo3 : 21,232,255
Combo4 : 30,103,225

[HitObjects]
104,319,6573,6,0,B|115:180|115:180|173:252|262:196,1,280
240,207,8323,1,0,0:0:0:0:
283,114,9073,1,0,0:0:0:0:
352,306,9573,1,0,0:0:0:0:
352,306,10573,5,0,0:0:0:0:
323,331,10698,2,0,B|351:271|323:211|323:211|291:143|323:75,1,245
315,93,12573,1,0,0:0:0:0:
315,127,12698,2,0,P|271:169|259:55,1,245
247,56,14573,6,0,P|243:197|225:343,1,280
226,334,16323,1,0,0:0:0:0:
142,266,17073,1,0,0:0:0:0:
351,226,17573,1,0,0:0:0:0:
351,226,18573,5,0,0:0:0:0:
372,262,18698,2,0,B|403:332|403:332|437:163,1,245
442,64,20573,1,0,0:0:0:0:
407,88,20698,2,0,B|347:116|287:88|287:88|219:56|151:88,1,245
71,173,22323,1,0,0:0:0:0:
112,277,22573,1,0,0:0:0:0:
182,190,22823,6,0,L|272:200,2,70
273,275,23573,2,0,P|321:239|250:120,1,210
270,121,24885,2,0,L|261:69,1,52.5
261,69,25323,2,0,L|249:140,1,70
209,203,25823,2,0,P|141:221|117:216,2,70
299,231,26573,5,0,0:0:0:0:
299,231,26698,1,0,0:0:0:0:
354,301,26823,2,0,L|354:214,1,70
399,169,27323,1,0,0:0:0:0:
260,84,27573,2,0,P|342:102|408:54,1,140
322,16,28323,1,0,0:0:0:0:
198,152,28573,5,0,0:0:0:0:
198,152,28698,1,0,0:0:0:0:
154,221,28823,2,0,L|57:220,2,70
186,324,29573,2,0,P|176:249|249:304,1,210
328,316,30573,6,0,P|327:247|133:177,1,280
72,222,31823,1,0,0:0:0:0:
209,273,32073,1,0,0:0:0:0:
154,80,32323,1,0,0:0:0:0:
154,80,32698,6,0,P|211:78|278:65,1,105
258,70,33198,2,0,P|275:74|291:80,1,35
291,80,33448,2,0,P|308:75|324:69,1,35
391,28,33739,2,0,P|400:77|403:142,1,105
400,170,34281,1,0,0:0:0:0:
359,331,34573,5,0,0:0:0:0:
391,304,34698,2,0,B|425:264|425:264|361:269|312:249|312:249|263:264|220:263,1,245
152,318,35823,1,0,0:0:0:0:
95,239,36073,2,0,L|89:163,1,70
82,82,36573,5,0,0:0:0:0:
82,82,36698,1,0,0:0:0:0:
154,128,37573,6,0,P|230:149|250:146,1,70
349,58,38073,2,0,P|292:113|285:132,1,70
312,261,38573,1,0,0:0:0:0:
312,261,39073,5,0,0:0:0:0:
428,304,39198,1,0,0:0:0:0:
391,224,39323,1,0,0:0:0:0:
349,341,39448,1,0,0:0:0:0:
312,261,39573,1,0,0:0:0:0:
312,261,40073,5,0,0:0:0:0:
233,298,40198,1,0,0:0:0:0:
275,181,40323,1,0,0:0:0:0:
312,261,40448,1,0,0:0:0:0:
196,218,40573,6,0,L|172:161,1,35
137,119,41073,2,0,L|183:78,1,35
212,32,41573,2,0,L|265:63,1,35
317,76,42073,2,0,L|295:175,1,70
261,295,42573,5,0,0:0:0:0:
251,246,42739,1,0,0:0:0:0:
296,262,42906,1,0,0:0:0:0:
188,284,43073,5,0,0:0:0:0:
294,184,43239,1,0,0:0:0:0:
325,333,43406,1,0,0:0:0:0:
195,180,43573,5,0,0:0:0:0:
375,245,43739,1,0,0:0:0:0:
235,376,43906,1,0,0:0:0:0:
316,102,44073,1,0,0:0:0:0:
316,102,44573,6,0,P|289:77|242:73,1,70
119,152,45073,1,0,0:0:0:0:
166,171,45198,1,0,0:0:0:0:
217,160,45323,1,0,0:0:0:0:
251,121,45448,1,0,0:0:0:0:
256,69,45573,1,0,0:0:0:0:
174,79,45823,1,0,0:0:0:0:
119,152,46073,5,0,0:0:0:0:
78,183,46198,1,0,0:0:0:0:
62,232,46323,1,0,0:0:0:0:
79,281,46448,1,0,0:0:0:0:
121,312,46573,1,0,0:0:0:0:
295,308,47073,5,0,0:0:0:0:
287,257,47198,1,0,0:0:0:0:
252,219,47323,1,0,0:0:0:0:
202,209,47448,1,0,0:0:0:0:
154,230,47573,1,0,0:0:0:0:
295,308,48073,5,0,0:0:0:0:
342,328,48198,1,0,0:0:0:0:
392,317,48323,1,0,0:0:0:0:
426,278,48448,1,0,0:0:0:0:
432,226,48573,6,0,L|423:172,1,35
441,109,49073,2,0,L|386:100,1,35
332,64,49573,2,0,L|307:112,1,35
255,153,50073,2,0,L|376:272,1,140
404,339,50823,1,0,0:0:0:0:
466,250,51073,6,0,P|469:206|461:176,1,70
462,181,51448,2,0,P|459:137|467:107,1,70
465,112,51823,2,0,P|421:115|391:107,1,70
257,94,52323,1,0,0:0:0:0:
245,129,52448,1,0,0:0:0:0:
249,163,52573,6,0,P|291:170|331:153,1,70
379,256,53073,2,0,P|372:297|360:317,1,35
374,290,53323,2,0,P|289:259|160:300,1,210
60,306,54323,5,0,0:0:0:0:
149,205,54448,1,0,0:0:0:0:
60,104,54573,2,0,P|139:101|194:72,1,140,4|0,0:0|0:0,0:0:0:0:
252,139,54823,2,0,P|358:109|256:335,1,560
89,204,55573,5,0,0:0:0:0:
452,288,55698,2,0,B|323:257|323:257|306:188|306:188|220:296|220:296|202:230|202:230|89:204,1,525.000020027161
93,38,56573,2,0,P|159:39|227:158,1,210.000008010865
135,319,56948,2,0,P|155:213|419:221,1,420.000016021729
298,295,57573,6,0,P|278:298|306:280,1,105
383,358,58573,6,0,L|398:234,1,105.000004005432
478,217,58823,2,0,L|433:100,1,105.000004005432
251,58,59073,2,0,P|347:186|191:147,1,420.000016021729
276,139,59698,6,0,B|202:360|202:360|115:272,1,350
14,99,60573,2,0,P|80:117|162:62,1,140
337,80,60948,6,0,P|232:48|150:311,1,420.000016021729
241,175,61573,6,0,P|266:192|229:183,1,105
192,75,62573,6,0,P|284:96|318:93,1,105.000004005432
320,309,62823,2,0,P|228:288|194:291,1,105.000004005432
25,196,63073,2,0,P|72:154|390:236,1,420.000016021729
416,342,63698,6,0,B|381:222|381:222|416:142|416:142|377:3,1,350
159,296,64573,2,0,P|221:266|263:210,1,140
241,23,64948,6,0,P|264:213|456:208,1,420.000016021729
357,87,65573,6,0,P|343:123|373:99,1,105
298,26,66448,1,0,0:0:0:0:
232,82,66573,6,0,P|153:91|120:80,1,105.000004005432
19,197,66823,2,0,P|98:188|131:199,1,105.000004005432
202,325,67073,2,0,B|237:249|194:165|194:165|270:221|344:184|344:184|284:274|308:315,1,420.000016021729
107,362,67698,6,0,B|48:258|90:175|108:221|156:126|95:29,1,350
203,103,68573,2,0,P|269:90|334:127,1,140
484,240,68948,6,0,P|338:120|219:267,1,420.000016021729
367,262,69573,6,0,P|363:226|352:266,1,105
241,320,70573,6,0,L|123:325,1,105.000004005432
30,233,70823,1,0,0:0:0:0:
117,151,70948,2,0,L|262:146,2,105.000004005432
228,67,71323,2,0,P|292:107|288:175,1,105.000004005432
326,339,71573,6,0,B|297:123,1,210.000008010865
471,154,71948,2,0,P|432:191|366:191,1,105.000004005432
396,106,72198,1,0,0:0:0:0:
303,237,72323,2,0,P|290:184|323:127,1,105.000004005432
151,77,72573,6,0,L|284:83,1,105.000004005432
129,177,72823,2,0,L|0:183,1,105.000004005432
55,302,73073,1,0,0:0:0:0:
195,350,73198,2,0,L|180:214,1,105.000004005432
246,157,73448,1,0,0:0:0:0:
327,288,73573,6,0,P|426:275|453:152,1,210.000008010865
327,100,73948,2,0,P|346:166|408:194,1,105.000004005432
463,182,74198,1,0,0:0:0:0:
512,108,74323,2,0,P|445:91|390:131,1,105.000004005432
145,72,74573,6,0,P|235:130|353:64,1,210.000008010865
246,19,74948,1,0,0:0:0:0:
304,289,75073,2,0,L|340:175,1,105.000004005432
176,188,75323,2,0,L|207:288,1,105.000004005432
42,212,75573,6,0,B|57:93|57:93|159:68,1,210.000008010865
176,188,75948,1,0,0:0:0:0:
122,278,76073,2,0,P|59:319|13:318,1,105.000004005432
280,191,76323,2,0,P|347:225|369:265,1,105.000004005432
247,350,76573,6,0,B|223:303|247:254|247:254|271:198|247:142,1,210.000008010865
110,57,76948,2,0,P|152:95|198:101,1,90.9999958343508
188,15,77198,1,0,0:0:0:0:
140,167,77323,2,0,P|86:184|57:221,1,90.9999958343508
162,384,77573,6,0,B|137:244|137:244|162:271|200:285,1,210.000008010865
271,314,77948,1,0,0:0:0:0:
359,362,78073,1,0,0:0:0:0:
447,315,78198,1,0,0:0:0:0:
455,215,78323,1,0,0:0:0:0:
375,154,78448,1,0,0:0:0:0:
281,188,78573,6,0,P|220:206|166:191,1,105.000004005432
0,32,78823,2,0,B|129:63|129:63|146:132|146:132|232:24|232:24|250:90|250:90|363:116,1,525.000020027161
341,284,79573,1,0,0:0:0:0:
417,334,79698,2,0,P|432:269|280:351,1,420
94,321,80573,1,0,0:0:0:0:
55,114,80698,6,0,B|92:237|92:237|133:74|133:74|214:109|182:54|271:88,1,420
350,140,81573,6,0,P|361:161|336:145,1,70
441,78,82323,1,0,0:0:0:0:
447,182,82448,1,0,0:0:0:0:
454,287,82573,2,0,P|403:299|334:291,1,105.000004005432
281,238,82823,2,0,P|230:226|177:229,1,105.000004005432
90,301,83073,2,0,B|28:184|88:88|88:88|136:115|139:185,1,315.000012016297
281,238,83573,1,0,0:0:0:0:
204,296,83698,6,0,P|262:332|233:156,1,420
143,88,84573,1,0,0:0:0:0:
289,64,84698,1,0,0:0:0:0:
92,158,84823,2,0,P|54:98|63:48,2,105.000004005432
134,242,85198,2,0,P|101:304|53:322,1,105.000004005432
186,164,85448,1,0,0:0:0:0:
322,168,85573,6,0,B|290:184|254:168|254:168|218:152|170:168,1,140
310,92,94323,5,0,0:0:0:0:
292,188,94573,1,0,0:0:0:0:
274,284,94823,2,0,P|221:266|185:267,1,70
165,268,95198,1,0,0:0:0:0:
39,159,95573,6,0,P|110:188|184:75,1,210
101,98,96573,1,0,0:0:0:0:
162,21,96823,2,0,P|214:24|245:37,2,70
275,112,97573,2,0,P|299:87|317:57,1,70
317,56,98073,5,0,0:0:0:0:
181,108,98323,1,0,0:0:0:0:
181,108,98573,2,0,P|189:141|207:171,1,70
247,244,99073,1,0,0:0:0:0:
247,244,99198,1,0,0:0:0:0:
473,159,99573,6,0,P|402:188|328:75,1,210
411,98,100573,1,0,0:0:0:0:
472,268,100823,1,0,0:0:0:0:
294,235,101073,2,0,L|230:220,1,35
163,234,101573,6,0,P|167:178|256:235,1,210
79,192,102573,2,0,P|109:127|182:86,1,140
205,84,103198,2,0,P|277:99|311:128,1,105
378,209,103823,6,0,L|381:165,1,35
382,132,104073,1,0,0:0:0:0:
384,48,104323,1,0,0:0:0:0:
375,292,104573,2,0,B|331:310|281:292|315:284|269:264|216:287,1,140
200,295,105198,1,0,0:0:0:0:
180,117,105573,6,0,P|185:165|50:191,1,210
112,48,106573,2,0,B|177:27|177:27|257:57,1,140
259,86,107198,2,0,L|265:213,1,105
326,283,107823,5,0,0:0:0:0:
341,185,108073,2,0,L|306:186,1,35
263,190,108323,1,0,0:0:0:0:
413,238,108573,2,0,P|430:185|374:101,1,140
363,83,109198,2,0,P|300:91|238:84,1,105
154,136,109823,2,0,P|99:123|75:126,2,70
169,301,110573,5,0,0:0:0:0:
169,301,111073,5,0,0:0:0:0:
140,222,111198,1,0,0:0:0:0:
247,272,111323,1,0,0:0:0:0:
169,301,111448,1,0,0:0:0:0:
219,193,111573,1,0,0:0:0:0:
219,193,112073,5,0,0:0:0:0:
190,114,112198,1,0,0:0:0:0:
269,85,112323,1,0,0:0:0:0:
219,193,112448,1,0,0:0:0:0:
297,164,112573,6,0,L|359:186,1,35
303,257,113073,2,0,L|301:322,1,35
216,291,113573,2,0,L|152:309,1,35
156,218,114073,2,0,L|106:146,1,70
204,103,114573,5,0,0:0:0:0:
245,131,114739,1,0,0:0:0:0:
201,151,114906,1,0,0:0:0:0:
168,36,115073,5,0,0:0:0:0:
324,142,115239,1,0,0:0:0:0:
156,218,115406,1,0,0:0:0:0:
271,36,115573,5,0,0:0:0:0:
259,218,115739,1,0,0:0:0:0:
103,112,115906,1,0,0:0:0:0:
402,155,116073,1,0,0:0:0:0:
402,155,116573,2,0,P|343:167|317:160,1,70
228,316,117073,1,0,0:0:0:0:
179,279,117198,1,0,0:0:0:0:
164,221,117323,1,0,0:0:0:0:
189,166,117448,1,0,0:0:0:0:
242,138,117573,1,0,0:0:0:0:
257,229,117823,5,0,0:0:0:0:
187,64,118073,1,0,0:0:0:0:
243,40,118198,1,0,0:0:0:0:
301,56,118323,1,0,0:0:0:0:
336,105,118448,1,0,0:0:0:0:
334,165,118573,1,0,0:0:0:0:
315,350,119073,5,0,0:0:0:0:
313,290,119198,1,0,0:0:0:0:
348,241,119323,1,0,0:0:0:0:
406,225,119448,1,0,0:0:0:0:
462,249,119573,1,0,0:0:0:0:
315,350,120073,5,0,0:0:0:0:
264,381,120198,1,0,0:0:0:0:
204,375,120323,1,0,0:0:0:0:
161,333,120448,1,0,0:0:0:0:
154,273,120573,6,0,L|172:231,1,35
142,156,121073,2,0,L|187:160,1,35
249,108,121573,2,0,L|259:152,1,35
296,211,122073,2,0,L|439:126,1,140
335,52,122823,5,0,0:0:0:0:
335,52,123073,2,0,P|293:66|262:63,1,70
241,62,123448,2,0,P|194:62|151:77,1,70
135,89,123823,2,0,P|143:148|137:180,1,70
88,343,124323,5,0,0:0:0:0:
83,304,124448,1,0,0:0:0:0:
78,267,124573,2,0,P|114:244|159:243,1,70
214,298,125073,2,0,L|249:298,1,35
350,336,125323,2,0,P|305:325|368:212,1,210
407,384,126198,5,0,0:0:0:0:
423,280,126323,1,0,0:0:0:0:
438,176,126448,1,0,0:0:0:0:
454,72,126573,2,0,B|393:57|393:57|308:75,1,140,4|0,0:0|0:0,0:0:0:0:
102,126,126823,6,0,B|19:205|19:205|161:193|161:193|180:221|194:190|194:190|339:181|339:181|203:93,1,560
123,333,127573,1,0,0:0:0:0:
497,334,127698,6,0,B|409:278|321:334|321:334|223:394|121:334|121:334|239:255,1,525.000020027161
32,196,128573,2,0,P|127:228|204:164,1,210.000008010865
327,23,128948,2,0,P|258:51|380:296,1,420.000016021729
352,153,129573,6,0,P|322:178|332:140,1,105
441,188,130573,6,0,L|427:293,1,105.000004005432
241,113,130823,2,0,L|255:8,1,105.000004005432
31,273,131073,6,0,B|130:226|218:268|218:268|228:264|228:264|229:274|229:274|320:328|430:290,1,420.000016021729
381,71,131698,6,0,P|414:141|270:92,1,350
72,47,132573,2,0,P|124:75|150:160,1,140
56,311,132948,6,0,P|84:192|327:278,1,420.000016021729
177,258,133573,6,0,P|194:292|195:253,1,105
85,279,134573,6,0,P|76:341|86:388,1,105.000004005432
294,281,134823,2,0,P|303:219|293:172,1,105.000004005432
150,26,135073,6,0,P|169:187|50:78,1,420.000016021729
462,116,135698,6,0,B|377:160|297:112|297:112|209:64|129:112,1,350
0,317,136573,2,0,P|54:331|135:286,1,140
128,112,136948,6,0,P|91:187|328:275,1,420.000016021729
236,199,137573,6,0,P|230:220|229:189,1,105
299,159,138448,1,0,0:0:0:0:
378,113,138573,6,0,P|413:49|397:1,1,105.000004005432
299,250,138823,2,0,P|336:312|386:322,1,105.000004005432
220,114,139073,6,0,B|154:88|86:118|124:136|50:153|8:138|8:138|-30:187|-29:280|53:310|113:287,1,420.000016021729
329,330,139698,2,0,B|426:309|426:309|308:232|308:232|425:207,1,350
241,38,140573,2,0,P|263:105|230:182,1,140
95,280,140948,6,0,P|131:200|312:361,1,420.000016021729
203,271,141573,6,0,P|232:296|196:286,1,105
264,174,142573,6,0,P|333:157|393:191,1,105.000004005432
406,277,142823,1,0,0:0:0:0:
321,362,142948,2,0,L|316:244,2,105.000004005432
225,264,143323,2,0,P|175:212|175:143,1,105.000004005432
104,90,143573,6,0,B|155:110|227:92|184:78|258:63|313:85,1,210.000008010865
419,224,143948,2,0,L|403:120,1,105.000004005432
337,269,144198,1,0,0:0:0:0:
274,342,144323,2,0,P|338:364|394:346,1,105.000004005432
305,177,144573,6,0,P|253:221|241:278,1,105.000004005432
132,114,144823,2,0,P|162:155|168:207,1,105.000004005432
70,196,145073,1,0,0:0:0:0:
30,102,145198,2,0,P|50:54|92:23,1,105.000004005432
194,32,145448,1,0,0:0:0:0:
90,287,145573,6,0,P|26:277|-6:240,1,105.000004005432
70,196,145823,1,0,0:0:0:0:
167,226,145948,1,0,0:0:0:0:
172,328,146073,2,0,B|220:332|220:332|279:300,1,105.000004005432
334,113,146323,2,0,B|306:152|306:152|304:219,1,105.000004005432
440,361,146573,6,0,B|454:281|454:281|431:227|431:227|444:148,1,210.000008010865
423,29,146948,1,0,0:0:0:0:
334,113,147073,2,0,P|261:129|215:118,1,105.000004005432
63,65,147323,2,0,P|136:49|182:60,1,105.000004005432
176,258,147573,6,0,B|130:351|130:351|76:258,1,210.000008010865
34,165,147948,1,0,0:0:0:0:
200,170,148073,2,0,P|251:215|258:276,1,105.000004005432
367,82,148323,2,0,P|320:103|269:94,1,105.000004005432
463,250,148573,6,0,B|416:274|367:250|367:250|311:226|255:250,1,210.000008010865
137,336,148948,2,0,P|188:344|235:323,1,105.000004005432
176,258,149198,1,0,0:0:0:0:
97,169,149323,2,0,L|89:277,1,105.000004005432
40,83,149573,6,0,B|127:81|127:81|160:112|160:112|272:110,1,210.000008010865
305,57,149948,1,0,0:0:0:0:
399,22,150073,1,0,0:0:0:0:
479,83,150198,1,0,0:0:0:0:
471,183,150323,1,0,0:0:0:0:
383,230,150448,1,0,0:0:0:0:
295,182,150573,2,0,P|240:169|161:183,1,105.000004005432
12,300,150823,6,0,B|106:263|175:331|175:331|247:268|247:268|373:376|497:282,1,525.000020027161
382,147,151573,1,0,0:0:0:0:
319,81,151698,6,0,P|371:241|458:98,1,420
397,24,152573,1,0,0:0:0:0:
248,260,152698,2,0,B|185:268|142:330|142:330|101:257|159:152|167:210|207:137|191:56,1,420
82,89,153573,6,0,P|106:86|84:94,1,70
0,180,154323,1,0,0:0:0:0:
105,173,154448,1,0,0:0:0:0:
209,167,154573,2,0,L|325:158,1,105.000004005432
463,297,154823,2,0,L|347:306,1,105.000004005432
73,253,155073,2,0,L|410:226,1,315.000012016297
511,219,155573,1,0,0:0:0:0:
283,125,155698,6,0,B|245:131|210:112|210:112|196:167|240:228|306:236|368:205|393:149|383:75|334:54|295:42,1,420,0|0,1:0|1:0,0:0:0:0:
100,131,156573,1,0,0:0:0:0:
124,277,156698,1,0,0:0:0:0:
30,80,156823,2,0,P|90:42|140:51,2,105.000004005432
102,364,157198,2,0,P|154:360|194:328,1,105.000004005432
210,240,157448,1,0,0:0:0:0:
346,244,157573,6,0,B|314:260|278:244|278:244|242:228|210:240,1,140
104,193,158823,1,0,0:0:0:0:
104,193,158948,2,0,L|121:104,1,78.7500030040742
135,32,159573,1,0,0:0:0:0:
255,60,159823,1,0,0:0:0:0:
375,88,160073,2,0,P|388:136|385:160,1,52.5000020027161
290,256,160573,2,0,P|325:220|347:211,1,52.5000020027161
478,246,160948,2,0,P|427:232|406:217,1,78.7500030040742
236,197,161573,6,0,P|210:255|318:330,1,210.000008010865
240,108,162823,1,0,0:0:0:0:
240,107,162948,2,0,P|276:119|303:148,1,78.7500030040742
299,257,163573,1,0,0:0:0:0:
228,190,163823,1,0,0:0:0:0:
157,123,164073,2,0,L|111:80,1,52.5000020027161
251,95,164573,2,0,L|311:76,1,52.5000020027161
228,190,164948,2,0,L|209:270,1,78.7500030040742
98,303,165573,6,0,B|154:279|226:304|188:317|252:333|309:308,1,210.000008010865
419,115,166823,1,0,0:0:0:0:
419,115,166948,2,0,L|421:202,1,78.7500030040742
396,296,167573,2,0,L|393:187,1,105.000004005432
272,74,168323,2,0,P|270:125|279:148,1,52.5000020027161
231,238,168823,2,0,P|276:214|291:194,1,52.5000020027161
393,191,169323,2,0,P|349:163|325:160,1,52.5000020027161
192,161,170073,6,0,L|148:165,3,26.2500010013581
134,165,170573,1,4,1:0:0:0:
130,169,171573,1,4,1:0:0:0:
126,173,172573,1,4,1:0:0:0:
122,177,173573,2,0,P|195:187|245:262,1,140
59,248,173948,1,0,0:0:0:0:
59,248,174073,2,0,P|37:215|35:161,1,70
152,268,174323,2,0,P|126:311|80:334,1,70
76,71,174573,6,0,P|136:59|189:67,1,105.000004005432
445,124,174823,2,0,B|338:171|235:114|235:114|144:66|40:109,1,420.000016021729
137,290,175573,1,0,0:0:0:0:
79,376,175698,2,0,P|114:191|225:343,1,437.5
373,354,176573,2,0,P|325:313|329:193,1,175
512,181,176948,6,0,P|435:226|264:12,1,420.000016021729
406,67,177573,6,0,P|378:91|413:78,1,105
393,195,178573,6,0,L|270:172,1,105.000004005432
244,84,178823,2,0,L|121:107,1,105.000004005432
0,178,179073,2,0,B|117:190|153:310|153:310|178:193|311:172,1,420.000016021729
491,324,179698,6,0,B|365:299|365:299|293:334|293:334|136:303,1,350
5,272,180573,2,0,P|93:246|121:190,1,140
32,32,180948,6,0,P|36:116|317:156,1,420.000016021729
196,59,181573,6,0,P|181:93|192:56,1,105
149,188,182573,2,0,L|36:171,1,105.000004005432
240,275,182823,2,0,L|137:291,1,105.000004005432
260,144,183073,6,0,B|291:132|325:141|325:141|357:176|415:184|464:172|475:116|439:74|393:81|376:119|391:163|407:198|425:219|425:219|413:253|430:299,1,420.000016021729,0|0,1:0|1:0,0:0:0:0:
182,383,183698,6,0,B|249:384|308:362|308:362|360:387|360:387|403:347|403:347|465:346|513:330,1,350
200,287,184573,2,0,P|140:293|91:366,1,140
344,164,184948,6,0,P|289:272|130:108,1,420.000016021729
243,162,185573,6,0,P|244:186|238:158,1,105
272,93,186448,1,0,0:0:0:0:
325,166,186573,2,0,P|400:176|439:160,1,105.000004005432
182,102,186823,2,0,P|135:161|130:203,1,105.000004005432
63,321,187073,2,0,B|170:260|320:297|243:326|368:365|476:320,1,420.000016021729
408,88,187698,6,0,B|355:6|355:6|380:267,1,350
283,172,188573,2,0,P|214:133|135:148,1,140
0,227,188948,6,0,P|115:211|-14:33,1,420.000016021729
26,122,189573,6,0,P|65:124|31:142,1,105
14,249,190573,6,0,P|73:249|135:216,1,105.000004005432
168,137,190823,1,0,0:0:0:0:
256,73,190948,2,0,B|309:61|309:61|381:76,2,105.000004005432
397,182,191323,2,0,B|430:144|430:144|447:93,1,105.000004005432
281,159,191573,6,0,B|268:250|268:250|282:284|282:284|267:380,1,210.000008010865
127,264,191948,2,0,P|188:253|240:277,1,105.000004005432
214,81,192198,2,0,P|193:139|146:172,1,105.000004005432
122,85,192448,1,0,0:0:0:0:
281,159,192573,6,0,L|403:168,1,105.000004005432
331,275,192823,2,0,L|209:266,1,105.000004005432
396,331,193073,1,0,0:0:0:0:
471,186,193198,2,0,P|453:115|421:89,1,105.000004005432
183,162,193448,1,0,0:0:0:0:
385,168,193573,6,0,B|334:198|271:174|299:158|235:134|175:166,1,210.000008010865
338,89,193948,1,0,0:0:0:0:
236,247,194073,2,0,L|230:361,1,105.000004005432
49,194,194323,2,0,L|137:251,1,105.000004005432
271,114,194573,6,0,P|204:65|91:124,1,210.000008010865
183,163,194948,1,0,0:0:0:0:
269,214,195073,2,0,P|231:251|181:262,1,105.000004005432
348,62,195323,2,0,L|357:173,1,105.000004005432
403,340,195573,6,0,L|382:100,1,210.000008010865
436,59,195948,1,0,0:0:0:0:
290,142,196073,2,0,P|253:68|263:17,1,105.000004005432
88,137,196323,2,0,P|139:132|187:152,1,105.000004005432
190,354,196573,6,0,B|219:295|188:230|188:262|156:198|187:151,1,210.000008010865
365,190,196948,2,0,P|313:228|258:225,1,105.000004005432
290,142,197198,1,0,0:0:0:0:
370,102,197323,2,0,P|428:128|453:177,1,105.000004005432
222,84,197573,6,0,B|85:32|85:32|136:120,1,210.000008010865
137,163,197948,1,0,0:0:0:0:
227,203,198073,1,0,0:0:0:0:
243,302,198198,1,0,0:0:0:0:
168,368,198323,1,0,0:0:0:0:
71,341,198448,1,0,0:0:0:0:
41,246,198573,6,0,L|159:265,1,105.000004005432
512,321,198823,2,0,B|381:299|381:299|359:231|359:231|281:345|281:345|258:280|258:280|144:262,1,525.000020027161
99,157,199573,5,0,0:0:0:0:
407,165,199698,6,0,B|471:113|425:24|365:8|266:65|319:151|319:151|283:136|248:145|271:153|239:163|181:147,1,420,0|0,1:0|1:0,0:0:0:0:
155,50,200573,1,0,0:0:0:0:
65,287,200698,6,0,B|54:204|99:157|99:157|102:215|132:273|132:273|190:248|240:271|207:279|253:295|309:271,1,420
431,325,201573,6,0,P|432:307|414:329,1,70
472,208,202323,1,0,0:0:0:0:
373,191,202448,1,0,0:0:0:0:
274,174,202573,6,0,L|148:148,1,105.000004005432
28,254,202823,2,0,L|154:228,1,105.000004005432
410,26,203073,6,0,P|301:8|286:183,1,315.000012016297
454,166,203573,1,0,0:0:0:0:
68,185,203698,6,0,B|165:272|307:184|211:184|355:88|454:166,1,420
337,279,204573,5,0,0:0:0:0:
410,26,204698,1,0,0:0:0:0:
378,352,204823,2,0,P|313:361|267:316,2,105.000004005432
394,201,205198,2,0,P|351:229|337:279,1,105.000004005432
421,280,205448,1,0,0:0:0:0:
469,122,205573,6,0,L|420:122,1,48.125
