osu file format v14

[General]
AudioFilename: audio.mp3
AudioLeadIn: 0
PreviewTime: 22844
Countdown: 0
SampleSet: None
StackLeniency: 0.4
Mode: 0
LetterboxInBreaks: 0
WidescreenStoryboard: 1

[Editor]
Bookmarks: 121,22844,34205,45566,65448,76809,91010,113732,136454,159176
DistanceSpacing: 1
BeatDivisor: 4
GridSize: 8
TimelineZoom: 2

[Metadata]
Title:Tek It (Sped Up Ver.)
TitleUnicode:Tek It (Sped Up Ver.)
Artist:Cafune
ArtistUnicode:Cafuné
Creator:Delta_
Version:Yahuri's Easy
Source:
Tags:i watch the moon english pop running speed up version alt alternative indie yahuri -Waterlemon supreme water hehe handsome Shiny Braixen ernua orange_
BeatmapID:3900886
BeatmapSetID:1848054

[Difficulty]
HPDrainRate:2
CircleSize:2.5
OverallDifficulty:3
ApproachRate:4
SliderMultiplier:0.899999999999999
SliderTickRate:1

[Events]
//Background and Video events
0,0,"mountain_range_by_bisbiswas_defsaga_auto_x2.jpg",0,0
//Break Periods
//Storyboard Layer 0 (Background)
//Storyboard Layer 1 (Fail)
//Storyboard Layer 2 (Pass)
//Storyboard Layer 3 (Foreground)
//Storyboard Layer 4 (Overlay)
//Storyboard Sound Samples

[TimingPoints]
123,355.029585798817,4,2,1,55,1,0
2785,-100,4,2,1,65,0,0
5803,-100,4,2,1,55,0,0
8466,-100,4,2,1,65,0,0
22844,-100,4,2,1,75,0,1
34117,-100,4,2,1,75,0,0
34205,-100,4,2,1,75,0,1
45566,-100,4,2,1,55,0,0
56927,-100,4,2,1,65,0,0
65448,-100,4,2,1,75,0,1
76720,-100,4,2,1,75,0,0
76809,-100,4,2,1,75,0,1
91010,-100,4,2,1,65,0,0
113732,-100,4,2,1,75,0,0

[Colours]
Combo1 : 68,204,249
Combo2 : 196,191,194
Combo3 : 202,202,255
Combo4 : 173,214,214
Combo5 : 255,140,85
Combo6 : 255,102,102
Combo7 : 128,128,255
Combo8 : 154,53,255

[HitObjects]
177,84,123,54,0,P|262:69|361:107,1,180,2|0,1:2|0:0,0:0:0:0:
430,206,1365,1,2,1:2:0:0:
106,365,2785,70,0,P|81:303|94:237,1,135,6|8,1:2|0:0,0:0:0:0:
161,176,3673,1,0,1:0:0:0:
251,184,4028,1,8,0:0:0:0:
329,139,4383,2,0,L|336:49,1,89.9999999999999,0|8,1:0|0:0,0:0:0:0:
426,40,5093,2,0,L|418:129,1,89.9999999999999,0|8,1:0|0:0,0:0:0:0:
457,210,5803,85,2,1:2:0:0:
180,359,7046,1,2,1:2:0:0:
20,46,8466,54,0,B|54:76|54:76|143:83,1,135,6|8,1:2|0:0,0:0:0:0:
229,53,9353,1,0,1:0:0:0:
319,61,9708,1,8,0:0:0:0:
396,107,10063,2,0,L|388:196,1,89.9999999999999,0|8,1:0|0:0,0:0:0:0:
474,222,10773,2,0,L|481:132,1,89.9999999999999,0|8,1:0|0:0,0:0:0:0:
463,43,11483,102,0,P|418:46|375:33,1,89.9999999999999,2|8,1:2|0:0,0:0:0:0:
289,61,12194,1,0,1:0:0:0:
210,17,12549,1,8,0:0:0:0:
127,53,12904,2,0,L|119:142,1,89.9999999999999,0|8,1:0|0:0,0:0:0:0:
65,215,13614,1,0,1:0:0:0:
105,295,13969,1,8,0:0:0:0:
191,271,14324,102,0,B|281:246|276:308|365:286,1,180,2|0,1:2|1:0,0:0:0:0:
419,213,15389,1,8,0:0:0:0:
468,137,15744,2,0,P|379:132|329:204,1,180,2|0,1:2|1:0,0:0:0:0:
366,286,16809,1,8,0:0:0:0:
320,363,17164,22,0,L|230:355,1,89.9999999999999,2|8,1:2|0:0,0:0:0:0:
143,377,17874,1,0,1:0:0:0:
64,332,18229,1,8,0:0:0:0:
27,249,18584,2,0,P|39:205|36:161,1,89.9999999999999,0|8,1:0|0:0,0:0:0:0:
21,72,19294,1,0,1:0:0:0:
95,22,19649,1,8,0:0:0:0:
174,64,20004,102,0,B|218:60|258:35|258:35|300:52|346:48,1,180,2|0,1:2|1:0,0:0:0:0:
430,16,21069,1,8,0:0:0:0:
505,65,21424,2,0,L|512:154,2,89.9999999999999,0|8|0,1:0|0:0|1:0,0:0:0:0:
430,16,22489,1,8,0:0:0:0:
363,76,22844,22,0,P|321:92|276:92,1,89.9999999999999,6|8,1:2|0:0,0:0:0:0:
195,51,23554,2,0,P|150:51|108:67,1,89.9999999999999,0|8,1:0|0:0,0:0:0:0:
78,100,24087,2,0,L|54:232,1,135,2|8,1:2|0:0,0:0:0:0:
38,321,24975,1,0,1:0:0:0:
127,296,25330,1,8,0:0:0:0:
127,296,25507,2,0,P|193:292|255:318,1,135,2|8,1:2|0:0,0:0:0:0:
331,367,26395,1,0,1:0:0:0:
443,292,26927,6,0,L|458:203,1,89.9999999999999,2|0,1:2|1:0,0:0:0:0:
447,114,27637,2,0,P|380:117|325:80,1,135,2|8,1:2|0:0,0:0:0:0:
253,25,28525,1,2,1:2:0:0:
164,44,28880,2,0,L|75:28,1,89.9999999999999,10|0,0:0|1:0,0:0:0:0:
0,140,29767,37,2,1:2:0:0:
16,227,30123,1,0,1:0:0:0:
89,279,30478,2,0,P|155:275|217:301,1,135,2|8,1:2|0:0,0:0:0:0:
289,355,31365,1,2,1:2:0:0:
376,339,31720,1,8,0:0:0:0:
427,265,32075,2,0,B|407:224|407:224|422:135,2,135,0|2|8,1:0|0:0|0:0,0:0:0:0:
376,339,33495,1,0,0:0:0:0:
289,355,33850,1,8,0:0:0:0:
217,301,34205,86,0,P|201:259|201:214,1,89.9999999999999,6|8,1:2|0:0,0:0:0:0:
222,127,34915,2,0,L|310:111,1,89.9999999999999,0|8,1:0|0:0,0:0:0:0:
334,72,35448,2,0,P|395:45|462:49,1,135,2|8,1:2|0:0,0:0:0:0:
512,125,36336,1,0,1:0:0:0:
492,216,36691,1,8,0:0:0:0:
492,216,36868,2,0,P|431:246|402:305,1,135,2|8,1:2|0:0,0:0:0:0:
337,366,37756,1,0,1:0:0:0:
250,350,38111,1,8,0:0:0:0:
216,266,38466,6,0,B|233:174|171:184|185:93,1,180,2|0,1:2|0:0,0:0:0:0:
217,8,39531,1,8,0:0:0:0:
129,22,39886,2,0,L|40:36,2,89.9999999999999,2|8|2,1:2|0:0|1:2,0:0:0:0:
208,130,41128,1,2,1:2:0:0:
192,217,41483,1,0,1:0:0:0:
238,294,41838,2,0,L|376:318,1,135,2|8,1:2|0:0,0:0:0:0:
440,377,42726,69,2,1:2:0:0:
511,322,43081,1,8,0:0:0:0:
443,263,43436,2,0,B|416:235|422:199|422:199|434:135,2,135,0|2|8,1:0|1:2|0:0,0:0:0:0:
370,317,44856,2,0,L|281:302,1,89.9999999999999,0|8,1:0|0:0,0:0:0:0:
194,325,45566,69,2,1:2:0:0:
141,252,45921,2,0,L|149:162,1,89.9999999999999,8|0,0:0|0:0,0:0:0:0:
114,79,46631,1,8,0:0:0:0:
274,0,47341,1,8,0:0:0:0:
349,49,47696,2,0,L|439:57,1,89.9999999999999,2|8,0:0|0:0,0:0:0:0:
512,107,48407,21,2,1:2:0:0:
461,181,48762,2,0,P|449:225|452:269,1,89.9999999999999,8|0,0:0|0:0,0:0:0:0:
485,352,49472,1,8,0:0:0:0:
316,289,50182,1,8,0:0:0:0:
233,325,50537,2,0,L|141:331,1,89.9999999999999,2|8,0:0|0:0,0:0:0:0:
58,299,51247,101,2,1:2:0:0:
95,217,51602,2,0,P|97:172|85:129,1,89.9999999999999,8|0,0:0|0:0,0:0:0:0:
39,51,52312,1,8,0:0:0:0:
210,105,53022,1,8,0:0:0:0:
284,155,53377,2,0,L|374:147,1,89.9999999999999,2|8,0:0|0:0,0:0:0:0:
447,198,54087,101,2,1:2:0:0:
382,260,54442,2,0,L|291:267,1,89.9999999999999,8|0,0:0|0:0,0:0:0:0:
230,333,55152,1,8,0:0:0:0:
56,283,55862,1,8,0:0:0:0:
86,198,56217,2,0,L|78:107,1,89.9999999999999,2|8,0:0|0:0,0:0:0:0:
103,22,56927,22,0,P|146:33|190:31,1,89.9999999999999,2|8,1:2|0:0,0:0:0:0:
277,57,57637,1,0,1:0:0:0:
367,49,57992,1,8,0:0:0:0:
449,12,58347,2,0,L|456:101,1,89.9999999999999,2|8,0:0|0:0,0:0:0:0:
491,184,59057,2,0,L|483:273,1,89.9999999999999,2|8,1:2|0:0,0:0:0:0:
452,358,59767,101,2,1:2:0:0:
368,326,60123,2,0,L|279:334,1,89.9999999999999,8|0,0:0|0:0,0:0:0:0:
196,298,60833,1,8,0:0:0:0:
107,316,61188,2,0,P|75:284|55:244,1,89.9999999999999,2|8,1:2|0:0,0:0:0:0:
69,155,61898,1,2,0:0:0:0:
31,73,62253,1,8,0:0:0:0:
96,11,62608,102,0,L|185:18,1,89.9999999999999,2|8,1:2|0:0,0:0:0:0:
265,59,63318,2,0,L|354:66,1,89.9999999999999,0|8,1:0|0:0,0:0:0:0:
434,108,64028,2,0,P|423:151|425:195,2,89.9999999999999,2|8|2,0:0|0:0|1:2,0:0:0:0:
432,18,65093,1,8,0:0:0:0:
354,65,65448,38,0,P|309:64|267:48,1,89.9999999999999,6|8,1:2|0:0,0:0:0:0:
183,16,66158,2,0,L|94:23,1,89.9999999999999,0|8,1:0|0:0,0:0:0:0:
68,60,66691,2,0,P|94:121|90:188,1,135,2|8,1:2|0:0,0:0:0:0:
58,272,67578,1,0,1:0:0:0:
132,333,67933,1,8,0:0:0:0:
132,333,68111,2,0,B|173:353|173:353|262:338,1,135,2|8,1:2|0:0,0:0:0:0:
347,363,68998,1,0,1:0:0:0:
403,240,69531,6,0,P|404:195|420:153,1,89.9999999999999,2|0,1:2|1:0,0:0:0:0:
463,73,70241,2,0,P|407:110|341:107,1,135,2|8,1:2|0:0,0:0:0:0:
258,71,71128,1,2,1:2:0:0:
191,132,71483,2,0,L|207:221,1,89.9999999999999,10|0,0:0|1:0,0:0:0:0:
296,321,72371,37,2,1:2:0:0:
383,305,72726,1,0,1:0:0:0:
464,343,73081,2,0,L|488:211,1,135,2|8,1:2|0:0,0:0:0:0:
441,132,73969,1,2,1:2:0:0:
354,116,74324,1,8,0:0:0:0:
296,47,74679,2,0,P|229:42|167:68,2,135,0|2|8,1:0|0:0|0:0,0:0:0:0:
354,116,76099,1,0,0:0:0:0:
370,203,76454,1,8,0:0:0:0:
322,279,76809,86,0,P|280:295|235:295,1,89.9999999999999,6|8,1:2|0:0,0:0:0:0:
166,237,77519,2,0,P|150:195|150:150,1,89.9999999999999,0|8,1:0|0:0,0:0:0:0:
178,115,78051,2,0,P|244:119|305:91,1,135,2|8,1:2|0:0,0:0:0:0:
381,42,78939,1,0,1:0:0:0:
471,71,79294,1,8,0:0:0:0:
471,71,79472,2,0,B|498:99|492:135|492:135|480:199,1,135,2|8,1:2|0:0,0:0:0:0:
428,273,80359,1,0,1:0:0:0:
341,257,80714,1,8,0:0:0:0:
268,310,81069,6,0,B|176:327|186:265|95:279,1,180,2|0,1:2|0:0,0:0:0:0:
7,299,82134,1,8,0:0:0:0:
34,213,82489,2,0,P|33:168|17:126,2,89.9999999999999,2|8|2,1:2|0:0|1:2,0:0:0:0:
115,320,83732,1,2,1:2:0:0:
202,336,84087,1,0,1:0:0:0:
279,290,84442,2,0,P|307:229|303:162,1,135,2|8,1:2|0:0,0:0:0:0:
253,87,85330,70,0,L|164:103,1,89.9999999999999,2|8,1:2|0:0,0:0:0:0:
92,157,86040,2,0,B|72:116|72:116|87:27,2,135,0|2|8,1:0|1:2|0:0,0:0:0:0:
175,192,87460,1,0,1:0:0:0:
191,279,87815,1,8,0:0:0:0:
270,321,88170,6,0,L|359:305,1,89.9999999999999,2|8,1:2|0:0,0:0:0:0:
431,251,88880,2,0,B|451:292|451:292|436:381,2,135,0|2|8,1:0|1:2|0:0,0:0:0:0:
374,180,90300,1,0,1:0:0:0:
390,93,90655,1,8,0:0:0:0:
322,34,91010,54,0,P|277:30|234:42,1,89.9999999999999,6|8,1:2|0:0,0:0:0:0:
185,118,91720,1,0,1:0:0:0:
272,221,92253,2,0,P|276:287|248:348,1,135,2|8,1:2|0:0,0:0:0:0:
160,326,93140,1,0,1:0:0:0:
72,335,93495,1,8,0:0:0:0:
0,281,93850,22,0,L|8:190,1,89.9999999999999,2|8,1:2|0:0,0:0:0:0:
49,111,94560,1,0,1:0:0:0:
167,175,95093,2,0,B|208:195|208:195|297:180,1,135,2|8,1:2|0:0,0:0:0:0:
371,130,95980,1,0,1:0:0:0:
459,139,96336,1,8,0:0:0:0:
512,212,96691,102,0,P|516:257|504:300,1,89.9999999999999,2|8,1:2|0:0,0:0:0:0:
442,365,97401,1,0,1:0:0:0:
312,325,97933,2,0,L|178:337,1,135,2|8,1:2|0:0,0:0:0:0:
100,291,98821,1,0,1:0:0:0:
91,203,99176,1,8,0:0:0:0:
148,133,99531,102,0,P|191:121|235:125,1,89.9999999999999,2|8,1:2|0:0,0:0:0:0:
318,159,100241,1,0,1:0:0:0:
403,54,100773,2,0,P|342:25|275:29,1,135,2|8,1:2|0:0,0:0:0:0:
199,77,101661,1,0,0:0:0:0:
111,68,102016,1,8,0:0:0:0:
39,122,102371,22,0,L|47:212,1,89.9999999999999,2|8,1:2|0:0,0:0:0:0:
23,298,103081,1,0,1:0:0:0:
141,363,103614,2,0,B|166:333|202:336|202:336|267:342,1,135,2|8,1:2|0:0,0:0:0:0:
354,318,104501,1,0,1:0:0:0:
442,327,104856,1,8,0:0:0:0:
511,269,105211,102,0,P|515:224|503:181,1,89.9999999999999,2|8,1:2|0:0,0:0:0:0:
441,116,105921,1,0,1:0:0:0:
316,167,106454,2,0,P|249:170|188:142,1,135,2|8,1:2|0:0,0:0:0:0:
129,74,107341,1,0,1:0:0:0:
41,83,107696,1,8,0:0:0:0:
0,163,108051,102,0,P|-4:208|8:251,1,89.9999999999999,2|8,1:2|0:0,0:0:0:0:
64,320,108762,1,0,1:0:0:0:
189,368,109294,2,0,B|230:348|230:348|319:363,1,135,2|8,1:2|0:0,0:0:0:0:
405,343,110182,1,0,1:0:0:0:
414,255,110537,1,8,0:0:0:0:
467,182,110892,22,0,L|475:91,1,89.9999999999999,2|8,1:2|0:0,0:0:0:0:
443,8,111601,1,0,1:0:0:0:
324,73,112134,2,0,L|311:206,1,135,2|8,1:2|0:0,0:0:0:0:
266,285,113022,1,8,0:0:0:0:
178,294,113377,1,8,0:0:0:0:
115,229,113732,6,0,L|123:138,1,89.9999999999999,6|8,1:2|0:0,0:0:0:0:
163,58,114442,2,0,B|202:81|202:81|292:74,2,135,0|2|8,0:0|1:2|0:0,0:0:0:0:
87,106,115862,1,0,0:0:0:0:
78,194,116217,1,8,0:0:0:0:
117,274,116572,6,0,P|162:270|205:282,1,89.9999999999999,2|8,1:2|0:0,0:0:0:0:
275,338,117282,2,0,B|251:298|251:298|258:208,2,135,0|2|8,0:0|0:0|0:0,0:0:0:0:
358,373,118702,1,0,0:0:0:0:
446,364,119057,1,8,0:0:0:0:
512,303,119412,38,0,P|516:258|504:215,1,89.9999999999999,2|8,1:2|0:0,0:0:0:0:
466,133,120123,2,0,L|479:0,2,135,0|2|8,0:0|0:0|0:0,0:0:0:0:
396,190,121543,1,0,0:0:0:0:
308,181,121898,1,8,0:0:0:0:
230,135,122253,86,0,P|185:131|142:143,1,89.9999999999999,2|8,1:2|0:0,0:0:0:0:
96,220,122963,2,0,L|109:353,2,135,0|2|8,0:0|1:2|0:0,0:0:0:0:
54,140,124383,1,0,0:0:0:0:
63,52,124738,1,8,0:0:0:0:
141,7,125093,6,0,P|185:2|228:14,1,89.9999999999999,6|8,1:2|0:0,0:0:0:0:
299,71,125803,2,0,L|306:160,1,89.9999999999999,0|8,0:0|0:0,0:0:0:0:
281,197,126336,2,0,P|276:264|302:326,1,135,2|8,1:2|0:0,0:0:0:0:
374,377,127223,1,0,0:0:0:0:
462,368,127578,1,8,0:0:0:0:
510,292,127933,70,0,P|514:247|502:204,2,89.9999999999999,2|8|0,1:2|0:0|0:0,0:0:0:0:
436,342,128998,1,8,0:0:0:0:
436,342,129176,2,0,B|396:318|396:318|306:325,1,135,2|8,0:0|0:0,0:0:0:0:
222,297,130063,1,0,1:0:0:0:
134,306,130418,1,8,0:0:0:0:
50,340,130773,6,0,P|38:296|42:252,1,89.9999999999999,2|8,1:2|0:0,0:0:0:0:
81,171,131483,2,0,L|74:82,1,89.9999999999999,0|8,0:0|0:0,0:0:0:0:
97,42,132016,2,0,B|122:72|158:69|158:69|223:63,1,135,2|8,0:0|0:0,0:0:0:0:
302,104,132904,1,0,0:0:0:0:
311,192,133259,1,8,0:0:0:0:
375,254,133614,38,0,P|420:250|463:262,2,89.9999999999999,2|8|0,1:2|0:0|0:0,0:0:0:0:
321,326,134679,1,8,0:0:0:0:
321,326,134856,2,0,P|254:315|191:335,1,135,2|8,1:2|0:0,0:0:0:0:
107,368,135744,2,0,L|100:279,1,89.9999999999999,0|0,1:0|1:0,0:0:0:0:
38,213,136454,1,4,1:2:0:0:
85,136,136809,86,0,P|89:91|77:48,2,89.9999999999999,10|2|8,0:0|1:2|0:0,0:0:0:0:
116,168,137696,2,0,P|179:147|245:158,1,135,2|8,1:2|0:0,0:0:0:0:
315,211,138584,1,0,1:0:0:0:
404,219,138939,1,8,0:0:0:0:
482,177,139294,1,0,1:0:0:0:
451,91,139649,6,0,L|458:2,2,89.9999999999999,10|2|8,0:0|1:2|0:0,0:0:0:0:
414,116,140537,2,0,B|380:135|376:171|376:171|371:236,1,135,2|8,1:2|0:0,0:0:0:0:
329,312,141424,1,0,1:0:0:0:
252,357,141779,1,8,0:0:0:0:
163,351,142134,1,0,1:0:0:0:
90,298,142489,70,0,P|45:294|2:306,2,89.9999999999999,10|2|8,0:0|1:2|0:0,0:0:0:0:
125,271,143377,2,0,B|149:231|149:231|142:141,1,135,2|8,1:2|0:0,0:0:0:0:
189,65,144265,1,0,1:0:0:0:
277,56,144620,1,8,0:0:0:0:
354,10,144975,6,0,P|398:5|441:17,1,89.9999999999999,2|8,1:2|0:0,0:0:0:0:
495,89,145685,2,0,P|483:132|487:176,1,89.9999999999999,0|8,1:0|0:0,0:0:0:0:
500,220,146217,2,0,P|433:217|378:254,1,135,2|8,1:2|0:0,0:0:0:0:
330,330,147105,1,10,1:2:0:0:
242,339,147460,1,8,1:2:0:0:
172,282,147815,38,0,P|160:238|164:194,1,89.9999999999999,6|8,1:2|0:0,0:0:0:0:
134,109,148525,2,0,P|67:119|4:99,2,135,0|0|8,1:0|1:0|0:0,0:0:0:0:
202,49,149945,1,0,1:0:0:0:
290,58,150300,1,8,0:0:0:0:
340,132,150655,86,0,L|333:221,1,89.9999999999999,2|8,1:2|0:0,0:0:0:0:
365,305,151365,2,0,P|431:294|494:314,2,135,0|0|8,1:0|1:0|0:0,0:0:0:0:
287,350,152785,1,0,1:0:0:0:
199,341,153140,1,8,0:0:0:0:
139,273,153495,6,0,P|95:261|51:265,1,89.9999999999999,2|8,1:2|0:0,0:0:0:0:
0,190,154205,2,0,L|12:56,2,135,0|0|8,1:0|1:0|0:0,0:0:0:0:
51,265,155625,1,0,1:0:0:0:
139,274,155980,1,8,0:0:0:0:
203,210,156336,70,0,P|247:205|290:217,1,89.9999999999999,2|8,1:2|0:0,0:0:0:0:
364,269,157046,2,0,B|404:245|404:245|492:251,2,135,0|0|8,1:0|1:0|0:0,0:0:0:0:
287,314,158466,1,0,1:0:0:0:
199,306,158821,1,8,0:0:0:0:
132,248,159176,1,12,1:2:0:0:
