osu file format v14

[General]
AudioFilename: audio.mp3
AudioLeadIn: 0
PreviewTime: 22844
Countdown: 0
SampleSet: Soft
StackLeniency: 0.4
Mode: 0
LetterboxInBreaks: 0
WidescreenStoryboard: 1

[Editor]
DistanceSpacing: 0.4
BeatDivisor: 4
GridSize: 32
TimelineZoom: 2

[Metadata]
Title:Tek It (Sped Up Ver.)
TitleUnicode:Tek It (Sped Up Ver.)
Artist:Cafune
ArtistUnicode:Cafuné
Creator:Delta_
Version:Shiny Braixen's Insane
Source:
Tags:i watch the moon english pop running speed up version alt alternative indie yahuri -Waterlemon supreme water hehe handsome Shiny Braixen ernua orange_
BeatmapID:3863332
BeatmapSetID:1848054

[Difficulty]
HPDrainRate:5
CircleSize:4
OverallDifficulty:8.4
ApproachRate:8.8
SliderMultiplier:1.6
SliderTickRate:1

[Events]
//Background and Video events
0,0,"mountain_range_by_bisbiswas_defsaga_auto_x2.jpg",0,0
//Break Periods
//Storyboard Layer 0 (Background)
//Storyboard Layer 1 (Fail)
//Storyboard Layer 2 (Pass)
//Storyboard Layer 3 (Foreground)
//Storyboard Layer 4 (Overlay)
//Storyboard Sound Samples

[TimingPoints]
123,355.029585798817,4,2,1,55,1,0
1365,-90.9090909090909,4,2,1,55,0,0
2785,-90.9090909090909,4,2,1,65,0,0
3229,-111.111111111111,4,2,1,65,0,0
5803,-125,4,2,1,55,0,0
7046,-90.9090909090909,4,2,1,55,0,0
8466,-90.9090909090909,4,2,1,65,0,0
8998,-111.111111111111,4,2,1,65,0,0
11483,-99.9999999999999,4,2,1,65,0,0
22844,-76.9230769230769,4,2,1,75,0,1
34117,-66.6666666666667,4,2,1,75,0,0
34205,-76.9230769230769,4,2,1,75,0,1
45566,-125,4,2,1,55,0,0
56927,-100,4,2,1,65,0,0
65448,-76.9230769230769,4,2,1,75,0,1
76720,-66.6666666666667,4,2,1,75,0,0
76809,-76.9230769230769,4,2,1,65,0,1
90833,-133.333333333333,4,2,1,65,0,1
91010,-100,4,2,1,65,0,0
113732,-71.4285714285714,4,2,1,75,0,0
124915,-55.5555555555556,4,2,1,75,0,0
125093,-66.6666666666667,4,2,1,75,0,1
136276,-55.5555555555556,4,2,1,75,0,0
136454,-66.6666666666667,4,2,1,75,0,1
147637,-50,4,2,1,75,0,0
147815,-76.9230769230769,4,2,1,75,0,0
159176,-100,4,2,1,75,0,0

[Colours]
Combo1 : 68,204,249
Combo2 : 196,191,194
Combo3 : 202,202,255
Combo4 : 173,214,214
Combo5 : 255,140,85
Combo6 : 255,102,102
Combo7 : 128,128,255
Combo8 : 154,53,255

[HitObjects]
501,15,123,54,0,P|497:22|496:71,1,40,2|0,1:2|0:0,0:0:0:0:
491,53,1365,2,0,B|477:97|350:155|356:7|437:67,1,176.000005371094,2|2,1:2|0:0,0:0:0:0:
412,54,2785,70,0,B|425:82|416:137|416:137|388:161|388:161|370:196|367:240,1,176.000005371094,6|0,1:2|0:0,0:0:0:0:
458,359,3318,2,0,L|374:349,1,71.9999978027344,8|0,0:0|0:0,0:0:0:0:
228,211,3673,1,0,1:0:0:0:
236,301,3850,2,0,P|215:272|213:236,1,71.9999978027344,0|8,1:0|0:0,0:0:0:0:
22,116,4205,22,0,B|60:174|60:174|104:186|138:217,1,143.999995605469
115,111,4738,2,0,L|99:31,1,71.9999978027344,8|0,0:0|0:0,0:0:0:0:
290,108,5093,1,0,1:0:0:0:
377,61,5270,2,0,P|330:71|296:111,1,71.9999978027344,0|8,1:0|0:0,0:0:0:0:
184,275,5625,1,0,0:0:0:0:
184,275,5714,1,0,0:0:0:0:
184,275,5803,54,0,L|135:284,1,32,2|0,1:2|0:0,0:0:0:0:
152,280,7046,2,0,B|101:250|101:250|96:227|96:227|42:210|42:210|84:251,1,176.000005371094,2|2,1:2|0:0,0:0:0:0:
69,235,8466,38,0,B|96:207|86:158|86:158|74:119|117:52,1,176.000005371094,6|0,1:2|0:0,0:0:0:0:
346,152,8998,2,0,B|320:123|320:123|319:67,1,71.9999978027344,8|0,0:0|0:0,0:0:0:0:
496,29,9353,1,0,1:0:0:0:
512,129,9531,2,0,P|476:104|431:116,1,71.9999978027344,0|8,1:0|0:0,0:0:0:0:
299,5,9886,102,0,B|250:40|250:40|236:83|236:83|195:115,1,143.999995605469
325,267,10418,2,0,L|416:250,1,71.9999978027344,8|0,0:0|0:0,0:0:0:0:
462,202,10773,1,0,1:0:0:0:
302,287,10951,2,0,L|393:303,1,71.9999978027344,0|10,1:0|0:2,0:0:0:0:
491,335,11306,1,2,0:2:0:0:
491,335,11395,1,0,0:0:0:0:
491,335,11483,22,0,B|435:327|435:327|220:364,1,240,6|2,1:2|0:0,0:0:0:0:
177,377,12194,1,0,1:0:0:0:
79,203,12371,1,2,1:2:0:0:
79,203,12726,2,0,B|122:191|153:221|153:221|145:262|166:309,1,160,2|2,0:0|0:0,0:0:0:0:
152,111,13259,2,0,P|133:59|105:41,1,80,8|2,0:0|0:0,0:0:0:0:
37,37,13614,1,0,1:0:0:0:
268,108,13791,1,2,1:2:0:0:
268,108,14146,102,0,B|329:116|329:116|362:166|362:166|418:193,2,160,2|0|0,0:0|0:0|0:0,0:0:0:0:
427,106,15034,2,0,B|481:88|481:88|502:66,2,80,0|2|8,1:0|1:2|0:0,0:0:0:0:
277,215,15566,2,0,B|290:255|290:255|337:291,1,80,2|0,0:0|1:0,0:0:0:0:
399,299,15921,1,0,0:0:0:0:
259,190,16099,2,0,B|248:230|248:230|267:286,1,80,8|0,0:0|0:0,0:0:0:0:
105,373,16454,2,0,B|98:320|98:320|57:271,2,80,0|0|8,1:0|1:0|0:0,0:0:0:0:
188,245,16986,1,2,0:0:0:0:
59,65,17164,102,0,B|44:116|44:116|85:323,1,240,2|2,1:2|0:0,0:0:0:0:
138,364,17874,1,0,1:0:0:0:
259,190,18051,1,2,1:2:0:0:
259,190,18407,2,0,B|247:141|219:113|219:113|172:115|127:147,1,160
334,155,18939,2,0,L|427:166,1,80,10|2,0:0|0:0,0:0:0:0:
482,113,19294,1,0,1:0:0:0:
390,301,19472,1,0,1:0:0:0:
397,308,19827,21,2,0:0:0:0:
397,308,19915,1,0,0:0:0:0:
397,308,20004,2,0,B|371:292|328:294|328:294|276:278|244:222,2,160,0|8|0,1:0|0:0|1:0,0:0:0:0:
346,218,20892,1,0,1:0:0:0:
234,346,21069,1,8,0:0:0:0:
159,273,21247,2,0,P|130:233|205:155,1,160,0|0,0:0|1:0,0:0:0:0:
52,73,21779,2,0,P|31:29|-2:24,1,80,8|0,0:0|0:0,0:0:0:0:
153,60,22134,101,0,1:0:0:0:
3,162,22312,1,0,1:0:0:0:
185,154,22489,1,8,0:0:0:0:
185,154,22578,1,8,0:0:0:0:
185,154,22667,1,0,1:0:0:0:
99,252,22844,22,0,B|112:183|112:183|150:134|150:134|147:72|147:72|164:30,1,207.999990478516,6|8,1:2|0:0,0:0:0:0:
348,111,23377,1,0,0:0:0:0:
348,111,23466,1,0,0:0:0:0:
348,111,23554,1,0,1:0:0:0:
448,20,23732,2,0,B|419:66|419:66|430:137,1,103.999995239258,0|8,1:0|0:0,0:0:0:0:
390,323,24087,6,0,B|429:246|413:189|413:189|363:179|343:112,2,207.999990478516,2|0|0,1:2|1:0|0:0,0:0:0:0:
309,218,24975,1,0,1:0:0:0:
237,345,25152,1,0,1:0:0:0:
168,295,25330,2,0,L|82:321,1,51.999997619629,10|0,0:0|0:0,0:0:0:0:
93,304,25507,1,2,1:2:0:0:
194,122,25685,38,0,B|94:144|94:144|-9:84,1,207.999990478516,4|8,1:2|0:0,0:0:0:0:
3,91,26395,1,0,1:0:0:0:
88,111,26572,1,0,1:0:0:0:
160,211,26750,1,8,0:0:0:0:
308,172,26927,86,0,P|357:145|416:171,1,103.999995239258,2|0,0:0|1:0,0:0:0:0:
260,279,27282,2,0,P|211:306|152:280,1,103.999995239258,2|8,1:2|0:0,0:0:0:0:
261,98,27637,2,0,L|290:-1,1,103.999995239258,2|0,1:2|0:0,0:0:0:0:
371,57,27904,1,0,0:0:0:0:
371,57,27992,2,0,L|400:156,1,103.999995239258,2|8,1:2|0:0,0:0:0:0:
440,268,28347,1,2,0:0:0:0:
308,172,28525,6,0,B|230:193|230:193|208:247|208:247|126:282,2,207.999990478516,4|10|0,1:2|0:0|1:0,0:0:0:0:
394,238,29412,1,0,1:0:0:0:
279,313,29590,1,8,0:0:0:0:
416,371,29767,70,0,L|537:346,1,103.999995239258,2|0,1:2|0:0,0:0:0:0:
495,259,30123,2,0,L|374:234,1,103.999995239258,2|8,1:2|0:0,0:0:0:0:
283,366,30478,6,0,B|250:301|250:301|146:249,1,155.999992858887,2|0,1:2|0:0,0:0:0:0:
175,263,30833,1,2,1:2:0:0:
11,197,31010,2,0,P|70:202|97:158,1,103.999995239258,10|2,0:0|1:2,0:0:0:0:
198,98,31365,2,0,P|158:130|115:307,2,207.999990478516,4|8|0,1:2|0:0|0:0,0:0:0:0:
294,26,32253,1,0,1:0:0:0:
340,143,32430,1,8,0:0:0:0:
409,78,32608,38,0,P|356:102|340:153,1,103.999995239258,2|0,0:0|1:0,0:0:0:0:
370,223,32963,1,0,1:0:0:0:
453,18,33140,86,0,P|486:65|473:117,1,103.999995239258,8|0,0:0|1:0,0:0:0:0:
417,154,33495,1,0,0:0:0:0:
255,124,33673,1,0,1:0:0:0:
348,311,33850,2,0,P|387:260|359:211,1,103.999995239258,8|0,0:0|0:0,0:0:0:0:
376,226,34117,1,0,0:0:0:0:
383,233,34205,6,0,B|343:187|274:210|274:210|300:260|268:314,1,207.999990478516,6|8,1:2|0:0,0:0:0:0:
126,338,34738,1,0,0:0:0:0:
126,338,34827,1,0,0:0:0:0:
126,338,34915,1,0,1:0:0:0:
148,213,35093,2,0,B|115:173|115:173|125:89,1,103.999995239258,0|8,1:0|0:0,0:0:0:0:
282,112,35448,70,0,B|251:100|217:111|217:111|185:42|185:42|143:32|102:-19,2,207.999990478516,2|0|0,1:2|1:0|0:0,0:0:0:0:
369,166,36336,1,0,1:0:0:0:
493,100,36513,1,0,1:0:0:0:
470,218,36691,2,0,L|459:294,1,51.999997619629,8|0,0:0|0:0,0:0:0:0:
463,305,36868,1,2,1:2:0:0:
369,166,37046,6,0,B|418:264|418:264|420:385,2,207.999990478516,4|8|0,1:2|0:0|1:0,0:0:0:0:
382,68,37933,1,0,1:0:0:0:
206,174,38111,2,0,P|144:192|115:157,1,103.999995239258,8|0,0:0|0:0,0:0:0:0:
65,46,38466,1,0,1:0:0:0:
65,46,38643,1,0,1:0:0:0:
15,195,38821,38,0,B|-1:261|-1:261|30:370,1,155.999992858887,8|0,0:0|0:0,0:0:0:0:
22,345,39176,1,0,0:0:0:0:
155,264,39353,1,0,1:0:0:0:
191,351,39531,2,0,L|316:332,1,103.999995239258,8|0,0:0|1:0,0:0:0:0:
326,318,39797,1,0,0:0:0:0:
326,318,39886,86,0,B|421:311|421:311|538:358,2,207.999990478516,6|10|2,1:2|0:0|1:2,0:0:0:0:
239,195,40773,1,0,1:0:0:0:
379,188,40951,2,0,L|452:178,1,51.999997619629,10|0,0:0|0:0,0:0:0:0:
431,180,41128,6,0,P|474:137|428:87,1,103.999995239258,2|0,1:2|0:0,0:0:0:0:
266,13,41483,2,0,P|281:72|347:57,1,103.999995239258,2|8,1:2|0:0,0:0:0:0:
416,11,41838,70,0,P|349:63|306:180,1,207.999990478516,2|2,0:0|1:2,0:0:0:0:
91,197,42371,2,0,P|127:237|106:291,1,103.999995239258,10|2,0:0|1:2,0:0:0:0:
122,288,42637,1,0,0:0:0:0:
121,287,42726,6,0,B|51:234|46:199|46:199|68:152|57:99,1,207.999990478516,4|8,1:2|0:0,0:0:0:0:
18,30,43259,1,0,0:0:0:0:
175,153,43436,1,0,1:0:0:0:
175,153,43525,1,0,0:0:0:0:
175,153,43614,2,0,B|216:195|216:195|296:202,1,103.999995239258,2|8,1:2|0:0,0:0:0:0:
488,246,43969,38,0,B|457:201|457:201|453:160|453:160|417:132|417:132|384:34,1,207.999990478516,6|0,0:0|1:0,0:0:0:0:
383,262,44501,2,0,B|319:293|319:293|297:336,1,103.999995239258,8|0,0:0|1:0,0:0:0:0:
412,360,44856,1,0,1:0:0:0:
257,253,45034,1,0,1:0:0:0:
202,353,45211,1,8,0:0:0:0:
202,353,45300,1,0,0:0:0:0:
202,353,45389,1,0,1:0:0:0:
134,286,45566,6,0,B|106:254|105:228|105:228|107:188|66:156,1,128,4|10,1:2|0:0,0:0:0:0:
83,171,46276,2,0,B|50:162|50:162|38:165|38:165|12:159,2,64,2|2|8,0:0|1:2|0:0,0:0:0:0:
222,142,46809,1,2,0:0:0:0:
222,142,47164,1,2,1:2:0:0:
296,173,47341,2,0,P|327:151|325:117,1,64,8|2,0:0|0:0,0:0:0:0:
353,0,47696,2,0,B|384:67|384:67|444:117,1,128,2|10,0:0|0:0,0:0:0:0:
505,280,48407,22,0,B|454:309|454:309|406:359|406:359|315:358,1,192,2|0,1:2|0:0,0:0:0:0:
265,305,49117,2,0,P|233:275|187:285,1,64,2|2,0:0|1:2,0:0:0:0:
145,320,49472,1,8,0:0:0:0:
145,320,50004,1,2,1:2:0:0:
48,246,50182,2,0,P|66:197|52:106,1,128,8|0,0:0|0:0,0:0:0:0:
90,54,50714,1,2,1:2:0:0:
90,54,50892,2,0,B|113:60|127:84|127:84|221:120,1,128,10|2,0:2|1:2,0:0:0:0:
456,62,51602,101,10,0:2:0:0:
456,62,51957,2,0,P|494:52|507:6,2,64,2|2|8,0:0|1:2|0:0,0:0:0:0:
388,29,52489,1,2,0:0:0:0:
388,29,52844,1,2,1:2:0:0:
308,83,53022,2,0,P|266:93|212:157,1,128,8|0,0:0|0:0,0:0:0:0:
263,234,53554,1,0,1:0:0:0:
263,234,53732,2,0,P|283:269|298:314,1,64,10|0,0:0|0:0,0:0:0:0:
306,384,54087,102,0,P|322:331|385:273,2,128,2|10|2,1:2|0:0|0:0,0:0:0:0:
225,326,54975,1,0,1:0:0:0:
225,326,55152,2,0,L|156:295,1,64,8|2,0:0|0:0,0:0:0:0:
17,219,55685,1,0,1:0:0:0:
88,177,55862,2,0,L|164:159,1,64,8|2,0:0|0:0,0:0:0:0:
172,157,56128,1,2,0:0:0:0:
172,157,56217,2,0,B|212:148|212:148|303:176,1,128,2|10,0:0|0:0,0:0:0:0:
360,222,56750,1,2,0:0:0:0:
490,127,56927,22,0,P|478:71|368:83,1,160,2|8,1:2|0:0,0:0:0:0:
387,59,57637,1,0,1:0:0:0:
360,222,57815,2,0,P|369:292|378:313,1,80,2|8,1:2|0:0,0:0:0:0:
271,366,58170,2,0,P|223:323|122:335,1,160,2|2,0:0|1:2,0:0:0:0:
46,368,58702,1,8,0:0:0:0:
46,368,59057,1,0,1:0:0:0:
14,204,59235,2,0,P|46:158|89:154,1,80,2|8,1:2|0:0,0:0:0:0:
55,57,59590,102,0,P|80:111|179:157,1,160,2|2,0:0|0:0,0:0:0:0:
231,58,60123,1,8,0:0:0:0:
231,58,60300,2,0,L|329:25,1,80,2|0,1:2|0:0,0:0:0:0:
458,62,60655,1,2,1:2:0:0:
458,62,61010,102,0,B|476:108|462:139|462:139|430:174|425:215,1,160,2|2,0:0|1:2,0:0:0:0:
472,291,61543,1,8,0:0:0:0:
357,370,61720,2,0,P|348:331|292:309,1,80,2|0,1:2|0:0,0:0:0:0:
238,317,62075,1,2,1:2:0:0:
150,189,62253,2,0,P|174:220|234:216,1,80,8|2,0:0|0:0,0:0:0:0:
299,185,62608,22,0,B|316:126|279:72|279:72|222:48,1,160,0|10,1:0|0:0,0:0:0:0:
242,56,63318,1,0,1:0:0:0:
95,133,63495,2,0,P|53:149|16:133,1,80,2|8,1:2|0:0,0:0:0:0:
150,189,63850,102,0,P|203:186|271:281,1,160,2|2,1:2|1:2,0:0:0:0:
435,365,64383,2,0,P|484:346|484:307,1,80,8|2,0:0|1:2,0:0:0:0:
453,251,64738,1,0,1:0:0:0:
488,142,64915,1,8,0:0:0:0:
391,301,65093,2,0,L|287:324,1,80,8|8,0:0|0:0,0:0:0:0:
241,222,65448,22,0,B|214:174|230:127|230:127|291:89|291:89|301:20,1,207.999990478516,6|8,1:2|0:0,0:0:0:0:
350,233,65980,1,0,0:0:0:0:
350,233,66069,1,0,0:0:0:0:
350,233,66158,1,0,1:0:0:0:
194,302,66336,2,0,P|132:284|122:236,1,103.999995239258,0|8,1:0|0:0,0:0:0:0:
140,67,66691,6,0,B|113:157|113:157|58:198|58:198|32:259,2,207.999990478516,2|0|0,1:2|1:0|1:0,0:0:0:0:
74,22,67578,1,0,1:0:0:0:
212,111,67756,1,0,1:0:0:0:
297,78,67933,2,0,L|328:149,1,51.999997619629,10|0,0:0|0:0,0:0:0:0:
328,160,68111,1,2,1:2:0:0:
372,16,68288,38,0,B|352:84|352:84|390:245,1,207.999990478516,4|8,1:2|0:0,0:0:0:0:
383,217,68998,1,0,1:0:0:0:
435,288,69176,1,0,1:0:0:0:
369,374,69353,1,8,0:0:0:0:
233,287,69531,86,0,P|275:239|324:252,1,103.999995239258,2|0,0:0|1:0,0:0:0:0:
188,373,69886,2,0,P|137:370|110:329,1,103.999995239258,2|8,1:2|0:0,0:0:0:0:
160,114,70241,6,0,L|188:235,1,103.999995239258,2|0,1:2|0:0,0:0:0:0:
110,329,70596,1,2,1:2:0:0:
0,181,70773,2,0,L|23:79,1,103.999995239258,8|2,0:0|0:0,0:0:0:0:
285,42,71128,70,0,B|243:52|223:82|223:82|85:27,2,207.999990478516,4|10|0,1:2|0:0|1:0,0:0:0:0:
481,0,72016,1,0,1:0:0:0:
361,102,72194,1,8,0:0:0:0:
470,208,72371,6,0,P|510:179|506:130,1,103.999995239258,2|0,1:2|0:0,0:0:0:0:
481,0,72726,2,0,P|440:28|444:77,1,103.999995239258,2|8,1:2|0:0,0:0:0:0:
483,290,73081,2,0,P|447:230|358:198,1,155.999992858887,2|0,1:2|0:0,0:0:0:0:
370,198,73436,1,2,1:2:0:0:
208,178,73614,2,0,B|235:160|235:160|248:142|248:142|317:140,1,103.999995239258,10|2,0:0|1:2,0:0:0:0:
322,364,73969,38,0,B|287:306|202:256|202:256|175:273|137:261,2,207.999990478516,4|8|0,1:2|0:0|0:0,0:0:0:0:
209,368,74856,1,0,1:0:0:0:
334,262,75034,1,8,0:0:0:0:
208,178,75211,86,0,P|207:122|257:93,1,103.999995239258,2|0,0:0|1:0,0:0:0:0:
323,112,75566,1,0,1:0:0:0:
128,197,75744,6,0,P|129:253|79:282,1,103.999995239258,8|0,0:0|1:0,0:0:0:0:
18,255,76099,1,0,0:0:0:0:
179,341,76276,1,0,1:0:0:0:
18,255,76454,2,0,P|5:191|0:141,1,103.999995239258,8|0,0:0|0:0,0:0:0:0:
10,158,76720,1,0,0:0:0:0:
10,158,76809,70,0,B|47:19|47:19|-26:90,1,207.999990478516,6|8,1:2|0:0,0:0:0:0:
153,191,77341,1,0,0:0:0:0:
153,191,77430,1,0,0:0:0:0:
153,191,77519,1,0,1:0:0:0:
254,108,77696,2,0,B|246:151|246:151|254:173|254:173|244:227,1,103.999995239258,0|8,1:0|0:0,0:0:0:0:
341,287,78051,6,0,B|296:345|252:356|252:356|204:340|204:340|123:370,2,207.999990478516,2|0|0,1:2|1:0|1:0,0:0:0:0:
457,316,78939,1,0,1:0:0:0:
327,128,79117,1,0,1:0:0:0:
460,208,79294,2,0,L|435:148,1,51.999997619629,8|0,0:0|0:0,0:0:0:0:
444,124,79472,1,2,1:2:0:0:
359,228,79649,38,0,B|401:145|401:145|424:12,2,207.999990478516,4|8|0,1:2|0:0|1:0,0:0:0:0:
405,326,80537,1,0,1:0:0:0:
223,269,80714,2,0,P|257:208|297:208,1,103.999995239258,8|0,0:0|0:0,0:0:0:0:
326,353,81069,1,0,1:0:0:0:
326,353,81247,1,0,1:0:0:0:
284,204,81424,86,0,B|266:152|266:152|266:136|266:136|237:82|234:33,1,155.999992858887,8|0,0:0|0:0,0:0:0:0:
236,56,81779,1,0,0:0:0:0:
181,165,81956,1,0,1:0:0:0:
33,100,82134,2,0,P|35:48|91:31,1,103.999995239258,8|0,0:0|1:0,0:0:0:0:
77,28,82401,1,0,0:0:0:0:
85,35,82489,6,0,B|83:73|48:123|48:123|4:176|2:269,2,207.999990478516,6|10|2,1:2|0:0|1:2,0:0:0:0:
179,151,83377,1,0,1:0:0:0:
323,130,83554,1,10,0:0:0:0:
323,130,83732,2,0,P|299:186|323:236,1,103.999995239258,2|0,1:2|0:0,0:0:0:0:
369,383,84087,2,0,P|393:327|369:277,1,103.999995239258,2|8,1:2|0:0,0:0:0:0:
487,106,84442,70,0,P|441:191|346:215,1,155.999992858887,2|0,0:0|0:0,0:0:0:0:
390,214,84797,1,2,1:2:0:0:
263,162,84975,1,10,0:0:0:0:
263,162,85063,1,0,0:0:0:0:
263,162,85152,1,2,1:2:0:0:
255,295,85330,6,0,B|222:313|222:313|178:274|57:272,2,207.999990478516,4|8|0,1:2|0:0|1:0,0:0:0:0:
313,222,86217,1,2,1:2:0:0:
145,174,86395,1,8,0:0:0:0:
256,88,86572,38,0,P|223:134|330:215,1,207.999990478516,6|0,0:0|1:0,0:0:0:0:
481,162,87105,2,0,L|512:32,1,103.999995239258,8|0,0:0|1:0,0:0:0:0:
402,94,87460,85,0,1:0:0:0:
503,261,87637,1,0,1:0:0:0:
312,221,87815,2,0,B|279:227|279:227|240:254|240:254|183:258,1,103.999995239258,8|0,0:0|1:0,0:0:0:0:
222,102,88170,6,0,B|196:152|196:152|134:203|134:203|101:294,2,207.999990478516,6|8|0,1:2|0:0|1:0,0:0:0:0:
167,15,89057,1,2,1:2:0:0:
320,151,89235,1,8,0:0:0:0:
320,151,89324,1,0,0:0:0:0:
320,151,89412,70,0,P|374:144|388:84,1,103.999995239258,6|0,0:0|0:0,0:0:0:0:
363,31,89767,1,2,1:2:0:0:
477,210,89945,6,0,P|422:211|399:154,1,103.999995239258,10|0,0:2|1:0,0:0:0:0:
436,90,90300,1,0,1:0:0:0:
329,216,90478,1,8,0:0:0:0:
333,236,90566,1,8,0:0:0:0:
338,256,90655,1,8,0:0:0:0:
298,337,90833,1,0,1:0:0:0:
212,258,91010,54,0,P|182:237|231:124,1,160,4|8,1:2|0:0,0:0:0:0:
146,0,91543,2,0,P|147:36|27:65,1,160,2|2,0:0|0:0,0:0:0:0:
4,207,92075,1,8,0:0:0:0:
4,207,92253,2,0,B|51:197|51:197|83:208|105:335|105:335|130:339|151:366,1,240,6|8,1:2|0:0,0:0:0:0:
356,284,93140,21,2,1:2:0:0:
489,238,93318,1,0,1:0:0:0:
395,365,93495,2,0,P|346:333|355:298,1,80,10|0,0:0|1:0,0:0:0:0:
296,209,93850,2,0,P|331:259|446:275,1,160,6|8,1:2|0:0,0:0:0:0:
501,146,94383,2,0,P|493:97|456:77,1,80,2|0,0:0|1:0,0:0:0:0:
334,78,94738,2,0,P|367:114|409:111,1,80,2|8,0:0|0:0,0:0:0:0:
236,145,95093,102,0,P|287:100|288:-5,1,160,6|0,1:2|1:0,0:0:0:0:
163,174,95625,2,0,B|186:214|186:214|235:222,1,80,8|0,0:0|0:0,0:0:0:0:
127,97,95980,2,0,L|25:71,1,80,2|0,1:2|1:0,0:0:0:0:
31,333,96336,2,0,P|81:301|66:247,1,120,10|0,0:0|0:0,0:0:0:0:
65,246,96691,102,0,B|154:241|154:241|223:283,1,160,4|8,1:2|0:0,0:0:0:0:
357,350,97223,2,0,B|343:383|343:383|317:249,1,160,2|2,0:0|0:0,0:0:0:0:
347,126,97755,1,8,0:0:0:0:
434,173,97933,2,0,P|388:125|367:32,1,160,6|0,1:2|1:0,0:0:0:0:
447,2,98466,1,8,0:0:0:0:
195,158,98821,21,2,1:2:0:0:
109,90,98998,1,0,1:0:0:0:
189,248,99176,2,0,P|213:204|200:158,1,80,10|0,0:0|1:0,0:0:0:0:
24,100,99531,2,0,B|75:95|94:66|94:66|122:7|181:17,1,160,6|8,1:2|0:0,0:0:0:0:
223,79,100063,2,0,B|278:95|278:95|323:85,1,80,2|0,0:0|1:0,0:0:0:0:
429,0,100418,2,0,B|378:27|378:27|354:66,1,80,2|8,0:0|0:0,0:0:0:0:
390,272,100773,102,0,B|415:232|415:232|368:115,1,160,6|0,1:2|1:0,0:0:0:0:
188,238,101306,2,0,L|213:141,1,80,8|0,0:0|0:0,0:0:0:0:
100,230,101661,1,2,1:2:0:0:
200,359,101838,2,0,L|298:338,1,80,0|10,1:0|0:0,0:0:0:0:
503,267,102194,1,0,1:0:0:0:
381,213,102371,102,0,B|351:224|331:280|331:280|362:311|361:360,2,160,4|8|0,1:2|0:0|1:0,0:0:0:0:
502,146,103259,1,2,0:0:0:0:
328,112,103436,1,8,0:0:0:0:
328,112,103614,2,0,P|377:111|432:-5,1,160,6|0,1:2|1:0,0:0:0:0:
262,173,104146,2,0,L|229:263,1,80,10|0,0:0|0:0,0:0:0:0:
272,327,104501,21,2,1:2:0:0:
145,231,104679,1,0,1:0:0:0:
252,97,104856,2,0,B|218:72|218:72|145:74,1,80,10|0,0:0|1:0,0:0:0:0:
18,184,105211,2,0,P|63:136|51:30,1,160,6|8,1:2|0:0,0:0:0:0:
186,321,105921,101,0,1:0:0:0:
82,377,106099,2,0,P|53:350|46:311,1,80,2|8,0:0|0:0,0:0:0:0:
275,247,106454,2,0,P|219:279|109:260,1,160,4|0,1:2|1:0,0:0:0:0:
293,162,106986,2,0,L|327:65,1,80,10|0,0:0|0:0,0:0:0:0:
392,39,107341,1,2,1:2:0:0:
242,62,107519,1,0,1:0:0:0:
351,220,107696,2,0,P|392:238|439:220,1,80,10|0,0:0|1:0,0:0:0:0:
435,110,108051,102,0,P|443:178|543:247,1,160,4|8,1:2|0:0,0:0:0:0:
442,368,108584,2,0,L|339:338,1,80,2|0,0:0|1:0,0:0:0:0:
274,242,108939,2,0,L|377:212,1,80,2|8,0:0|0:0,0:0:0:0:
435,110,109294,22,0,B|393:89|393:89|269:76,1,160,6|0,1:2|1:0,0:0:0:0:
137,228,109827,2,0,L|90:133,1,80,10|0,0:0|1:0,0:0:0:0:
157,96,110182,1,2,1:2:0:0:
17,220,110359,1,0,1:0:0:0:
98,290,110537,2,0,P|136:248|125:202,1,80,10|0,0:0|1:0,0:0:0:0:
10,62,110892,102,0,P|57:95|167:91,1,160,6|8,1:2|0:0,0:0:0:0:
361,170,111424,2,0,P|319:143|273:151,1,80,6|0,1:2|1:0,0:0:0:0:
203,268,111779,2,0,P|242:265|273:241,1,80,2|8,1:2|0:0,0:0:0:0:
389,64,112134,2,0,P|397:139|467:216,1,160,6|2,1:2|1:2,0:0:0:0:
486,354,112667,2,0,L|390:369,1,80,10|2,0:0|1:2,0:0:0:0:
235,353,113022,1,10,0:0:0:0:
235,353,113111,1,8,0:0:0:0:
235,353,113199,1,8,0:0:0:0:
362,275,113377,1,10,0:0:0:0:
362,275,113466,1,8,0:0:0:0:
362,275,113554,1,8,0:0:0:0:
195,198,113732,22,0,B|141:188|108:226|108:226|67:232|40:208|40:208|31:176|-15:173,1,223.999993164063,6|8,1:2|0:0,0:0:0:0:
165,97,114265,2,0,P|226:82|239:31,1,111.999996582031,0|0,1:0|0:0,0:0:0:0:
368,154,114620,1,2,1:2:0:0:
449,103,114797,1,10,0:2:0:0:
368,154,114975,6,0,B|362:185|362:185|377:213|377:213|365:270,1,111.999996582031,2|0,1:2|1:0,0:0:0:0:
232,217,115330,2,0,B|238:248|238:248|223:276|223:276|235:333,1,111.999996582031,2|8,1:2|0:0,0:0:0:0:
456,250,115685,2,0,B|450:281|450:281|465:309|465:309|453:366,1,111.999996582031,2|0,1:2|0:0,0:0:0:0:
312,370,116040,1,2,1:2:0:0:
312,370,116217,2,0,P|238:347|236:306,1,111.999996582031,8|0,0:0|1:0,0:0:0:0:
152,151,116572,38,0,B|276:181|276:181|318:153|388:153,2,223.999993164063,2|8|0,1:2|0:0|0:0,0:0:0:0:
275,86,117460,1,2,1:2:0:0:
152,235,117637,1,10,0:2:0:0:
152,235,117726,1,0,0:0:0:0:
152,235,117815,2,0,P|66:148|131:64,2,223.999993164063,2|2|2,0:0|1:2|1:2,0:0:0:0:
298,357,118702,1,0,0:0:0:0:
298,357,118880,2,0,L|433:323,1,111.999996582031,2|8,1:2|0:0,0:0:0:0:
472,256,119235,1,0,1:0:0:0:
448,40,119413,86,0,B|415:64|400:136|400:136|423:160|431:191,1,167.999994873047,0|0,1:0|0:0,0:0:0:0:
432,188,119768,2,0,B|392:201|392:201|312:185,1,111.999996582031,10|0,0:0|1:0,0:0:0:0:
279,112,120123,1,0,0:0:0:0:
233,282,120300,1,0,1:0:0:0:
110,216,120478,2,0,L|151:320,1,111.999996582031,8|2,0:0|0:0,0:0:0:0:
351,337,120833,6,0,B|332:271|299:258|299:258|196:293,1,167.999994873047,0|0,1:0|0:0,0:0:0:0:
235,284,121188,2,0,B|217:237|217:237|240:136,1,111.999996582031,8|2,0:0|1:2,0:0:0:0:
328,41,121543,2,0,B|272:19|272:19|214:40|214:40|82:10,1,223.999993164063,0|8,0:0|0:0,0:0:0:0:
22,144,122075,1,2,1:2:0:0:
22,144,122164,1,0,0:0:0:0:
22,144,122253,70,0,P|97:167|66:296,2,223.999993164063,0|8|0,1:2|0:0|0:0,0:0:0:0:
195,177,123140,1,0,1:0:0:0:
204,285,123318,2,0,P|230:214|207:174,1,111.999996582031,8|2,0:0|1:2,0:0:0:0:
212,57,123673,2,0,P|215:130|356:151,1,223.999993164063,2|8,1:2|0:0,0:0:0:0:
399,84,124205,1,0,1:0:0:0:
399,84,124383,1,0,0:0:0:0:
446,238,124560,1,10,0:0:0:0:
438,259,124649,1,8,0:0:0:0:
433,280,124738,1,8,0:0:0:0:
427,301,124827,1,8,0:0:0:0:
422,322,124915,1,10,0:0:0:0:
334,384,125093,6,0,B|301:370|301:370|278:255|278:255|231:193,1,180.000006866455,6|0,1:2|0:0,0:0:0:0:
265,237,125448,2,0,B|227:182|227:182|285:97,1,120.000004577637,8|0,0:0|1:0,0:0:0:0:
332,92,125803,1,0,0:0:0:0:
457,186,125980,2,0,B|492:145|492:145|508:81,2,120.000004577637,2|10|2,1:2|0:2|1:2,0:0:0:0:
332,92,126513,38,0,P|295:31|399:62,1,240.000009155274,0|8,1:0|0:0,0:0:0:0:
261,233,127046,2,0,P|229:296|200:192,1,240.000009155274,2|2,1:2|1:2,0:0:0:0:
113,1,127578,2,0,P|124:63|60:92,1,120.000004577637,8|2,0:0|1:2,0:0:0:0:
19,242,127933,86,0,P|63:151|205:135,2,240.000009155274,0|8|0,1:0|0:0|0:0,0:0:0:0:
77,315,128821,1,2,1:2:0:0:
244,233,128998,1,10,0:2:0:0:
227,362,129176,6,0,P|222:304|384:270,1,240.000009155274,2|2,0:0|1:2,0:0:0:0:
512,193,129708,2,0,B|524:249|495:304|494:305|494:305|432:343|358:325,1,240.000009155274,8|0,0:0|0:0,0:0:0:0:
331,128,130241,1,2,1:2:0:0:
469,77,130418,1,8,0:0:0:0:
469,77,130507,1,8,0:0:0:0:
469,77,130596,1,0,1:0:0:0:
348,188,130773,70,0,B|323:115|323:115|332:-4,1,180.000006866455,0|0,1:0|0:0,0:0:0:0:
333,9,131128,2,0,L|187:37,1,120.000004577637,10|0,0:0|1:0,0:0:0:0:
30,28,131483,1,0,0:0:0:0:
30,28,131661,1,0,1:0:0:0:
139,155,131838,2,0,B|117:233|117:233|101:259|101:259|112:333,1,180.000006866455,8|0,0:0|0:0,0:0:0:0:
115,330,132194,6,0,P|188:373|166:266,1,240.000009155274,0|8,1:0|0:0,0:0:0:0:
78,85,132726,2,0,P|31:156|139:138,1,240.000009155274,2|2,1:2|1:2,0:0:0:0:
270,19,133259,1,8,0:0:0:0:
270,19,133347,1,0,0:0:0:0:
270,19,133436,1,2,1:2:0:0:
367,185,133614,38,0,B|268:151|268:151|216:169|170:167|170:167|123:147,2,240.000009155274,4|8|0,1:2|0:0|0:0,0:0:0:0:
451,316,134501,1,0,1:0:0:0:
334,376,134679,2,0,P|281:336|314:293,1,120.000004577637,8|2,0:0|1:2,0:0:0:0:
496,179,135034,86,0,B|406:259|358:253|358:253|315:214|251:233,1,240.000009155274,2|8,1:2|0:0,0:0:0:0:
293,235,135478,1,8,0:0:0:0:
293,235,135567,2,0,P|224:251|195:208,1,120.000004577637,0|0,1:0|1:0,0:0:0:0:
132,69,135921,2,0,L|145:2,2,60.0000022888184,8|8|8,0:0|0:0|0:0,0:0:0:0:
48,158,136276,1,0,1:0:0:0:
261,144,136454,6,0,B|336:128|336:128|368:137|368:137|460:119,1,180.000006866455,4|0,1:2|0:0,0:0:0:0:
439,126,136809,2,0,B|456:93|506:71|506:71|522:130|493:196,1,180.000006866455,10|0,0:0|0:0,0:0:0:0:
505,161,137164,1,2,1:2:0:0:
437,304,137341,2,0,P|428:215|472:202,1,120.000004577637,2|8,1:2|0:0,0:0:0:0:
352,39,137696,70,0,L|475:11,1,120.000004577637,2|0,1:2|0:0,0:0:0:0:
268,106,138051,2,0,L|331:207,1,120.000004577637,2|8,1:2|0:0,0:0:0:0:
185,68,138407,6,0,B|54:137|54:137|21:186,1,180.000006866455,2|0,1:2|0:0,0:0:0:0:
39,166,138762,2,0,B|72:227|72:227|68:253|68:253|90:295,1,120.000004577637,2|10,1:2|0:0,0:0:0:0:
56,365,139117,1,0,1:0:0:0:
191,314,139294,38,0,P|253:264|147:263,1,240.000009155274,0|10,1:0|0:0,0:0:0:0:
361,196,139827,2,0,P|299:144|405:145,1,240.000009155274,0|2,0:0|1:2,0:0:0:0:
496,295,140359,2,0,P|420:288|418:241,1,120.000004577637,8|2,0:0|1:2,0:0:0:0:
244,358,140714,2,0,P|319:338|350:177,2,240.000009155274,0|8|0,0:0|0:0|1:0,0:0:0:0:
172,262,141602,1,2,1:2:0:0:
259,135,141779,1,8,0:0:0:0:
259,135,141868,1,8,0:0:0:0:
259,135,141957,1,10,0:0:0:0:
207,55,142134,86,0,B|143:35|143:35|92:51|92:51|23:38,1,180.000006866455,0|0,1:2|0:0,0:0:0:0:
31,37,142489,2,0,B|12:13|12:13|34:123,1,120.000004577637,10|0,0:0|1:0,0:0:0:0:
137,162,142844,1,2,1:2:0:0:
28,246,143022,2,0,P|10:305|-1:393,1,120.000004577637,0|8,1:0|0:0,0:0:0:0:
247,335,143377,6,0,B|269:248|200:175|200:175|104:155,1,240.000009155274,2|0,1:2|1:0,0:0:0:0:
130,384,143909,2,0,L|166:245,1,120.000004577637,10|2,0:0|1:2,0:0:0:0:
266,211,144265,1,0,1:0:0:0:
196,95,144442,1,0,1:0:0:0:
266,211,144620,2,0,B|328:203|328:203|369:143,1,120.000004577637,8|2,0:0|1:2,0:0:0:0:
487,34,144975,70,0,B|438:98|438:98|445:177|445:177|381:262,2,240.000009155274,2|8|0,1:2|0:0|1:0,0:0:0:0:
361,156,145862,1,0,1:0:0:0:
259,48,146040,2,0,P|314:8|363:22,1,120.000004577637,8|0,0:0|1:0,0:0:0:0:
361,156,146395,2,0,P|301:87|148:75,1,240.000009155274,0|8,0:0|0:0,0:0:0:0:
159,70,146838,1,8,0:0:0:0:
159,70,146927,1,8,3:0:0:0:
205,175,147105,1,10,0:0:0:0:
105,199,147282,2,0,L|90:126,2,60.0000022888184,8|8|8,0:0|0:0|3:0,0:0:0:0:
27,273,147637,1,10,0:0:0:0:
27,273,147726,1,8,0:0:0:0:
27,273,147815,6,0,B|98:302|98:302|178:271|178:271|223:304,1,207.999990478516,4|8,1:2|0:0,0:0:0:0:
354,353,148347,2,0,B|327:383|327:383|282:203,1,207.999990478516,0|0,1:0|1:0,0:0:0:0:
348,119,148880,2,0,B|378:91|378:91|456:80,2,103.999995239258,8|0|0,0:0|1:0|0:0,0:0:0:0:
233,155,149412,1,0,1:0:0:0:
233,155,149767,38,0,P|211:85|165:73,1,103.999995239258,2|0,1:2|1:0,0:0:0:0:
2,31,150123,2,0,P|67:-2|108:21,1,103.999995239258,2|8,1:2|0:0,0:0:0:0:
247,0,150478,86,0,P|189:29|131:178,1,207.999990478516,0|0,1:0|1:0,0:0:0:0:
274,194,151010,2,0,B|307:209|317:259|317:259|265:318|240:383,1,207.999990478516,8|0,0:0|1:0,0:0:0:0:
153,244,151543,2,0,L|36:201,1,103.999995239258,0|8,1:0|0:0,0:0:0:0:
41,367,151898,2,0,P|63:317|15:275,2,103.999995239258,0|0|2,1:0|0:0|1:2,0:0:0:0:
153,244,152430,2,0,L|279:191,1,103.999995239258,8|2,0:0|1:2,0:0:0:0:
305,140,152785,1,0,1:0:0:0:
409,275,152963,2,0,L|431:157,1,103.999995239258,2|8,1:2|0:0,0:0:0:0:
495,59,153318,1,0,1:0:0:0:
495,59,153406,1,0,0:0:0:0:
495,59,153495,6,0,B|433:25|377:63|377:63|352:175,1,207.999990478516,2|8,1:2|0:0,0:0:0:0:
501,340,154028,2,0,P|507:280|383:231,1,207.999990478516,0|0,1:0|1:0,0:0:0:0:
260,346,154560,2,0,B|318:371|318:371|368:357,2,103.999995239258,8|0|0,0:0|1:0|0:0,0:0:0:0:
225,263,155093,1,0,1:0:0:0:
112,369,155270,2,0,P|58:358|44:311,1,103.999995239258,8|2,0:0|1:2,0:0:0:0:
88,250,155625,1,0,1:0:0:0:
3,125,155803,2,0,B|53:100|53:100|132:119,1,103.999995239258,2|8,1:2|0:0,0:0:0:0:
259,149,156158,1,0,1:0:0:0:
259,149,156247,1,0,0:0:0:0:
259,149,156336,70,0,B|224:174|172:160|172:160|197:77|129:24,1,207.999990478516,2|10,1:2|0:2,0:0:0:0:
385,77,156868,2,0,B|401:117|424:133|424:133|371:277,1,207.999990478516,2|0,1:2|1:0,0:0:0:0:
288,300,157401,1,10,0:2:0:0:
446,353,157578,2,0,P|478:291|367:276,1,207.999990478516,2|0,1:2|1:0,0:0:0:0:
219,382,158111,2,0,B|193:288|193:288|191:215,1,155.999992858887,8|0,0:0|0:0,0:0:0:0:
191,229,158466,1,0,1:0:0:0:
25,205,158643,2,0,B|12:151|12:151|51:86,1,103.999995239258,8|8,0:0|0:0,0:0:0:0:
105,2,158998,1,8,3:0:0:0:
105,2,159087,1,8,3:0:0:0:
105,2,159176,1,8,1:2:0:0:
