osu file format v14

[General]
AudioFilename: audio.mp3
AudioLeadIn: 0
PreviewTime: 22844
Countdown: 0
SampleSet: Soft
StackLeniency: 0.4
Mode: 0
LetterboxInBreaks: 0
WidescreenStoryboard: 0

[Editor]
Bookmarks: 121,22844,45566,65448,91010,113732,136454,159176
DistanceSpacing: 0.7
BeatDivisor: 4
GridSize: 32
TimelineZoom: 2

[Metadata]
Title:Tek It (Sped Up Ver.)
TitleUnicode:Tek It (Sped Up Ver.)
Artist:Cafune
ArtistUnicode:Cafuné
Creator:Delta_
Version:I Watch the Moon~
Source:
Tags:i watch the moon english pop running speed up version alt alternative indie yahuri -Waterlemon supreme water hehe handsome Shiny Braixen ernua orange_
BeatmapID:3796261
BeatmapSetID:1848054

[Difficulty]
HPDrainRate:5
CircleSize:4
OverallDifficulty:9
ApproachRate:9.4
SliderMultiplier:1.7
SliderTickRate:1

[Events]
//Background and Video events
0,0,"mountain_range_by_bisbiswas_defsaga_auto_x2.jpg",0,0
//Break Periods
//Storyboard Layer 0 (Background)
//Storyboard Layer 1 (Fail)
//Storyboard Layer 2 (Pass)
//Storyboard Layer 3 (Foreground)
//Storyboard Layer 4 (Overlay)
//Storyboard Sound Samples

[TimingPoints]
123,355.029585798817,4,2,1,55,1,0
22844,-66.6666666666667,4,2,1,75,0,1
34117,-66.6666666666667,4,2,1,75,0,0
34205,-58.8235294117647,4,2,1,75,0,1
45566,-100,4,2,1,55,0,0
56927,-90.9090909090909,4,2,1,65,0,0
65448,-66.6666666666667,4,2,1,75,0,1
76720,-66.6666666666667,4,2,1,75,0,0
76809,-58.8235294117647,4,2,1,65,0,1
90833,-133.333333333333,4,2,1,65,0,1
91010,-76.9230769230769,4,2,1,65,0,0
113732,-55.5555555555556,4,2,1,75,0,1
125004,-55.5555555555556,4,2,1,75,0,0
125093,-52.6315789473684,4,2,1,75,0,1
136454,-50,4,2,1,75,0,1
147726,-50,4,2,1,75,0,0
147815,-47.6190476190476,4,2,1,75,0,1
159176,-100,4,2,1,75,0,0

[Colours]
Combo1 : 68,204,249
Combo2 : 196,191,194
Combo3 : 202,202,255
Combo4 : 173,214,214
Combo5 : 255,140,85
Combo6 : 255,102,102
Combo7 : 128,128,255
Combo8 : 154,53,255

[HitObjects]
256,192,123,53,2,1:2:0:0:
256,192,1365,1,2,1:2:0:0:
215,84,2785,70,0,B|164:59|123:83|152:101|95:126|51:104,1,170,6|0,1:2|0:0,0:0:0:0:
235,5,3318,2,0,P|279:27|295:79,1,85,8|0,0:0|0:0,0:0:0:0:
199,162,3673,1,0,1:0:0:0:
81,30,3850,1,0,1:0:0:0:
215,84,4028,1,8,0:0:0:0:
117,162,4205,2,0,P|75:170|37:189,1,85,0|0,1:0|1:0,0:0:0:0:
238,255,4560,5,0,0:0:0:0:
141,334,4738,2,0,P|93:313|44:307,1,85,8|0,0:0|0:0,0:0:0:0:
258,373,5093,1,0,1:0:0:0:
331,220,5270,1,0,1:0:0:0:
117,162,5448,2,0,P|116:204|127:246,1,85,8|0,0:0|0:0,0:0:0:0:
382,64,5803,69,2,1:2:0:0:
382,64,7046,1,2,1:2:0:0:
378,313,8466,22,0,P|298:338|254:273,1,170,6|0,1:2|0:0,0:0:0:0:
362,139,8998,2,0,P|387:192|363:227,1,85,8|0,0:0|0:0,0:0:0:0:
205,166,9353,1,0,1:0:0:0:
303,42,9531,1,0,1:0:0:0:
295,202,9708,1,8,0:0:0:0:
163,68,9886,1,0,0:0:0:0:
85,202,10063,6,0,P|70:265|50:325,1,127.5,0|0,1:0|0:0,0:0:0:0:
50,325,10418,2,0,P|64:296|58:325,1,85,8|0,0:0|0:0,0:0:0:0:
174,234,10773,1,0,1:0:0:0:
24,135,10951,1,0,1:0:0:0:
163,68,11128,2,0,P|182:107|182:161,1,85,10|2,0:2|0:2,0:0:0:0:
297,283,11483,6,0,P|250:282|207:333,1,85,6|2,1:2|0:0,0:0:0:0:
370,353,11838,1,10,0:0:0:0:
496,307,12016,2,0,P|508:265|479:287,1,85,2|0,0:0|1:0,0:0:0:0:
370,353,12371,1,2,1:2:0:0:
351,225,12549,1,10,0:2:0:0:
476,93,12726,86,0,P|437:75|399:55,1,85,2|0,0:0|1:0,0:0:0:0:
226,41,13081,2,0,P|263:20|302:3,1,85,2|8,0:0|0:0,0:0:0:0:
383,142,13436,2,0,P|328:151|282:166,1,85,2|0,0:0|1:0,0:0:0:0:
154,114,13791,1,2,1:2:0:0:
255,224,13969,1,8,0:0:0:0:
75,242,14146,21,2,0:0:0:0:
75,242,14235,1,0,0:0:0:0:
75,242,14324,2,0,P|53:205|46:164,1,85,0|0,1:0|0:0,0:0:0:0:
125,36,14679,2,0,P|146:72|153:113,1,85,8|0,0:0|0:0,0:0:0:0:
146,280,15034,1,0,1:0:0:0:
240,139,15211,86,0,P|278:120|320:110,1,85,2|8,1:2|0:0,0:0:0:0:
456,174,15566,1,2,0:0:0:0:
389,254,15744,2,0,P|339:243|307:224,1,85,0|0,1:0|0:0,0:0:0:0:
302,32,16099,2,0,P|352:43|384:62,1,85,8|0,0:0|0:0,0:0:0:0:
218,215,16454,1,0,1:0:0:0:
174,95,16631,1,0,1:0:0:0:
312,197,16809,1,8,0:0:0:0:
268,317,16986,1,2,0:0:0:0:
123,235,17164,5,2,1:2:0:0:
174,95,17341,2,0,P|220:106|284:106,1,85,2|8,0:0|0:0,0:0:0:0:
82,18,17696,2,0,P|38:36|-13:75,1,85,2|0,0:0|1:0,0:0:0:0:
190,0,18051,1,2,1:2:0:0:
81,145,18229,1,8,0:0:0:0:
218,215,18407,1,0,0:0:0:0:
305,111,18584,2,0,P|258:65|207:72,1,85,0|0,1:0|0:0,0:0:0:0:
123,235,18939,1,10,0:0:0:0:
282,326,19117,6,0,P|308:262|368:158,1,170,2|0,0:0|1:0,0:0:0:0:
404,289,19649,1,10,0:0:0:0:
183,372,19827,1,2,0:0:0:0:
183,372,19915,1,0,0:0:0:0:
183,372,20004,86,0,P|157:308|97:204,1,170,0|8,1:0|0:0,0:0:0:0:
43,344,20537,1,0,0:0:0:0:
222,237,20714,5,0,1:0:0:0:
107,219,20892,1,0,1:0:0:0:
183,372,21069,1,8,0:0:0:0:
330,339,21247,1,0,0:0:0:0:
190,95,21424,2,0,P|168:131|174:177,1,85,0|0,1:0|1:0,0:0:0:0:
353,198,21779,2,0,P|374:161|368:115,1,85,8|0,0:0|0:0,0:0:0:0:
257,257,22134,5,0,1:0:0:0:
284,31,22312,1,0,1:0:0:0:
273,145,22489,1,8,0:0:0:0:
273,145,22578,1,8,0:0:0:0:
273,145,22667,1,0,1:0:0:0:
117,320,22844,6,0,B|159:282|221:308|188:338|260:364|311:325,1,191.250007295609,6|0,1:2|0:0,0:0:0:0:
346,281,23199,2,0,L|451:355,1,127.500004863739,8|0,0:0|0:0,0:0:0:0:
470,169,23554,1,0,1:0:0:0:
360,154,23732,1,0,1:0:0:0:
377,351,23909,1,8,0:0:0:0:
138,347,24087,6,0,P|116:283|206:342,1,255.000009727478,2|0,1:2|1:0,0:0:0:0:
64,376,24620,2,0,P|36:306|63:233,1,127.500004863739,8|0,0:0|0:0,0:0:0:0:
168,113,24975,1,0,1:0:0:0:
255,143,25152,1,0,1:0:0:0:
46,257,25330,1,10,0:0:0:0:
218,325,25507,1,2,1:2:0:0:
255,143,25685,38,0,P|241:61|76:96,2,255.000009727478,4|8|0,1:2|0:0|1:0,0:0:0:0:
137,163,26572,1,0,1:0:0:0:
94,57,26750,1,8,0:0:0:0:
255,143,26927,86,0,P|364:154|403:61,1,191.250007295609,2|0,0:0|0:0,0:0:0:0:
403,94,27282,2,0,P|464:96|494:156,1,127.500004863739,2|8,1:2|0:0,0:0:0:0:
502,302,27637,6,0,P|419:241|306:288,1,191.250007295609,2|0,1:2|0:0,0:0:0:0:
338,257,27992,2,0,P|353:317|410:348,1,127.500004863739,2|8,1:2|0:0,0:0:0:0:
502,302,28347,1,2,0:0:0:0:
145,250,28525,70,0,P|176:171|206:57,1,191.250007295609,4|0,1:2|0:0,0:0:0:0:
90,85,28880,2,0,B|50:111|-3:88|-3:88|43:123|55:171,1,191.250007295609,10|0,0:0|0:0,0:0:0:0:
134,156,29235,1,0,1:0:0:0:
38,24,29412,1,0,1:0:0:0:
253,14,29590,1,8,0:0:0:0:
302,243,29767,6,0,P|382:249|431:144,1,191.250007295609,2|0,1:2|0:0,0:0:0:0:
434,162,30123,2,0,P|341:134|335:69,1,127.500004863739,2|8,1:2|0:0,0:0:0:0:
414,312,30478,38,0,P|361:372|252:333,1,191.250007295609,2|0,1:2|0:0,0:0:0:0:
263,348,30834,2,0,P|308:262|267:212,1,127.500004863739,2|10,1:2|0:0,0:0:0:0:
116,370,31188,1,2,1:2:0:0:
105,122,31365,86,0,B|152:116|184:75|184:75|154:167|160:251,2,255.000009727478,4|8|0,1:2|0:0|0:0,0:0:0:0:
244,192,32253,1,0,1:0:0:0:
324,28,32430,1,8,0:0:0:0:
421,218,32608,2,0,P|475:150|345:132,1,255.000009727478,2|0,0:0|1:0,0:0:0:0:
323,230,33140,1,8,0:0:0:0:
466,118,33318,2,0,B|429:58|320:66|367:167|276:185|211:133,1,255.000009727478,0|0,1:0|1:0,0:0:0:0:
421,218,33850,2,0,P|469:180|462:112,1,127.500004863739,8|0,0:0|0:0,0:0:0:0:
281,374,34205,6,0,P|212:295|106:288,1,216.750004134178,6|0,1:2|0:0,0:0:0:0:
4,235,34560,2,0,P|14:313|13:379,1,144.500002756119,8|0,0:0|0:0,0:0:0:0:
69,128,34915,1,0,1:0:0:0:
190,156,35093,1,0,1:0:0:0:
93,310,35270,1,8,0:0:0:0:
297,132,35448,70,0,P|248:42|211:169,1,289.000005512238,2|0,1:2|1:0,0:0:0:0:
413,244,35980,2,0,P|429:176|381:127,1,144.500002756119,8|0,0:0|0:0,0:0:0:0:
221,303,36336,1,0,1:0:0:0:
315,252,36513,1,0,1:0:0:0:
140,96,36691,1,8,0:0:0:0:
296,131,36868,1,2,1:2:0:0:
73,264,37046,6,0,B|113:239|105:186|105:186|315:126,2,289.000005512238,4|8|0,1:2|0:0|1:0,0:0:0:0:
186,249,37933,1,0,1:0:0:0:
21,201,38111,1,8,0:0:0:0:
218,33,38288,2,0,P|290:76|286:152,1,144.500002756119,0|0,0:0|1:0,0:0:0:0:
0,120,38643,2,0,P|29:41|105:32,1,144.500002756119,0|8,1:0|0:0,0:0:0:0:
144,215,38998,38,0,B|180:174|250:187|240:226|307:233|346:198,1,216.750004134178,0|0,1:0|0:0,0:0:0:0:
316,121,39353,2,0,P|295:101|295:130,1,72.2500013780594,0|0,1:0|0:0,0:0:0:0:
400,131,39531,1,8,0:0:0:0:
209,114,39708,1,0,1:0:0:0:
335,366,39886,86,0,P|454:330|506:224,1,216.750004134178,6|0,1:2|0:0,0:0:0:0:
493,246,40241,2,0,P|431:331|328:356,1,216.750004134178,10|0,0:0|0:0,0:0:0:0:
211,349,40596,1,2,1:2:0:0:
193,265,40773,1,0,1:0:0:0:
373,245,40951,1,10,0:0:0:0:
173,183,41128,2,0,P|103:187|69:328,1,216.750004134178,2|0,1:2|0:0,0:0:0:0:
24,384,41483,2,0,P|66:327|135:317,1,144.500002756119,2|8,1:2|0:0,0:0:0:0:
53,190,41838,5,2,0:0:0:0:
211,349,42016,1,0,1:0:0:0:
286,108,42194,1,2,1:2:0:0:
136,268,42371,1,10,0:0:0:0:
113,22,42549,1,2,1:2:0:0:
468,89,42726,70,0,P|504:177|386:114,2,289.000005512238,4|8|0,1:2|0:0|1:0,0:0:0:0:
240,121,43614,2,0,P|173:74|189:0,1,144.500002756119,2|8,1:2|0:0,0:0:0:0:
375,289,43969,6,0,P|232:268|88:282,1,289.000005512238,6|0,0:0|1:0,0:0:0:0:
240,121,44501,1,8,0:0:0:0:
231,384,44679,1,0,1:0:0:0:
202,232,44856,37,0,1:0:0:0:
265,299,45034,1,0,1:0:0:0:
277,223,45211,1,8,0:0:0:0:
189,308,45389,1,0,1:0:0:0:
74,208,45566,6,0,P|65:124|84:42,2,170,4|10|2,1:2|0:0|0:0,0:0:0:0:
212,105,46454,2,0,P|195:60|167:30,1,85,2|8,1:2|0:0,0:0:0:0:
175,202,46809,2,0,P|250:206|344:235,2,170,2|2|2,0:0|1:2|0:0,0:0:0:0:
91,322,47696,2,0,P|48:320|-14:293,1,85,2|0,0:0|1:0,0:0:0:0:
200,278,48051,2,0,P|243:280|305:307,1,85,10|0,0:0|0:0,0:0:0:0:
414,373,48407,22,0,P|412:288|431:205,1,170,2|10,1:2|0:0,0:0:0:0:
430,205,48939,1,0,0:0:0:0:
311,136,49117,2,0,P|340:183|352:227,1,85,2|2,0:0|1:2,0:0:0:0:
368,309,49472,1,8,0:0:0:0:
494,123,49649,2,0,P|427:72|387:-8,1,170,2|2,0:0|1:2,0:0:0:0:
509,8,50182,1,8,0:0:0:0:
303,64,50359,2,0,P|258:72|135:53,1,170,2|2,0:0|1:2,0:0:0:0:
42,128,50892,2,0,P|72:155|115:167,1,85,10|0,0:2|0:0,0:0:0:0:
216,207,51158,1,0,0:0:0:0:
216,207,51247,102,0,P|164:191|121:284,2,170,2|10|2,1:2|0:2|0:0,0:0:0:0:
169,335,52134,2,0,P|108:358|74:340,1,85,2|8,1:2|0:0,0:0:0:0:
240,283,52489,2,0,P|316:256|383:304,1,170,2|2,0:0|1:2,0:0:0:0:
302,360,53022,1,8,0:0:0:0:
356,190,53199,2,0,P|350:134|293:188,1,170,2|0,0:0|1:0,0:0:0:0:
383,304,53732,2,0,P|446:299|465:264,1,85,10|0,0:0|0:0,0:0:0:0:
202,198,54087,102,0,P|169:120|123:49,2,170,2|10|2,1:2|0:0|0:0,0:0:0:0:
60,281,54975,2,0,P|57:238|61:196,1,85,0|8,1:0|0:0,0:0:0:0:
245,109,55330,2,0,B|211:81|144:95|176:129|116:135|74:109,1,170,2|0,0:0|1:0,0:0:0:0:
120,31,55862,1,8,0:0:0:0:
212,199,56040,21,2,0:0:0:0:
212,199,56128,1,2,0:0:0:0:
212,199,56217,2,0,P|267:207|310:177,1,85,2|0,0:0|1:0,0:0:0:0:
378,44,56572,1,10,0:0:0:0:
245,109,56750,1,2,0:0:0:0:
378,221,56927,86,0,B|402:175|396:130,2,93.5000028533936,2|0|8,1:2|0:0|0:0,0:0:0:0:
313,376,57460,2,0,B|289:330|294:285,1,93.5000028533936,2|0,0:0|1:0,0:0:0:0:
469,243,57815,2,0,B|495:289|489:333,1,93.5000028533936,2|8,1:2|0:0,0:0:0:0:
292,195,58170,2,0,B|247:181|199:215|233:248|178:281|121:254,1,187.000005706787,2|2,0:0|1:2,0:0:0:0:
144,153,58702,1,8,0:0:0:0:
48,314,58880,2,0,P|33:269|8:229,1,93.5000028533936,2|0,0:0|1:0,0:0:0:0:
29,136,59235,1,2,1:2:0:0:
132,258,59412,1,8,0:0:0:0:
234,107,59590,6,0,P|263:45|253:11,1,93.5000028533936,2|0,0:0|1:0,0:0:0:0:
101,0,59945,2,0,P|82:42|93:86,1,93.5000028533936,2|8,0:0|0:0,0:0:0:0:
291,194,60300,2,0,P|370:165|479:187,2,187.000005706787,2|2|2,1:2|1:2|0:0,0:0:0:0:
200,267,61188,2,0,P|156:281|108:270,1,93.5000028533936,0|2,1:0|1:2,0:0:0:0:
157,152,61543,1,8,0:0:0:0:
248,330,61720,2,0,P|159:356|51:326,1,187.000005706787,2|2,1:2|1:2,0:0:0:0:
54,202,62253,1,8,0:0:0:0:
198,81,62430,6,0,P|232:111|238:156,1,93.5000028533936,2|0,0:0|1:0,0:0:0:0:
76,75,62785,2,0,P|82:29|117:0,1,93.5000028533936,2|10,0:0|0:0,0:0:0:0:
320,103,63140,2,0,P|372:75|383:40,1,93.5000028533936,2|0,0:0|1:0,0:0:0:0:
198,81,63495,2,0,P|146:109|135:144,1,93.5000028533936,2|8,1:2|0:0,0:0:0:0:
301,273,63850,86,0,P|392:253|482:275,1,187.000005706787,2|2,1:2|1:2,0:0:0:0:
394,377,64383,1,8,0:0:0:0:
301,273,64560,1,2,1:2:0:0:
364,218,64738,1,0,1:0:0:0:
211,358,64915,5,8,0:0:0:0:
429,293,65093,1,8,0:0:0:0:
234,156,65270,1,8,0:0:0:0:
114,321,65448,22,0,P|20:309|16:204,1,191.250007295609,6|0,1:2|0:0,0:0:0:0:
77,113,65803,2,0,P|85:176|109:253,1,127.500004863739,8|0,0:0|0:0,0:0:0:0:
234,156,66158,1,0,1:0:0:0:
193,253,66336,1,0,1:0:0:0:
88,93,66513,1,8,0:0:0:0:
202,235,66691,6,0,B|261:269|336:229|303:177|384:138|446:188,1,255.000009727478,2|0,1:2|1:0,0:0:0:0:
382,338,67223,2,0,P|321:313|309:239,1,127.500004863739,8|0,0:0|1:0,0:0:0:0:
338,144,67578,1,0,1:0:0:0:
392,253,67756,1,0,1:0:0:0:
235,160,67933,1,10,0:0:0:0:
428,177,68111,1,2,1:2:0:0:
146,138,68288,38,0,P|114:74|241:93,2,255.000009727478,4|8|0,1:2|0:0|1:0,0:0:0:0:
362,63,69176,1,0,1:0:0:0:
318,161,69353,1,8,0:0:0:0:
146,138,69531,86,0,P|57:148|39:252,1,191.250007295609,2|0,0:0|0:0,0:0:0:0:
31,235,69886,2,0,P|97:232|135:302,1,127.500004863739,2|8,1:2|0:0,0:0:0:0:
313,343,70241,6,0,P|383:287|343:189,1,191.250007295609,2|0,0:0|0:0,0:0:0:0:
358,199,70596,2,0,P|303:236|234:197,1,127.500004863739,2|8,1:2|0:0,0:0:0:0:
301,117,70951,1,2,0:0:0:0:
313,343,71128,70,0,B|238:358|186:309|234:291|176:246|118:267,1,191.250007295609,4|0,1:2|0:0,0:0:0:0:
57,281,71483,2,0,P|28:304|103:294,1,191.250007295609,10|0,0:0|0:0,0:0:0:0:
165,176,71838,1,0,1:0:0:0:
87,145,72016,1,0,1:0:0:0:
57,281,72194,1,8,0:0:0:0:
283,254,72371,6,0,P|301:183|266:49,1,191.250007295609,2|0,1:2|0:0,0:0:0:0:
277,69,72726,2,0,P|342:108|396:117,1,127.500004863739,2|8,1:2|0:0,0:0:0:0:
141,29,73081,38,0,P|61:56|104:128,1,191.250007295609,2|0,1:2|0:0,0:0:0:0:
102,127,73436,2,0,P|144:199|79:225,1,127.500004863739,2|10,1:2|0:0,0:0:0:0:
198,86,73791,1,2,1:2:0:0:
13,279,73969,86,0,P|135:244|261:249,2,255.000009727478,4|8|0,1:2|0:0|0:0,0:0:0:0:
120,353,74856,1,0,1:0:0:0:
124,220,75034,1,8,0:0:0:0:
350,353,75211,6,0,P|435:301|337:279,1,255.000009727478,2|0,0:0|1:0,0:0:0:0:
456,177,75744,1,8,0:0:0:0:
337,278,75921,2,0,B|284:331|205:290|244:258|155:219|96:276,1,255.000009727478,0|0,1:0|1:0,0:0:0:0:
282,210,76454,2,0,P|310:182|279:209,1,127.500004863739,8|0,0:0|0:0,0:0:0:0:
151,357,76809,70,0,P|82:267|-12:200,1,216.750004134178,6|0,1:2|0:0,0:0:0:0:
2,292,77164,2,0,P|53:241|111:198,1,144.500002756119,8|0,0:0|0:0,0:0:0:0:
42,43,77519,1,0,1:0:0:0:
121,85,77696,1,0,1:0:0:0:
0,206,77874,1,8,0:0:0:0:
230,54,78051,6,0,B|281:26|333:63|309:86|390:196|484:35|398:-8|358:12,1,289.000005512238,2|0,1:2|1:0,0:0:0:0:
221,168,78584,2,0,P|130:117|127:49,1,144.500002756119,8|0,0:0|1:0,0:0:0:0:
371,8,78939,1,0,1:0:0:0:
439,72,79117,1,0,1:0:0:0:
230,54,79294,1,8,0:0:0:0:
256,243,79472,1,2,1:2:0:0:
498,130,79649,38,0,P|365:128|345:259,2,289.000005512238,4|8|0,1:2|0:0|1:0,0:0:0:0:
502,376,80537,1,0,1:0:0:0:
449,278,80714,1,8,0:0:0:0:
312,340,80892,2,0,P|387:339|425:268,1,144.500002756119,0|0,0:0|1:0,0:0:0:0:
244,199,81247,2,0,P|169:200|131:271,1,144.500002756119,0|8,1:0|0:0,0:0:0:0:
345,259,81602,86,0,P|358:149|394:13,1,216.750004134178,0|0,1:0|0:0,0:0:0:0:
479,0,81957,2,0,P|482:35|492:70,1,72.2500013780594,0|0,1:0|0:0,0:0:0:0:
500,97,82134,1,8,0:0:0:0:
383,46,82312,1,0,1:0:0:0:
121,61,82489,6,0,P|95:149|187:143,1,216.750004134178,6|0,1:2|0:0,0:0:0:0:
244,199,82844,2,0,P|269:110|177:116,1,216.750004134178,10|0,0:0|0:0,0:0:0:0:
161,199,83199,1,2,1:2:0:0:
185,19,83377,1,0,1:0:0:0:
350,88,83554,1,10,0:0:0:0:
266,306,83732,70,0,B|224:353|141:306|184:279|101:226|25:294,1,216.750004134178,2|0,1:2|0:0,0:0:0:0:
52,362,84087,2,0,P|152:354|183:257,1,144.500002756119,2|8,1:2|0:0,0:0:0:0:
137,158,84442,1,2,0:0:0:0:
97,285,84620,1,0,1:0:0:0:
234,258,84797,1,2,1:2:0:0:
0,187,84975,1,10,0:0:0:0:
177,376,85152,1,2,1:2:0:0:
227,128,85330,6,0,B|195:60|221:-13|221:-13|170:50|88:55,2,289.000005512238,4|8|0,1:2|0:0|1:0,0:0:0:0:
83,256,86217,2,0,P|106:185|159:103,1,144.500002756119,2|8,1:2|0:0,0:0:0:0:
423,51,86572,38,0,P|369:-13|390:109,1,289.000005512238,6|0,0:0|1:0,0:0:0:0:
438,146,87105,1,8,0:0:0:0:
336,114,87282,1,0,1:0:0:0:
512,267,87460,1,0,1:0:0:0:
423,51,87637,1,0,1:0:0:0:
331,262,87815,1,8,0:0:0:0:
157,85,87992,1,0,1:0:0:0:
157,85,88081,1,0,1:0:0:0:
157,85,88170,86,0,B|118:28|18:84|70:209|204:200|240:111,2,289.000005512238,6|8|0,1:2|0:0|1:0,0:0:0:0:
319,177,89057,2,0,P|328:87|273:53,1,144.500002756119,2|8,1:2|0:0,0:0:0:0:
36,277,89412,6,0,B|103:229|187:270|136:324|254:355|315:308,1,289.000005512238,6|2,0:0|1:2,0:0:0:0:
91,353,89945,1,10,0:2:0:0:
249,243,90123,1,0,1:0:0:0:
84,166,90300,1,0,1:0:0:0:
224,360,90478,1,8,0:0:0:0:
224,360,90566,1,8,0:0:0:0:
224,360,90655,1,8,0:0:0:0:
328,323,90833,2,0,L|381:335,1,31.8750012159348,0|0,1:0|0:0,0:0:0:0:
478,213,91010,22,0,P|405:187|362:250,1,165.749992412568,4|0,1:2|0:0,0:0:0:0:
440,290,91365,1,8,0:0:0:0:
376,119,91543,1,2,0:0:0:0:
220,230,91720,1,0,1:0:0:0:
245,152,91898,1,2,0:0:0:0:
361,250,92075,1,8,0:0:0:0:
371,39,92253,22,0,P|330:-5|325:100,1,220.999989883423,6|0,1:2|1:0,0:0:0:0:
463,109,92785,2,0,P|496:54|463:-7,1,110.499994941712,8|0,0:0|0:0,0:0:0:0:
311,179,93140,1,2,1:2:0:0:
186,56,93318,1,0,1:0:0:0:
386,145,93495,2,0,P|350:101|287:98,1,110.499994941712,10|0,0:0|1:0,0:0:0:0:
220,326,93850,102,0,B|268:358|335:328|296:289|368:248|421:281,1,220.999989883423,6|8,1:2|0:0,0:0:0:0:
393,375,94383,1,2,0:0:0:0:
247,251,94560,1,0,1:0:0:0:
220,326,94738,1,2,0:0:0:0:
139,210,94915,1,8,0:0:0:0:
89,369,95093,102,0,P|73:278|33:139,1,220.999989883423,6|0,1:2|1:0,0:0:0:0:
155,24,95625,2,0,P|144:91|127:147,1,110.499994941712,8|0,0:0|0:0,0:0:0:0:
33,39,95980,1,2,1:2:0:0:
246,104,96158,1,0,1:0:0:0:
26,25,96336,1,10,0:0:0:0:
38,154,96513,1,0,1:0:0:0:
222,183,96691,22,0,P|293:184|307:47,1,220.999989883423,4|8,1:2|0:0,0:0:0:0:
160,99,97223,1,2,0:0:0:0:
198,272,97401,1,0,1:0:0:0:
222,183,97578,1,2,0:0:0:0:
73,80,97756,1,8,0:0:0:0:
0,311,97933,102,0,P|109:325|208:371,1,220.999989883423,6|0,1:2|1:0,0:0:0:0:
419,296,98466,2,0,P|364:279|292:300,1,110.499994941712,8|0,0:0|0:0,0:0:0:0:
125,371,98821,1,2,1:2:0:0:
112,218,98998,1,0,1:0:0:0:
289,362,99176,1,10,0:0:0:0:
318,208,99353,1,0,1:0:0:0:
136,127,99531,101,6,1:2:0:0:
213,282,99708,1,0,1:0:0:0:
283,128,99886,1,8,0:0:0:0:
211,191,100063,1,2,0:0:0:0:
136,127,100241,1,0,1:0:0:0:
212,68,100418,1,2,0:0:0:0:
129,210,100596,1,8,0:0:0:0:
283,128,100773,22,0,P|339:147|371:302,1,220.999989883423,6|0,1:2|1:0,0:0:0:0:
213,282,101306,2,0,P|241:236|294:229,1,110.499994941712,8|0,0:0|0:0,0:0:0:0:
296,337,101572,1,0,0:0:0:0:
296,337,101661,2,0,L|186:384,1,110.499994941712,2|0,1:2|1:0,0:0:0:0:
27,270,102016,2,0,L|137:317,1,110.499994941712,10|0,0:0|1:0,0:0:0:0:
283,128,102371,102,0,P|190:92|155:185,1,220.999989883423,4|8,1:2|0:0,0:0:0:0:
176,67,102904,1,2,0:0:0:0:
241,205,103081,1,0,1:0:0:0:
190,286,103259,1,2,0:0:0:0:
56,183,103436,1,8,0:0:0:0:
0,342,103614,102,0,B|61:379|120:337|86:302|143:250|208:296,1,220.999989883423,6|0,1:2|1:0,0:0:0:0:
369,321,104146,2,0,P|430:312|443:246,1,110.499994941712,10|0,0:0|0:0,0:0:0:0:
321,168,104501,1,2,1:2:0:0:
276,301,104679,1,0,1:0:0:0:
470,206,104856,1,10,0:0:0:0:
284,90,105034,1,0,1:0:0:0:
469,31,105211,21,6,1:2:0:0:
379,239,105389,1,0,1:0:0:0:
239,159,105566,1,8,0:0:0:0:
398,156,105744,1,2,0:0:0:0:
196,238,105921,1,0,1:0:0:0:
145,160,106099,1,2,0:0:0:0:
312,200,106276,1,8,0:0:0:0:
208,43,106454,102,0,P|144:31|78:174,1,220.999989883423,4|0,1:2|1:0,0:0:0:0:
231,206,106986,2,0,P|188:159|123:173,1,110.499994941712,10|0,0:0|0:0,0:0:0:0:
37,232,107341,1,2,1:2:0:0:
135,371,107519,1,0,1:0:0:0:
166,229,107696,1,10,0:0:0:0:
12,323,107874,1,0,1:0:0:0:
256,354,108051,102,0,P|324:360|399:232,1,220.999989883423,4|8,1:2|0:0,0:0:0:0:
231,281,108584,1,2,0:0:0:0:
352,168,108762,1,0,1:0:0:0:
401,245,108939,1,2,0:0:0:0:
213,288,109117,1,8,0:0:0:0:
212,57,109294,22,0,B|254:71|292:47|292:47|327:74|327:74|374:51|426:72,1,220.999989883423,6|0,1:2|1:0,0:0:0:0:
301,240,109827,2,0,P|273:174|283:128,1,110.499994941712,10|0,0:0|1:0,0:0:0:0:
417,68,110182,1,2,1:2:0:0:
480,230,110359,1,0,1:0:0:0:
322,326,110537,2,0,P|252:312|219:270,1,110.499994941712,10|0,0:0|1:0,0:0:0:0:
212,57,110892,101,6,1:2:0:0:
363,176,111069,1,0,1:0:0:0:
169,229,111247,1,8,0:0:0:0:
255,156,111424,101,6,1:2:0:0:
114,117,111602,1,0,1:0:0:0:
351,36,111779,1,2,1:2:0:0:
301,278,111957,1,8,0:0:0:0:
114,117,112134,22,0,B|38:139|1:240|114:294|129:185|82:188,1,220.999989883423,6|2,1:2|1:2,0:0:0:0:
68,337,112667,2,0,P|140:332|169:287,1,110.499994941712,10|2,0:0|1:2,0:0:0:0:
304,175,113022,1,10,0:0:0:0:
279,166,113111,1,8,0:0:0:0:
255,156,113199,1,8,0:0:0:0:
55,58,113377,1,10,0:0:0:0:
80,49,113466,1,8,0:0:0:0:
104,39,113554,1,8,0:0:0:0:
225,271,113732,5,6,1:2:0:0:
198,26,113909,1,0,1:0:0:0:
30,174,114087,1,8,0:0:0:0:
251,107,114265,2,0,B|313:78|378:113|351:131|419:170|491:127,1,229.499992996216,0|0,1:0|0:0,0:0:0:0:
425,59,114620,1,2,1:2:0:0:
302,186,114797,1,10,0:2:0:0:
394,326,114975,6,0,P|459:276|445:198,1,152.999995330811,2|0,1:2|1:0,0:0:0:0:
212,206,115330,2,0,P|212:279|274:320,1,152.999995330811,2|8,1:2|0:0,0:0:0:0:
425,59,115685,2,0,B|386:47|366:2|366:2|389:90|378:174,1,229.499992996216,2|0,1:2|0:0,0:0:0:0:
412,277,116040,2,0,B|443:281|464:304|464:304|448:246|459:162,2,152.999995330811,2|8|0,1:2|0:0|1:0,0:0:0:0:
258,140,116572,38,0,P|186:174|135:315,1,229.499992996216,2|0,1:2|0:0,0:0:0:0:
201,356,116927,1,8,0:0:0:0:
50,189,117105,2,0,P|161:200|234:284,1,229.499992996216,0|0,1:0|0:0,0:0:0:0:
203,369,117460,1,2,1:2:0:0:
141,114,117637,1,10,0:2:0:0:
307,222,117815,86,0,P|396:229|405:152,1,152.999995330811,2|0,0:0|1:0,0:0:0:0:
227,37,118170,2,0,P|141:63|162:138,1,152.999995330811,2|8,1:2|0:0,0:0:0:0:
188,223,118525,2,0,P|257:133|361:78,1,229.499992996216,2|0,1:2|0:0,0:0:0:0:
453,79,118880,1,2,1:2:0:0:
140,113,119057,1,8,0:0:0:0:
227,37,119235,1,0,1:0:0:0:
328,213,119412,5,0,1:0:0:0:
357,78,119590,1,2,0:0:0:0:
465,164,119767,2,0,P|403:208|328:213,1,152.999995330811,10|0,0:0|1:0,0:0:0:0:
55,155,120123,69,0,0:0:0:0:
34,372,120300,1,0,1:0:0:0:
229,308,120478,2,0,P|145:253|76:270,1,152.999995330811,8|2,0:0|0:0,0:0:0:0:
269,381,120833,5,0,1:0:0:0:
366,276,121010,1,2,1:2:0:0:
226,162,121188,1,8,0:0:0:0:
343,357,121365,2,0,P|441:317|423:213,1,229.499992996216,2|0,1:2|0:0,0:0:0:0:
307,164,121720,2,0,P|350:222|422:212,1,152.999995330811,2|8,1:2|0:0,0:0:0:0:
269,75,122075,1,2,1:2:0:0:
173,222,122253,37,0,1:2:0:0:
281,267,122430,1,0,1:0:0:0:
166,384,122608,1,8,0:0:0:0:
224,159,122785,86,0,B|170:109|99:152|137:178|66:218|5:172,1,229.499992996216,2|0,1:2|0:0,0:0:0:0:
57,109,123140,1,0,1:0:0:0:
202,304,123318,1,8,0:0:0:0:
53,362,123495,1,2,1:2:0:0:
74,184,123673,1,2,1:2:0:0:
173,222,123850,1,0,1:0:0:0:
20,269,124028,1,8,0:0:0:0:
241,372,124205,6,0,P|255:280|432:279,1,229.499992996216,0|0,1:0|0:0,0:0:0:0:
402,313,124560,69,10,0:0:0:0:
349,324,124649,1,8,0:0:0:0:
296,313,124738,1,8,0:0:0:0:
255,278,124827,1,8,0:0:0:0:
211,247,124915,1,10,0:0:0:0:
158,236,125004,1,8,0:0:0:0:
105,256,125093,5,6,1:2:0:0:
187,99,125270,1,0,1:0:0:0:
163,328,125448,1,8,0:0:0:0:
11,124,125625,2,0,P|62:52|190:105,1,242.249993531227,0|0,1:0|0:0,0:0:0:0:
300,143,125980,2,0,P|379:112|384:24,1,161.499995687485,2|10,1:2|0:2,0:0:0:0:
103,128,126336,38,0,P|145:175|147:296,1,161.499995687485,2|0,1:2|1:0,0:0:0:0:
414,355,126691,2,0,P|418:275|467:213,1,161.499995687485,2|8,1:2|0:0,0:0:0:0:
220,340,127046,2,0,B|168:386|87:366|124:312|44:289|-13:353,1,242.249993531227,2|0,1:2|0:0,0:0:0:0:
156,269,127401,2,0,P|187:202|122:219,1,161.499995687485,2|8,1:2|0:0,0:0:0:0:
298,384,127756,1,2,1:2:0:0:
300,143,127933,86,0,B|305:65|433:37|485:115|405:185|362:134|379:101,1,242.249993531227,0|0,1:0|0:0,0:0:0:0:
236,81,128288,2,0,P|216:44|235:-10,1,80.7499978437424,8|0,0:0|0:0,0:0:0:0:
401,5,128466,1,0,1:0:0:0:
212,162,128643,1,0,0:0:0:0:
429,317,128821,2,0,P|474:302|485:258,1,80.7499978437424,2|0,1:2|0:0,0:0:0:0:
350,215,128998,2,0,P|281:233|286:353,1,161.499995687485,10|2,0:2|0:0,0:0:0:0:
432,158,129353,5,0,1:0:0:0:
316,368,129531,1,2,1:2:0:0:
512,300,129708,1,8,0:0:0:0:
267,271,129886,2,0,P|243:188|348:234,1,242.249993531227,2|0,1:2|0:0,0:0:0:0:
304,339,130241,2,0,P|265:350|228:338,1,80.7499978437424,2|0,1:2|0:0,0:0:0:0:
70,235,130418,69,8,0:0:0:0:
14,263,130507,1,8,0:0:0:0:
16,325,130596,2,0,P|39:355|107:353,1,80.7499978437424,0|0,1:0|0:0,0:0:0:0:
222,86,130773,5,0,1:0:0:0:
145,326,130951,1,2,0:0:0:0:
22,166,131128,2,0,B|56:130|116:142|87:171|146:175|175:140,1,161.499995687485,10|0,0:0|1:0,0:0:0:0:
124,1,131483,1,0,0:0:0:0:
230,73,131661,1,0,1:0:0:0:
67,236,131838,1,8,0:0:0:0:
145,326,132016,1,2,0:0:0:0:
356,138,132194,38,0,P|299:72|189:108,1,161.499995687485,0|2,1:0|1:2,0:0:0:0:
290,302,132549,1,8,0:0:0:0:
445,131,132726,2,0,B|394:97|312:132|363:172|290:217|214:169,1,242.249993531227,2|0,1:2|0:0,0:0:0:0:
407,200,133081,2,0,P|435:242|357:231,1,161.499995687485,2|8,1:2|0:0,0:0:0:0:
391,41,133436,1,2,1:2:0:0:
142,200,133614,85,4,1:2:0:0:
356,138,133791,1,0,1:0:0:0:
192,5,133969,1,8,0:0:0:0:
290,302,134146,2,0,B|262:354|204:388|113:338|110:254|227:245|218:293,1,242.249993531227,2|0,1:2|0:0,0:0:0:0:
362,359,134501,1,0,1:0:0:0:
84,359,134679,1,8,0:0:0:0:
275,220,134856,2,0,B|303:168|361:134|452:184|455:268|338:277|347:229,1,242.249993531227,2|0,1:2|0:0,0:0:0:0:
205,271,135211,2,0,P|179:228|190:188,1,80.7499978437424,0|0,1:0|0:0,0:0:0:0:
222,4,135389,5,8,0:0:0:0:
288,21,135478,1,8,0:0:0:0:
313,85,135566,2,0,P|241:48|156:38,1,161.499995687485,0|0,1:0|1:0,0:0:0:0:
28,173,135921,69,8,0:0:0:0:
2,231,136010,1,8,0:0:0:0:
33,292,136099,2,0,P|47:246|109:187,1,80.7499978437424,8|0,0:0|0:0,0:0:0:0:
150,126,136276,2,0,P|172:160|183:199,1,80.7499978437424,0|0,1:0|0:0,0:0:0:0:
147,341,136454,5,4,1:2:0:0:
51,88,136631,1,0,1:0:0:0:
275,220,136809,2,0,P|370:190|371:94,1,170,10|0,0:0|1:0,0:0:0:0:
132,28,137164,1,2,1:2:0:0:
305,144,137341,1,2,1:2:0:0:
87,236,137519,1,8,0:0:0:0:
243,43,137696,38,0,B|329:-2|393:69|354:99|436:166|540:116,1,255,2|0,1:2|0:0,0:0:0:0:
430,35,138051,2,0,P|357:79|305:145,1,170,2|8,1:2|0:0,0:0:0:0:
400,331,138407,1,2,1:2:0:0:
505,62,138584,85,0,1:0:0:0:
512,237,138762,1,2,1:2:0:0:
305,144,138939,1,10,0:0:0:0:
501,255,139117,1,0,1:0:0:0:
285,310,139294,2,0,P|199:271|211:187,1,170,0|0,1:0|1:0,0:0:0:0:
406,0,139649,6,0,P|334:45|254:75,1,170,10|0,0:0|0:0,0:0:0:0:
64,97,140004,1,2,1:2:0:0:
305,144,140182,1,2,1:2:0:0:
77,254,140359,1,8,0:0:0:0:
185,41,140537,2,0,B|178:-3|90:3|81:100|147:172,1,170,2|0,1:2|0:0,0:0:0:0:
271,269,140892,2,0,B|310:289|357:214|284:150|187:161,1,170,2|8,1:2|0:0,0:0:0:0:
71,280,141247,2,0,B|-10:277|15:366|96:380|178:306|157:231,1,255,2|0,1:2|0:0,0:0:0:0:
33,178,141602,2,0,P|29:164|29:185,1,85,2|0,1:2|0:0,0:0:0:0:
174,180,141779,69,8,0:0:0:0:
224,196,141868,1,8,0:0:0:0:
273,194,141957,2,0,P|316:178|334:121,1,85,10|0,0:0|0:0,0:0:0:0:
276,77,142134,5,0,1:2:0:0:
217,332,142312,1,0,1:0:0:0:
71,120,142489,2,0,B|82:69|140:56|134:92|192:79|203:28,1,170,10|0,0:0|1:0,0:0:0:0:
64,200,142844,2,0,P|-1:166|0:77,1,170,2|0,1:2|1:0,0:0:0:0:
177,13,143199,1,8,0:0:0:0:
374,219,143377,38,0,B|420:215|416:136|341:105|257:167|285:264,1,255,2|0,1:2|0:0,0:0:0:0:
362,317,143732,1,0,1:0:0:0:
444,108,143909,1,10,0:0:0:0:
263,343,144087,2,0,B|194:401|103:349|101:268|172:232|194:273,1,255,2|0,1:2|0:0,0:0:0:0:
282,253,144442,1,0,1:0:0:0:
75,370,144620,1,8,0:0:0:0:
80,194,144797,1,2,1:2:0:0:
282,253,144975,86,0,P|375:241|374:157,1,170,2|0,1:2|0:0,0:0:0:0:
267,55,145330,1,8,0:0:0:0:
162,231,145507,1,2,0:0:0:0:
385,178,145685,5,0,1:0:0:0:
143,48,145862,1,0,1:0:0:0:
282,253,146040,1,8,0:0:0:0:
382,31,146217,1,0,1:0:0:0:
108,164,146395,2,0,B|167:119|235:158|216:194|293:234|357:189,1,255
257,148,146750,69,8,0:0:0:0:
187,165,146838,1,8,0:0:0:0:
162,231,146927,2,0,P|151:274|174:323,1,85,8|0,3:0|0:0,0:0:0:0:
356,336,147105,2,0,P|315:264|217:283,1,170,10|8,0:0|0:0,0:0:0:0:
163,311,147371,2,0,P|82:312|43:241,1,170,8|0,0:0|0:0,0:0:0:0:
0,112,147637,1,10,0:0:0:0:
56,126,147726,1,8,0:0:0:0:
115,142,147815,5,4,1:2:0:0:
7,368,147992,1,0,1:0:0:0:
45,45,148170,1,8,0:0:0:0:
163,311,148347,1,0,1:0:0:0:
19,190,148525,37,0,1:0:0:0:
115,142,148702,1,0,1:0:0:0:
106,237,148880,1,8,0:0:0:0:
270,53,149057,86,0,B|348:23|382:142|292:193|174:132,1,267.749991828919,0|0,1:0|0:0,0:0:0:0:
128,54,149412,1,0,1:0:0:0:
294,237,149590,1,8,0:0:0:0:
106,342,149767,2,0,B|43:372|30:216|178:240,1,178.499994552612,2|0,1:2|1:0,0:0:0:0:
339,309,150123,1,2,1:2:0:0:
215,180,150300,1,8,0:0:0:0:
132,238,150478,1,0,1:0:0:0:
235,26,150655,5,2,1:2:0:0:
308,123,150833,1,0,1:0:0:0:
481,15,151010,1,8,0:0:0:0:
412,124,151188,1,0,1:0:0:0:
358,24,151365,1,0,1:0:0:0:
364,217,151543,1,0,1:0:0:0:
171,127,151720,1,8,0:0:0:0:
106,342,151898,70,0,B|57:356|24:277|67:218|168:240|132:287|182:312|241:287,1,267.749991828919,0|0,1:0|0:0,0:0:0:0:
205,220,152253,1,2,1:2:0:0:
82,145,152430,1,8,0:0:0:0:
43,245,152608,1,2,1:2:0:0:
302,250,152785,5,0,1:0:0:0:
283,130,152963,1,0,1:0:0:0:
43,245,153140,1,8,0:0:0:0:
86,363,153318,1,0,1:0:0:0:
177,133,153495,37,2,1:2:0:0:
228,291,153673,1,0,1:0:0:0:
456,147,153850,1,8,0:0:0:0:
374,294,154028,1,0,1:0:0:0:
295,168,154205,1,0,1:0:0:0:
462,241,154383,1,0,1:0:0:0:
304,380,154560,1,8,0:0:0:0:
424,129,154738,86,0,P|414:22|340:99,1,267.749991828919,0|0,1:0|0:0,0:0:0:0:
381,192,155093,2,0,P|426:208|482:177,1,89.2499972763062,0|0,1:0|0:0,0:0:0:0:
420,1,155270,1,8,0:0:0:0:
310,241,155448,1,2,1:2:0:0:
137,21,155625,5,0,1:0:0:0:
260,39,155803,1,2,1:2:0:0:
237,161,155980,1,8,0:0:0:0:
113,139,156158,1,0,1:0:0:0:
386,272,156336,69,2,1:2:0:0:
188,89,156513,1,0,1:0:0:0:
219,254,156691,1,10,0:2:0:0:
381,192,156868,1,2,1:2:0:0:
163,357,157046,5,0,1:0:0:0:
113,139,157223,1,0,1:0:0:0:
298,292,157401,1,10,0:2:0:0:
332,43,157578,2,0,B|406:1|514:79|514:79|454:82|428:137,1,267.749991828919,2|0,1:2|0:0,0:0:0:0:
334,220,157933,2,0,P|293:201|272:163,1,89.2499972763062,0|0,1:0|0:0,0:0:0:0:
450,320,158111,37,8,0:0:0:0:
332,43,158288,1,0,1:0:0:0:
211,296,158466,1,0,1:0:0:0:
485,143,158643,1,8,0:0:0:0:
182,133,158821,85,8,0:0:0:0:
147,176,158909,1,8,3:0:0:0:
177,223,158998,1,8,3:0:0:0:
231,211,159087,1,8,3:0:0:0:
237,155,159176,1,8,1:2:0:0:
