osu file format v14

[General]
AudioFilename: audio.mp3
AudioLeadIn: 0
PreviewTime: 75004
Countdown: 0
SampleSet: Soft
StackLeniency: 0.9
Mode: 0
LetterboxInBreaks: 0
WidescreenStoryboard: 1

[Editor]
Bookmarks: 4,3065,6535,9596,13065,26127,39188,52249,75106,88167,104494,130616,143678,157147,169800
DistanceSpacing: 1
BeatDivisor: 4
GridSize: 4
TimelineZoom: 2.1

[Metadata]
Title:Tek It
TitleUnicode:Tek It
Artist:Cafune
ArtistUnicode:Cafuné
Creator:sharpay
Version:normal
Source:
Tags:renumi hewwo ralsei indie alternative pop english tiktok tik tok running
BeatmapID:3910935
BeatmapSetID:1802533

[Difficulty]
HPDrainRate:3
CircleSize:3
OverallDifficulty:5
ApproachRate:5
SliderMultiplier:1.02
SliderTickRate:1

[Events]
//Background and Video events
0,0,"alena-aenami-004-1k1.jpg",0,0
//Break Periods
2,104694,116355
//Storyboard Layer 0 (Background)
//Storyboard Layer 1 (Fail)
//Storyboard Layer 2 (Pass)
//Storyboard Layer 3 (Foreground)
//Storyboard Layer 4 (Overlay)
//Storyboard Sound Samples

[TimingPoints]
-1628,408.163265306122,4,2,1,70,1,0
3065,-100,4,2,1,50,0,0
6535,-100,4,2,1,70,0,0
9596,-100,4,2,1,50,0,0
26127,-100,4,2,1,70,0,0
52249,-100,4,2,1,40,0,0
65310,-100,4,2,1,50,0,0
75106,-100,4,2,1,70,0,0
104494,-100,4,2,1,60,0,0
130616,-90.9090909090909,4,2,1,70,0,0
182861,-90.9090909090909,4,2,1,50,0,0

[Colours]
Combo1 : 91,142,236
Combo2 : 228,41,41
Combo3 : 244,151,57
Combo4 : 167,126,182

[HitObjects]
511,384,4,5,6,1:2:0:0:
163,300,1433,1,6,1:2:0:0:
490,57,3065,1,6,1:2:0:0:
359,137,3678,6,0,P|306:127|255:116,1,102,8|0,0:0|1:2,0:0:0:0:
219,84,4290,2,0,P|186:88|148:95,1,51,0|8,1:2|0:0,0:0:0:0:
129,124,4698,1,0,0:0:0:0:
4,212,5310,2,0,P|-9:266|16:324,1,102,8|0,0:0|1:2,0:0:0:0:
33,351,5923,2,0,L|84:338,1,51,0|8,1:2|0:0,0:0:0:0:
176,378,6535,5,6,1:2:0:0:
484,198,7963,1,6,1:2:0:0:
255,0,9596,1,6,1:2:0:0:
109,47,10208,6,0,P|116:96|123:157,1,102,8|0,0:0|1:2,0:0:0:0:
149,191,10820,1,0,1:2:0:0:
119,288,11229,2,0,B|129:345|129:345|179:338,1,102,2|0,0:0|0:0,0:0:0:0:
212,307,11841,2,0,L|318:326,1,102,8|0,0:0|1:2,0:0:0:0:
362,317,12453,1,0,1:2:0:0:
362,317,12657,1,10,0:0:0:0:
439,251,13065,6,0,P|470:186|460:143,1,102,6|10,1:2|0:0,0:0:0:0:
446,63,13882,1,0,1:2:0:0:
446,63,14086,2,0,P|413:82|396:105,1,51,2|10,1:2|0:0,0:0:0:0:
371,129,14494,2,0,P|289:143|207:159,1,153,2|8,1:2|0:0,0:0:0:0:
161,78,15514,1,0,1:2:0:0:
161,78,15718,2,0,L|108:100,1,51,2|8,1:2|0:0,0:0:0:0:
74,132,16127,6,0,B|76:231|108:191|108:296,1,153,2|8,1:2|0:0,0:0:0:0:
67,375,17147,1,0,1:2:0:0:
67,375,17351,1,2,1:2:0:0:
166,351,17759,2,0,B|202:345|241:327|241:327|275:361|307:374,1,153,2|8,1:2|0:0,0:0:0:0:
377,304,18780,2,0,P|384:279|389:251,2,51,0|0|8,1:2|1:2|0:0,0:0:0:0:
409,352,19392,1,2,1:2:0:0:
409,352,19596,6,0,P|460:353|494:309,1,102,2|8,1:2|0:0,0:0:0:0:
480,220,20412,1,0,1:2:0:0:
480,220,20616,2,0,P|455:209|431:187,1,51,2|8,1:2|0:0,0:0:0:0:
402,155,21025,2,0,L|383:36,1,102,0|0,1:2|0:0,0:0:0:0:
351,15,21637,1,10,0:0:0:0:
272,79,22045,1,0,1:2:0:0:
272,79,22249,2,0,P|254:58|228:34,1,51,0|10,1:2|0:0,0:0:0:0:
197,9,22657,2,0,P|129:14|106:46,1,102,2|0,1:2|0:0,0:0:0:0:
91,84,23269,1,8,0:0:0:0:
137,181,23678,101,0,1:2:0:0:
137,181,23882,2,0,L|191:187,1,51,0|8,1:2|0:0,0:0:0:0:
232,161,24290,2,0,L|385:142,1,153,0|8,1:2|0:0,0:0:0:0:
470,196,25310,1,0,1:2:0:0:
470,196,25514,2,0,P|469:228|461:245,1,51,0|8,1:2|3:0,0:0:0:0:
434,288,25923,1,8,3:0:0:0:
434,288,26127,6,0,B|334:309|275:231|305:211|236:171|147:195,1,306,6|8,1:2|0:0,0:0:0:0:
124,228,27555,1,2,1:2:0:0:
47,170,27963,1,0,1:2:0:0:
47,170,28167,2,0,P|29:109|64:71,1,102,8|0,0:0|1:2,0:0:0:0:
153,72,28984,69,10,0:0:0:0:
153,72,29188,2,0,P|327:45|512:23,1,357,2|8,1:2|0:0,0:0:0:0:
506,75,30820,2,0,L|486:176,1,102,2|2,1:2|1:2,0:0:0:0:
458,218,31433,1,8,0:0:0:0:
458,218,31637,1,2,1:2:0:0:
462,324,32045,1,2,1:2:0:0:
462,324,32249,2,0,L|403:319,1,51,8|0,0:0|0:0,0:0:0:0:
361,312,32657,6,0,B|307:298|324:284|253:266,1,102,6|8,1:2|0:0,0:0:0:0:
193,339,33474,1,0,1:2:0:0:
193,339,33678,2,0,P|168:342|135:349,1,51,0|8,1:2|0:0,0:0:0:0:
98,372,34086,2,0,P|65:345|63:285,1,102,2|2,1:2|1:2,0:0:0:0:
87,246,34698,1,8,0:0:0:0:
87,246,34902,2,0,P|104:201|70:137,1,102,2|2,1:2|1:2,0:0:0:0:
129,63,35718,1,2,1:2:0:0:
129,63,35923,6,0,B|179:69|212:37|212:37|310:7|427:90,1,306,4|8,1:2|0:0,0:0:0:0:
411,136,37351,1,2,1:2:0:0:
411,136,37555,2,0,B|365:251|365:251|176:300,1,306,0|8,1:2|0:0,0:0:0:0:
99,246,39188,6,0,B|107:136|54:168|72:46,1,204,6|0,1:2|1:2,0:0:0:0:
102,5,40208,2,0,L|165:18,1,51,0|8,1:2|0:0,0:0:0:0:
189,49,40616,2,0,L|303:35,1,102,2|0,1:2|1:2,0:0:0:0:
335,60,41229,1,8,0:0:0:0:
418,128,41637,1,0,1:2:0:0:
418,128,41841,2,0,L|429:179,1,51,0|8,1:2|0:0,0:0:0:0:
464,214,42249,6,0,P|487:264|477:314,1,102,2|2,1:2|0:0,0:0:0:0:
467,358,42861,1,10,0:0:0:0:
371,383,43269,1,0,1:2:0:0:
371,383,43474,2,0,L|312:366,1,51,2|8,1:2|0:0,0:0:0:0:
277,343,43882,2,0,P|260:294|271:237,1,102,2|2,1:2|1:2,0:0:0:0:
301,208,44494,1,8,0:0:0:0:
301,208,44698,1,2,1:2:0:0:
336,112,45106,1,2,1:2:0:0:
336,112,45310,2,0,P|307:106|270:99,1,51,8|0,0:0|1:2,0:0:0:0:
241,78,45718,6,0,L|119:47,1,102,6|10,1:2|0:0,0:0:0:0:
37,96,46535,2,0,P|19:57|22:29,2,51,2|0|10,1:2|1:2|0:0,0:0:0:0:
75,129,47147,2,0,P|67:176|60:250,1,102,2|2,1:2|1:2,0:0:0:0:
43,277,47759,1,8,0:0:0:0:
80,371,48167,2,0,L|17:386,2,51,0|2|8,1:2|1:2|0:0,0:0:0:0:
126,346,48780,1,2,1:2:0:0:
126,346,48984,6,0,L|338:377,1,204,4|0,1:2|1:2,0:0:0:0:
411,316,50208,1,8,0:0:0:0:
411,316,50412,2,0,P|445:258|434:209,1,102,6|0,1:2|1:2,0:0:0:0:
428,176,51025,2,0,L|415:126,2,51,8|0|0,0:0|1:2|1:2,0:0:0:0:
334,217,51841,2,0,L|284:204,1,51,8|0,0:0|1:2,0:0:0:0:
248,168,52249,6,0,P|176:173|141:201,1,102,6|10,1:2|0:0,0:0:0:0:
84,264,53065,2,0,L|31:255,1,51,2|2,0:0|1:2,0:0:0:0:
0,158,53678,1,2,0:0:0:0:
27,59,54086,1,2,1:2:0:0:
27,59,54290,2,0,P|43:43|71:32,1,51,8|2,0:0|0:0,0:0:0:0:
114,4,54698,2,0,L|238:28,1,102,2|10,0:0|0:0,0:0:0:0:
279,101,55514,6,0,P|359:89|396:82,1,102,2|10,1:2|0:0,0:0:0:0:
482,117,56331,1,2,0:0:0:0:
482,117,56535,2,0,P|478:150|471:183,1,51,2|8,1:2|0:0,0:0:0:0:
472,218,56943,2,0,L|492:328,2,102,2|2|2,0:0|1:2|0:0,0:0:0:0:
381,164,58167,1,2,1:2:0:0:
381,164,58371,1,10,0:0:0:0:
285,200,58780,5,2,1:2:0:0:
184,183,59188,1,10,0:0:0:0:
112,121,59596,1,2,0:0:0:0:
112,121,59800,1,2,1:2:0:0:
37,190,60208,2,0,P|12:251|22:295,1,102,2|2,0:0|1:2,0:0:0:0:
74,370,61025,2,0,B|128:353|113:347|180:330,1,102,2|0,0:0|1:2,0:0:0:0:
210,362,61637,1,10,0:0:0:0:
311,375,62045,5,2,1:2:0:0:
400,326,62453,1,10,0:0:0:0:
362,231,62861,2,0,P|336:228|309:224,2,51,2|0|10,0:0|1:2|0:0,0:0:0:0:
410,215,63474,2,0,P|424:170|402:103,1,102,2|0,0:0|1:2,0:0:0:0:
358,37,64290,1,2,0:0:0:0:
358,37,64494,2,0,L|423:23,2,51,2|0|10,0:0|1:2|0:0,0:0:0:0:
259,10,65310,6,0,P|211:21|154:32,1,102,6|8,1:2|0:0,0:0:0:0:
120,64,65923,1,2,0:0:0:0:
48,136,66331,2,0,L|61:189,1,51,2|8,1:2|0:0,0:0:0:0:
95,222,66739,2,0,P|62:281|76:329,2,102,2|2|2,0:0|1:2|0:0,0:0:0:0:
140,197,67759,1,0,1:2:0:0:
140,197,67963,1,2,1:2:0:0:
234,236,68371,6,0,P|280:225|343:213,1,102,2|2,0:0|0:0,0:0:0:0:
386,202,68984,1,8,0:0:0:0:
386,202,69188,1,2,1:2:0:0:
481,245,69596,1,2,1:2:0:0:
441,338,70004,2,0,P|383:372|328:367,1,102,2|2,0:0|1:2,0:0:0:0:
319,338,70616,1,8,0:0:0:0:
319,338,70820,1,2,1:2:0:0:
224,377,71229,1,2,1:2:0:0:
131,333,71637,22,0,P|103:286|114:225,1,102,2|2,0:0|0:0,0:0:0:0:
136,199,72249,2,0,P|140:157|131:135,1,51,8|2,0:0|0:0,0:0:0:0:
105,117,72657,1,0,1:2:0:0:
105,117,72861,1,2,1:2:0:0:
23,55,73269,1,2,1:2:0:0:
111,3,73678,1,2,1:2:0:0:
182,76,74086,2,0,L|238:87,1,51,2|0,1:2|1:2,0:0:0:0:
269,120,74494,2,0,L|325:109,1,51,8|8,0:0|0:0,0:0:0:0:
362,82,74902,1,8,0:0:0:0:
362,82,75106,6,0,P|429:108|433:311,1,306,6|8,1:2|0:0,0:0:0:0:
405,354,76535,2,0,B|328:375|255:319|301:291|221:231|121:263,1,306,2|0,1:2|1:2,0:0:0:0:
82,261,77963,1,10,0:0:0:0:
65,160,78371,6,0,B|146:140|146:140|178:103|178:103|302:73,1,255,6|0,1:2|1:2,0:0:0:0:
350,90,79596,1,8,0:0:0:0:
350,90,79800,2,0,P|422:107|450:132,1,102,2|2,1:2|1:2,0:0:0:0:
462,177,80412,1,8,0:0:0:0:
462,177,80616,1,2,1:2:0:0:
400,259,81025,1,2,1:2:0:0:
400,259,81229,2,0,P|399:289|378:320,1,51,8|2,0:0|0:0,0:0:0:0:
355,350,81637,2,0,P|303:346|239:338,1,102,4|8,1:2|0:0,0:0:0:0:
162,384,82453,1,0,1:2:0:0:
162,384,82657,1,0,1:2:0:0:
74,332,83065,6,0,P|48:273|59:229,1,102,2|2,1:2|1:2,0:0:0:0:
83,195,83678,1,8,0:0:0:0:
83,195,83882,2,0,P|86:140|52:98,1,102,2|2,1:2|1:2,0:0:0:0:
102,13,84698,1,2,1:2:0:0:
102,13,84902,6,0,B|194:3|269:78|227:92|283:162|372:154,1,306,4|8,1:2|0:0,0:0:0:0:
400,129,86331,1,2,1:2:0:0:
400,129,86535,2,0,P|434:188|317:375,1,306,0|8,1:2|0:0,0:0:0:0:
287,353,87963,1,0,1:2:0:0:
287,353,88167,6,0,B|229:337|190:299|190:299|190:343|143:380,1,204,6|0,1:2|1:2,0:0:0:0:
96,382,89187,2,0,L|33:369,1,51,0|8,1:2|0:0,0:0:0:0:
16,330,89596,1,2,1:2:0:0:
84,254,90004,1,0,1:2:0:0:
49,158,90412,2,0,P|20:163|-15:172,2,51,0|0|0,1:2|1:2|1:2,0:0:0:0:
86,122,91025,2,0,L|153:136,1,51,8|2,0:0|1:2,0:0:0:0:
170,175,91433,6,0,P|226:164|277:153,1,102,4|8,1:2|0:0,0:0:0:0:
315,63,92249,2,0,P|322:19|330:6,1,51,0|2,1:2|1:2,0:0:0:0:
372,11,92657,1,8,0:0:0:0:
372,11,92861,1,2,1:2:0:0:
456,67,93269,1,2,1:2:0:0:
420,162,93678,1,2,1:2:0:0:
336,218,94086,2,0,P|326:284|346:324,1,102,2|0,1:2|1:2,0:0:0:0:
381,344,94698,5,6,1:2:0:0:
479,368,95106,1,10,0:0:0:0:
500,268,95514,2,0,L|481:159,1,102,2|10,1:2|0:0,0:0:0:0:
443,134,96127,2,0,L|460:33,1,102,2|2,1:2|1:2,0:0:0:0:
426,0,96739,1,8,0:0:0:0:
426,0,96943,1,2,1:2:0:0:
358,76,97351,2,0,L|301:86,1,51,2|8,1:2|0:0,0:0:0:0:
261,97,97759,1,2,1:2:0:0:
261,97,97963,6,0,P|208:86|158:77,1,102,4|8,1:2|0:0,0:0:0:0:
68,48,98780,1,0,1:2:0:0:
68,48,98984,2,0,L|60:104,1,51,2|8,1:2|0:0,0:0:0:0:
35,142,99392,1,6,1:2:0:0:
10,244,99800,1,0,1:2:0:0:
10,244,100004,2,0,L|65:236,1,51,8|0,0:0|1:2,0:0:0:0:
104,261,100412,2,0,L|96:316,2,51,0|0|8,1:2|1:2|0:0,0:0:0:0:
151,237,101025,1,0,1:2:0:0:
151,237,101229,6,0,L|269:211,1,102,6|8,1:2|0:0,0:0:0:0:
334,155,102045,1,0,1:2:0:0:
334,155,102249,2,0,L|386:166,1,51,2|8,1:2|0:0,0:0:0:0:
432,148,102657,2,0,P|460:115|453:48,1,102,6|0,1:2|1:2,0:0:0:0:
424,30,103269,1,8,0:0:0:0:
424,30,103474,1,0,1:2:0:0:
334,74,103882,1,8,3:0:0:0:
334,74,104086,2,0,L|272:56,2,51,8|0|4,3:0|1:2|1:2,0:0:0:0:
511,313,117555,6,0,P|476:299|417:321,1,102,4|8,1:2|0:0,0:0:0:0:
378,353,118167,2,0,P|339:361|278:332,1,102,0|0,0:0|1:2,0:0:0:0:
206,270,118984,2,0,B|129:248|160:237|47:215,1,153,4|8,1:2|0:0,0:0:0:0:
30,178,119800,1,0,1:2:0:0:
30,178,120004,2,0,P|21:155|27:123,1,51,0|0,1:2|1:2,0:0:0:0:
52,86,120412,1,8,0:0:0:0:
130,20,120820,6,0,P|185:35|247:48,1,102,4|8,1:2|0:0,0:0:0:0:
264,81,121433,2,0,P|319:65|381:53,1,102,0|0,0:0|1:2,0:0:0:0:
411,72,122045,1,8,0:0:0:0:
458,92,122249,2,0,P|497:154|466:237,1,153,4|8,1:2|0:0,0:0:0:0:
445,267,123065,1,0,1:2:0:0:
445,267,123269,1,0,1:2:0:0:
346,294,123678,1,8,0:0:0:0:
244,303,124086,6,0,P|220:253|235:194,1,102,4|8,1:2|0:0,0:0:0:0:
261,171,124698,1,0,0:0:0:0:
287,78,125106,1,0,1:2:0:0:
287,78,125310,1,8,0:0:0:0:
287,78,125514,2,0,P|236:75|178:62,1,102,4|0,1:2|1:2,0:0:0:0:
139,85,126127,2,0,P|147:115|153:139,1,51,8|0,0:0|1:2,0:0:0:0:
170,181,126535,1,0,1:2:0:0:
108,262,126943,2,0,P|109:299|125:323,1,51,8|0,0:0|1:2,0:0:0:0:
146,353,127351,6,0,L|217:368,1,51,4|0,1:2|1:2,0:0:0:0:
244,342,127759,1,8,0:0:0:0:
244,342,127963,2,0,L|302:331,1,51,0|0,1:2|1:2,0:0:0:0:
339,355,128371,1,0,1:2:0:0:
437,328,128780,1,4,1:2:0:0:
402,239,129188,1,0,1:2:0:0:
402,239,129392,2,0,P|397:215|399:184,1,51,8|0,0:0|1:2,0:0:0:0:
420,145,129800,1,8,3:0:0:0:
420,145,130004,2,0,L|473:135,2,51,8|8|8,3:0|3:0|3:0,0:0:0:0:
394,95,130616,6,0,P|338:68|280:76,1,112.200003424072,6|8,1:2|0:0,0:0:0:0:
244,105,131229,2,0,P|188:132|130:124,1,112.200003424072,0|2,1:2|1:2,0:0:0:0:
93,106,131841,1,10,0:0:0:0:
93,106,132045,2,0,P|35:129|9:189,1,112.200003424072,2|2,1:2|1:2,0:0:0:0:
111,225,132861,1,2,1:2:0:0:
23,294,133269,1,2,1:2:0:0:
99,383,133678,1,2,1:2:0:0:
99,383,133882,6,0,L|282:351,1,168.300005136109,0|0,1:2|1:2,0:0:0:0:
365,304,134902,2,0,L|421:314,1,56.1000017120362,2|10,1:2|0:0,0:0:0:0:
467,283,135310,1,2,1:2:0:0:
449,172,135718,1,2,1:2:0:0:
420,63,136127,2,0,L|355:44,1,56.1000017120362,2|0,1:2|0:0,0:0:0:0:
330,4,136535,2,0,P|275:11|196:32,1,112.200003424072,2|0,1:2|1:2,0:0:0:0:
167,125,137351,1,2,1:2:0:0:
167,125,137555,2,0,P|238:138|340:171,1,168.300005136109,10|0,0:0|1:2,0:0:0:0:
372,210,138371,1,8,0:0:0:0:
372,210,138576,6,0,P|381:244|342:320,1,112.200003424072,2|2,1:2|1:2,0:0:0:0:
300,334,139188,1,8,0:0:0:0:
300,334,139392,1,2,1:2:0:0:
198,285,139800,1,2,1:2:0:0:
99,243,140208,1,2,1:2:0:0:
99,243,140412,6,0,P|95:190|79:127,1,112.200003424072,0|8,1:2|0:0,0:0:0:0:
73,76,141025,1,2,1:2:0:0:
163,8,141433,1,0,1:2:0:0:
163,8,141637,2,0,L|226:20,2,56.1000017120362,8|2|0,0:0|1:2|1:2,0:0:0:0:
204,121,142453,1,8,0:0:0:0:
204,121,142657,1,0,1:2:0:0:
291,190,143065,2,0,L|351:177,1,56.1000017120362,10|8,0:0|0:0,0:0:0:0:
381,135,143474,1,10,0:0:0:0:
381,135,143678,5,4,1:2:0:0:
482,188,144086,1,8,0:0:0:0:
489,356,144698,2,0,P|459:348|422:341,1,56.1000017120362,2|10,1:2|0:0,0:0:0:0:
383,320,145106,1,2,1:2:0:0:
281,366,145514,1,2,1:2:0:0:
176,325,145923,1,2,1:2:0:0:
130,222,146331,2,0,P|136:175|145:148,1,56.1000017120362,2|8,1:2|0:0,0:0:0:0:
172,122,146739,2,0,P|259:135|327:82,1,168.300005136109,2|8,1:2|0:0,0:0:0:0:
346,40,147555,1,0,1:2:0:0:
239,3,147963,6,0,L|181:12,1,56.1000017120362,2|10,1:2|0:0,0:0:0:0:
129,25,148371,1,2,1:2:0:0:
35,87,148780,1,2,1:2:0:0:
48,198,149188,1,2,1:2:0:0:
133,270,149596,2,0,P|227:283|315:310,1,168.300005136109,2|0,1:2|1:2,0:0:0:0:
328,356,150412,1,2,1:2:0:0:
328,356,150616,2,0,L|390:364,1,56.1000017120362,10|0,0:0|1:2,0:0:0:0:
439,353,151025,1,0,0:0:0:0:
512,270,151433,1,8,0:0:0:0:
512,270,151637,6,0,L|478:142,1,112.200003424072,2|2,1:2|1:2,0:0:0:0:
499,107,152249,1,8,0:0:0:0:
499,107,152453,1,2,1:2:0:0:
387,113,152861,2,0,P|355:105|321:97,1,56.1000017120362,2|8,1:2|0:0,0:0:0:0:
278,113,153269,6,0,P|244:175|276:269,1,168.300005136109,2|8,1:2|0:0,0:0:0:0:
303,309,154086,1,2,1:2:0:0:
215,378,154494,2,0,P|185:372|156:367,1,56.1000017120362,0|8,1:2|0:0,0:0:0:0:
111,353,154902,1,2,1:2:0:0:
111,353,155106,1,0,1:2:0:0:
31,273,155514,2,0,L|39:216,1,56.1000017120362,8|8,3:0|3:0,0:0:0:0:
50,165,155923,1,0,1:2:0:0:
50,165,156127,2,0,L|58:108,2,56.1000017120362,8|8|0,3:0|3:0|1:2,0:0:0:0:
83,210,156739,1,0,1:2:0:0:
192,184,157147,6,0,L|313:158,1,112.200003424072,10|2,0:0|1:2,0:0:0:0:
326,110,157759,2,0,P|353:118|384:125,1,56.1000017120362,2|8,1:2|0:0,0:0:0:0:
428,96,158167,1,2,1:2:0:0:
501,181,158576,1,2,1:2:0:0:
446,278,158984,2,0,P|394:268|316:253,1,112.200003424072,2|2,1:2|1:2,0:0:0:0:
291,222,159596,2,0,P|289:194|299:162,2,56.1000017120362,10|0|0,0:0|1:2|1:2,0:0:0:0:
233,318,160412,37,10,0:0:0:0:
134,276,160820,1,2,1:2:0:0:
134,276,161025,2,0,L|145:221,1,56.1000017120362,2|8,1:2|0:0,0:0:0:0:
189,186,161433,2,0,P|180:128|171:72,1,112.200003424072,2|2,1:2|1:2,0:0:0:0:
191,25,162045,1,8,0:0:0:0:
191,25,162249,1,2,1:2:0:0:
282,89,162657,1,2,1:2:0:0:
282,89,162861,2,0,L|344:77,1,56.1000017120362,8|10,3:0|3:0,0:0:0:0:
389,97,163269,1,0,1:2:0:0:
486,153,163678,6,0,P|498:207|481:260,1,112.200003424072,10|2,0:0|1:2,0:0:0:0:
376,291,164494,1,8,0:0:0:0:
376,291,164698,2,0,L|233:263,1,112.200003424072,2|0,1:2|1:2,0:0:0:0:
222,303,165310,1,8,0:0:0:0:
222,303,165514,2,0,L|236:366,2,56.1000017120362,2|0|0,1:2|1:2|1:2,0:0:0:0:
174,272,166127,1,8,0:0:0:0:
71,225,166535,6,0,P|55:155|77:81,1,112.200003424072,4|8,1:2|0:0,0:0:0:0:
89,67,167147,2,0,P|159:51|233:73,1,112.200003424072,2|0,0:0|1:2,0:0:0:0:
253,84,167759,1,8,0:0:0:0:
253,84,167963,1,0,1:2:0:0:
421,83,168576,2,0,L|409:19,2,56.1000017120362,8|8|10,3:0|3:0|0:0,0:0:0:0:
434,137,169188,2,0,L|444:192,2,56.1000017120362,8|8|10,3:0|3:0|3:0,0:0:0:0:
381,117,169800,6,0,L|251:98,1,112.200003424072,4|8,1:2|0:0,0:0:0:0:
227,63,170412,1,0,1:2:0:0:
227,63,170616,1,0,1:2:0:0:
116,44,171025,1,8,0:0:0:0:
116,44,171229,2,0,P|96:74|99:162,1,112.200003424072,0|0,1:2|1:2,0:0:0:0:
130,197,171841,1,8,0:0:0:0:
130,197,172045,2,0,L|105:322,1,112.200003424072,2|2,1:2|1:2,0:0:0:0:
100,362,172657,1,8,0:0:0:0:
210,381,173065,6,0,P|248:352|322:360,1,112.200003424072,0|8,1:2|0:0,0:0:0:0:
366,379,173677,1,0,1:2:0:0:
366,379,173881,1,0,1:2:0:0:
469,330,174290,1,8,0:0:0:0:
469,330,174494,2,0,P|489:300|486:212,1,112.200003424072,0|2,1:2|1:2,0:0:0:0:
464,177,175106,1,8,0:0:0:0:
464,177,175310,2,0,B|404:163|427:151|353:138,1,112.200003424072,2|2,1:2|1:2,0:0:0:0:
326,93,175922,1,8,0:0:0:0:
239,21,176331,6,0,L|125:38,1,112.200003424072,2|8,1:2|0:0,0:0:0:0:
92,81,176943,1,0,1:2:0:0:
92,81,177147,1,0,1:2:0:0:
137,183,177555,1,8,0:0:0:0:
137,183,177759,2,0,B|189:197|189:197|209:222|209:222|252:237,1,112.200003424072,0|0,1:2|1:2,0:0:0:0:
276,266,178371,1,8,0:0:0:0:
276,266,178576,1,2,1:2:0:0:
377,219,178984,5,2,1:2:0:0:
476,166,179392,1,0,1:2:0:0:
476,166,179596,1,2,1:2:0:0:
454,279,180004,1,10,0:0:0:0:
454,279,180208,2,0,L|345:308,1,112.200003424072,2|0,1:2|1:2,0:0:0:0:
300,338,180820,1,10,0:0:0:0:
300,338,181025,2,0,L|191:309,1,112.200003424072,2|0,1:2|1:2,0:0:0:0:
133,309,181637,6,0,L|64:321,2,56.1000017120362,8|0|0,0:0|1:2|1:2,0:0:0:0:
170,267,182249,1,8,3:0:0:0:
170,267,182453,2,0,L|178:210,1,56.1000017120362,8|4,0:0|3:0,0:0:0:0:
154,160,182861,1,12,0:0:0:0:
256,192,183065,12,0,188576,0:0:0:0:
