osu file format v14

[General]
AudioFilename: audio.mp3
AudioLeadIn: 0
PreviewTime: 26076
Countdown: 0
SampleSet: Drum
StackLeniency: 0.4
Mode: 0
LetterboxInBreaks: 0
EpilepsyWarning: 1
WidescreenStoryboard: 1

[Editor]
Bookmarks: 4,13065,26127,52249,65310,75106,104494,130616,156739,182861
DistanceSpacing: 1
BeatDivisor: 4
GridSize: 4
TimelineZoom: 1

[Metadata]
Title:Tek It
TitleUnicode:Tek It
Artist:Cafune
ArtistUnicode:Cafuné
Creator:Heroine
Version:Normal
Source:
Tags:I watch the moon Iwatchthemoon running alternative indie pop shoegaze english friction Some Hero Some_Hero tiktok tik tok tik-tok
BeatmapID:3690640
BeatmapSetID:1800225

[Difficulty]
HPDrainRate:3
CircleSize:3.4
OverallDifficulty:5
ApproachRate:5
SliderMultiplier:1
SliderTickRate:1

[Events]
//Background and Video events
0,0,"cti.jpg",0,0
Video,-1865,"video.mp4"
//Break Periods
2,52245,64110
//Storyboard Layer 0 (Background)
//Storyboard Layer 1 (Fail)
//Storyboard Layer 2 (Pass)
//Storyboard Layer 3 (Foreground)
//Storyboard Layer 4 (Overlay)
//Storyboard Sound Samples

[TimingPoints]
-1628,408.163265306122,4,2,1,70,1,0
3065,-100,4,3,1,70,0,0
26127,-100,4,3,1,80,0,1
52249,-100,4,2,1,60,0,0
65310,-100,4,3,1,70,0,0
75106,-100,4,3,1,80,0,1
103882,-100,4,3,2,60,0,1
104494,-100,4,3,1,60,0,0
130616,-100,4,3,1,70,0,1
131025,-100,4,3,1,70,0,0
142861,-90.9090909090909,4,3,1,70,0,0
143065,-90.9090909090909,4,3,2,60,0,0
143678,-90.9090909090909,4,3,3,75,0,1
149800,-90.9090909090909,4,3,2,75,0,1
150004,-90.9090909090909,4,3,3,75,0,1
155514,-90.9090909090909,4,3,2,75,0,1
156739,-90.9090909090909,4,3,3,80,0,1
162861,-90.9090909090909,4,3,2,80,0,1
163065,-90.9090909090909,4,3,3,80,0,1
168576,-90.9090909090909,4,3,2,80,0,1
169800,-90.9090909090909,4,3,1,80,0,1
182453,-90.9090909090909,4,3,2,80,0,1
182861,-90.9090909090909,4,3,1,50,0,0
183269,-90.9090909090909,4,3,1,5,0,0

[Colours]
Combo1 : 232,232,232
Combo2 : 255,234,81
Combo3 : 164,196,249
Combo4 : 224,75,71
Combo5 : 114,74,149
Combo6 : 104,198,135
Combo7 : 68,225,238
Combo8 : 210,60,196

[HitObjects]
256,192,4,37,2,1:1:0:0:
256,192,1433,5,2,1:1:0:0:
256,192,3065,85,6,1:2:0:0:
155,80,3678,2,0,P|112:105|65:121,1,100,10|0,0:2|1:2,0:0:0:0:
57,171,4290,2,0,P|69:192|78:215,1,50,2|8,1:2|0:2,0:0:0:0:
97,262,4698,1,2,3:2:0:0:
233,324,5310,2,0,P|278:303|327:300,1,100,10|0,0:2|1:2,0:0:0:0:
369,327,5923,2,0,P|390:314|413:305,2,50,2|8|0,1:2|0:2|3:2,0:0:0:0:
351,373,6535,5,2,1:1:0:0:
351,373,7963,5,2,1:1:0:0:
351,373,9596,85,6,1:2:0:0:
240,270,10208,2,0,P|235:221|227:171,1,100,10|0,0:2|1:2,0:0:0:0:
257,132,10820,2,0,P|259:107|264:82,1,50,2|8,1:2|0:2,0:0:0:0:
284,36,11229,1,2,3:2:0:0:
418,99,11841,2,0,P|441:144|438:193,1,100,10|0,0:2|1:2,0:0:0:0:
422,240,12453,2,0,P|424:264|429:289,1,50,2|8,1:2|0:2,0:0:0:0:
440,338,12861,53,0,3:2:0:0:
440,338,13065,1,6,1:2:0:0:
345,305,13474,1,10,0:2:0:0:
257,353,13882,1,2,1:1:0:0:
257,353,14086,1,2,1:1:0:0:
177,292,14494,22,0,P|187:217|189:142,1,150,2|8,3:2|0:2,0:0:0:0:
242,59,15514,1,2,1:1:0:0:
242,59,15718,1,2,1:1:0:0:
311,128,16127,2,0,P|383:149|452:123,1,150,2|8,3:2|0:2,0:0:0:0:
494,35,17147,1,0,1:2:0:0:
494,35,17351,1,2,1:2:0:0:
397,3,17759,38,0,B|307:7|351:42|257:47,1,150,2|8,3:2|0:2,0:0:0:0:
171,98,18780,2,0,P|146:91|122:85,2,50,0|0|8,1:2|1:2|0:2,0:0:0:0:
202,137,19392,1,0,3:2:0:0:
202,137,19596,1,2,1:2:0:0:
137,213,20004,1,8,0:2:0:0:
189,297,20412,1,2,1:1:0:0:
189,297,20616,1,2,1:1:0:0:
281,332,21025,22,0,P|353:311|428:302,1,150,0|10,0:0|0:2,0:0:0:0:
499,231,22045,1,2,1:1:0:0:
499,231,22249,1,2,1:1:0:0:
406,194,22657,2,0,P|385:122|376:47,1,150,2|8,3:2|0:2,0:0:0:0:
286,2,23678,101,0,1:2:0:0:
286,2,23882,2,0,L|236:8,1,50,0|8,1:2|0:2,0:0:0:0:
209,50,24290,2,0,P|137:65|99:128,1,150,0|8,3:2|0:2,0:0:0:0:
181,195,25310,1,0,1:2:0:0:
181,195,25514,2,0,L|172:244,2,50,0|8|0,1:2|0:2|1:2,0:0:0:0:
219,161,26127,102,0,P|354:198|362:339,1,300,6|8,1:2|0:2,0:0:0:0:
319,363,27555,1,2,1:2:0:0:
219,351,27963,2,0,P|196:340|173:329,1,50,0|8,1:2|0:2,0:0:0:0:
150,284,28371,2,0,P|109:256|75:219,1,100,0|0,0:0|1:2,0:0:0:0:
47,178,28984,69,10,0:2:0:0:
47,178,29188,2,0,B|127:212|253:114|115:125|253:-11|350:57,1,350,2|8,1:2|0:2,0:0:0:0:
374,80,30820,37,2,0:2:0:0:
319,164,31229,1,2,1:1:0:0:
391,232,31637,1,2,1:1:0:0:
474,176,32045,1,2,1:2:0:0:
512,266,32453,70,0,P|483:334|420:371,1,150,2|10,0:2|0:2,0:0:0:0:
321,354,33474,1,0,1:2:0:0:
321,354,33678,2,0,P|318:329|314:304,1,50,0|8,1:2|0:2,0:0:0:0:
305,255,34086,1,2,1:2:0:0:
229,185,34494,1,2,1:2:0:0:
192,91,34902,1,2,1:2:0:0:
95,65,35310,1,2,1:2:0:0:
20,130,35718,70,0,P|21:294|178:344,1,350,2|8,1:2|0:2,0:0:0:0:
187,295,37351,2,0,P|351:255|484:360,1,350,2|10,0:2|0:1,0:0:0:0:
510,262,39188,86,0,P|470:171|419:85,1,200,6|2,1:2|1:2,0:0:0:0:
372,67,40208,2,0,L|335:33,1,50,2|8,1:1|0:2,0:0:0:0:
286,21,40616,37,2,1:2:0:0:
208,84,41025,1,0,1:2:0:0:
111,58,41433,2,0,L|77:94,1,50,0|0,0:0|1:2,0:0:0:0:
30,113,41841,2,0,L|14:160,1,50,0|8,1:2|0:2,0:0:0:0:
15,209,42249,70,0,P|112:224|126:231,1,100,2|2,1:2|0:2,0:0:0:0:
152,254,42861,1,10,0:1:0:0:
152,254,43065,1,2,0:2:0:0:
250,274,43474,1,2,1:1:0:0:
313,197,43882,1,2,0:2:0:0:
411,179,44290,1,2,1:2:0:0:
459,91,44698,1,2,1:1:0:0:
381,28,45106,2,0,P|359:15|338:1,1,50,2|8,1:2|0:2,0:0:0:0:
265,66,45718,6,0,P|215:72|172:97,2,100,6|10|2,1:2|0:2|1:2,0:0:0:0:
360,96,46943,1,10,0:2:0:0:
360,96,47147,1,2,1:2:0:0:
318,186,47555,1,2,1:2:0:0:
347,281,47963,1,2,0:2:0:0:
280,355,48371,1,2,1:2:0:0:
180,337,48780,102,0,P|136:220|70:114,1,250,2|0,1:2|1:2,0:0:0:0:
85,67,50004,2,0,P|108:58|131:49,1,50,0|8,1:2|0:2,0:0:0:0:
179,30,50412,1,6,1:2:0:0:
257,92,50820,1,0,1:2:0:0:
257,92,51025,2,0,L|303:109,1,50,8|0,0:2|1:2,0:0:0:0:
331,151,51433,2,0,L|380:150,1,50,0|0,1:2|1:2,0:0:0:0:
434,153,51841,1,8,0:2:0:0:
434,153,52045,1,0,1:2:0:0:
50,53,65310,6,0,P|98:64|147:73,1,100,2|10,1:1|0:1,0:0:0:0:
250,94,66127,1,2,1:1:0:0:
250,94,66331,1,2,1:1:0:0:
334,146,66739,2,0,P|311:189|312:239,1,100,2|2,0:1|1:2,0:0:0:0:
351,270,67351,2,0,L|364:318,1,50,10|2,0:1|0:2,0:0:0:0:
387,368,67759,1,2,1:1:0:0:
387,368,67963,1,2,1:1:0:0:
474,318,68371,38,0,P|480:268|491:219,1,100,2|2,0:3|0:2,0:0:0:0:
470,174,68984,1,8,0:2:0:0:
470,174,69188,1,2,1:2:0:0:
426,84,69596,1,2,1:1:0:0:
345,24,70004,2,0,P|305:54|256:60,1,100,2|2,0:3|1:1,0:0:0:0:
209,45,70616,1,8,0:2:0:0:
209,45,70820,1,2,1:1:0:0:
127,102,71229,1,2,1:1:0:0:
182,185,71637,22,0,P|208:227|227:273,1,100,2|2,0:3|0:2,0:0:0:0:
206,317,72249,2,0,P|183:327|158:333,1,50,10|2,0:1|0:2,0:0:0:0:
108,333,72657,1,2,1:1:0:0:
108,333,72861,1,2,1:1:0:0:
40,258,73269,1,2,1:1:0:0:
87,169,73678,1,2,1:1:0:0:
182,185,74086,2,0,L|231:175,1,50,6|6,1:1|1:1,0:0:0:0:
267,209,74494,2,0,L|316:218,1,50,10|10,0:1|0:1,0:0:0:0:
360,196,74902,37,10,0:1:0:0:
360,196,75106,2,0,P|493:210|475:343,1,300,6|8,1:2|0:2,0:0:0:0:
430,370,76535,2,0,P|288:324|139:316,1,300,2|0,1:2|1:2,0:0:0:0:
98,288,77963,1,10,0:2:0:0:
98,288,78167,1,2,1:2:0:0:
130,141,78780,22,0,P|178:124|224:104,1,100,10|0,0:1|1:2,0:0:0:0:
266,130,79392,2,0,L|313:146,1,50,0|8,1:2|0:2,0:0:0:0:
359,165,79800,85,2,0:2:0:0:
436,101,80208,1,2,1:1:0:0:
370,25,80616,1,2,1:1:0:0:
269,28,81025,1,2,1:2:0:0:
172,0,81433,102,0,P|112:46|44:76,1,150,2|10,0:2|0:2,0:0:0:0:
14,172,82453,1,0,1:2:0:0:
14,172,82657,1,0,1:2:0:0:
64,258,83065,1,2,1:2:0:0:
162,239,83474,1,2,1:2:0:0:
232,309,83882,1,2,0:2:0:0:
324,269,84290,1,2,1:2:0:0:
422,286,84698,38,0,P|382:121|231:43,1,350,2|8,1:2|0:2,0:0:0:0:
186,67,86331,2,0,P|41:142|77:301,1,350,2|10,0:2|0:1,0:0:0:0:
104,343,87963,5,8,0:3:0:0:
104,343,88167,1,6,1:2:0:0:
192,295,88576,1,10,0:1:0:0:
278,344,88984,2,0,L|325:329,1,50,0|0,1:2|1:2,0:0:0:0:
372,312,89392,53,8,0:2:0:0:
372,312,89596,1,2,1:2:0:0:
314,230,90004,1,0,1:2:0:0:
394,170,90412,2,0,L|401:120,1,50,0|0,1:2|1:2,0:0:0:0:
364,87,90820,2,0,L|356:37,1,50,0|8,1:2|0:2,0:0:0:0:
307,22,91229,54,0,P|252:78|225:83,1,100,2|2,1:2|0:2,0:0:0:0:
184,75,91841,1,10,0:1:0:0:
184,75,92045,1,2,0:2:0:0:
95,121,92453,1,2,1:1:0:0:
123,216,92861,1,2,0:2:0:0:
222,210,93269,1,2,1:2:0:0:
295,278,93678,1,2,1:1:0:0:
372,221,94086,2,0,P|359:172|360:122,1,100,2|0,1:2|1:2,0:0:0:0:
377,75,94698,53,6,1:2:0:0:
467,32,95106,1,10,0:2:0:0:
512,126,95514,2,0,P|499:174|500:224,1,100,2|10,1:2|0:2,0:0:0:0:
469,262,96127,2,0,P|426:288|377:297,1,100,2|2,1:2|1:2,0:0:0:0:
327,290,96739,1,8,0:2:0:0:
327,290,96943,1,2,1:2:0:0:
243,345,97351,1,2,1:2:0:0:
156,295,97759,6,0,P|140:221|119:149,1,150,2|12,1:2|0:2,0:0:0:0:
162,59,98780,1,0,1:2:0:0:
162,59,98984,2,0,L|211:66,1,50,0|8,1:2|0:2,0:0:0:0:
260,75,99392,1,6,1:2:0:0:
325,150,99800,1,0,1:2:0:0:
325,150,100004,2,0,L|374:142,1,50,8|0,0:2|1:2,0:0:0:0:
414,173,100412,2,0,L|421:222,1,50,0|0,1:2|1:2,0:0:0:0:
432,271,100820,1,8,0:2:0:0:
334,294,101229,22,0,P|304:334|265:366,2,100,6|8|0,1:2|0:2|1:2,0:0:0:0:
342,244,102249,2,0,L|331:188,1,50,2|8,1:2|0:2,0:0:0:0:
319,146,102657,1,6,1:2:0:0:
227,119,103065,1,2,1:2:0:0:
227,119,103269,1,10,0:2:0:0:
153,186,103678,1,0,1:2:0:0:
153,186,103882,2,0,L|106:168,2,50,8|8|0,0:1|0:1|1:2,0:0:0:0:
178,228,104494,21,6,1:2:0:0:
125,316,104902,1,10,0:1:0:0:
125,316,105106,1,2,3:2:0:0:
28,288,105514,1,2,1:2:0:0:
11,189,105923,2,0,P|47:123|79:55,1,150,6|8,1:2|0:2,0:0:0:0:
179,49,106943,1,2,1:2:0:0:
255,112,107351,1,10,0:2:0:0:
344,67,107759,22,0,P|388:90|436:100,1,100,6|10,1:2|0:1,0:0:0:0:
480,125,108371,1,2,3:2:0:0:
430,212,108780,1,2,1:2:0:0:
337,248,109188,2,0,P|264:245|222:303,1,150,6|8,1:2|0:2,0:0:0:0:
135,353,110208,1,2,1:2:0:0:
67,278,110616,1,10,0:2:0:0:
94,182,111025,38,0,P|143:171|191:156,1,100,6|10,1:2|0:1,0:0:0:0:
237,135,111637,1,2,3:2:0:0:
316,195,112045,1,2,1:2:0:0:
408,156,112453,2,0,P|419:107|446:65,1,100,6|0,1:2|1:2,0:0:0:0:
491,45,113065,1,8,0:2:0:0:
509,143,113474,1,2,1:2:0:0:
473,236,113882,1,10,0:2:0:0:
504,330,114290,54,0,L|456:346,1,50,6|0,1:2|1:2,0:0:0:0:
410,365,114698,1,10,0:1:0:0:
410,365,114902,1,2,3:2:0:0:
320,321,115310,1,2,1:2:0:0:
227,358,115718,2,0,P|181:336|133:324,1,100,6|0,1:2|1:2,0:0:0:0:
93,294,116331,1,8,0:2:0:0:
148,210,116739,1,2,3:2:0:0:
93,126,117147,1,10,0:2:0:0:
158,50,117555,86,0,P|201:72|259:86,1,100,6|10,1:2|0:1,0:0:0:0:
289,116,118167,1,2,3:2:0:0:
248,207,118576,1,2,1:2:0:0:
159,253,118984,2,0,P|116:231|58:217,1,100,6|0,1:2|1:2,0:0:0:0:
35,178,119596,1,8,0:2:0:0:
53,79,120004,2,0,L|89:45,1,50,2|4,1:2|1:2,0:0:0:0:
139,50,120412,2,0,L|184:28,1,50,10|4,0:2|1:2,0:0:0:0:
226,54,120820,5,6,1:2:0:0:
362,115,121433,1,2,3:2:0:0:
456,147,121841,1,2,1:2:0:0:
380,212,122249,2,0,P|343:275|358:347,1,150,6|8,1:2|0:2,0:0:0:0:
405,375,123065,1,0,3:2:0:0:
405,375,123269,1,2,1:2:0:0:
501,346,123678,1,10,0:2:0:0:
501,246,124086,6,0,P|473:203|454:158,1,100,6|10,1:2|0:1,0:0:0:0:
407,140,124698,1,2,3:2:0:0:
310,165,125106,1,2,1:2:0:0:
240,93,125514,1,6,1:2:0:0:
152,138,125923,1,0,1:2:0:0:
152,138,126127,2,0,L|169:184,1,50,8|0,0:2|1:2,0:0:0:0:
193,228,126535,1,2,1:2:0:0:
145,316,126943,1,10,0:2:0:0:
55,270,127351,22,0,L|67:221,1,50,6|0,1:2|1:2,0:0:0:0:
80,176,127759,1,14,0:1:0:0:
80,176,127963,2,0,L|31:163,2,50,6|4|2,1:2|1:2|1:2,0:0:0:0:
122,149,128576,1,8,0:2:0:0:
122,149,128780,1,6,1:2:0:0:
211,194,129188,1,2,1:2:0:0:
211,194,129392,1,8,0:2:0:0:
281,123,129800,37,10,0:2:0:0:
375,155,130208,69,10,0:2:0:0:
461,105,130616,38,0,P|475:152|469:201,1,100,6|8,1:2|0:2,0:0:0:0:
491,246,131229,2,0,P|459:284|446:332,1,100,0|2,1:2|1:2,0:0:0:0:
405,360,131841,1,10,0:2:0:0:
405,360,132045,1,2,1:2:0:0:
316,314,132453,1,2,1:2:0:0:
218,336,132861,1,2,1:2:0:0:
121,310,133269,2,0,L|105:262,1,50,2|8,1:2|0:2,0:0:0:0:
89,214,133678,1,2,1:2:0:0:
89,214,133882,1,2,1:2:0:0:
184,184,134290,70,0,P|231:169|274:144,1,100,8|0,0:2|0:0,0:0:0:0:
323,131,134902,2,0,P|329:107|338:84,1,50,2|10,1:2|0:2,0:0:0:0:
356,37,135310,1,2,0:2:0:0:
256,29,135718,1,2,1:2:0:0:
170,80,136127,1,2,1:2:0:0:
71,98,136535,2,0,P|44:168|54:242,1,150,2|4,1:2|1:2,0:0:0:0:
88,283,137351,1,2,0:2:0:0:
88,283,137555,2,0,P|158:255|232:248,1,150,10|0,0:2|1:2,0:0:0:0:
279,252,138371,5,8,0:2:0:0:
279,252,138576,1,2,0:2:0:0:
242,158,138984,1,2,1:2:0:0:
311,86,139392,1,2,1:2:0:0:
404,122,139800,1,2,1:2:0:0:
425,218,140208,70,0,P|378:277|343:343,1,150,2|8,1:2|0:2,0:0:0:0:
294,357,141025,1,2,1:2:0:0:
161,287,141637,2,0,P|153:264|143:241,2,50,8|2|2,0:2|1:2|1:2,0:0:0:0:
261,287,142453,1,8,0:2:0:0:
261,287,142657,1,0,1:2:0:0:
307,187,143065,54,0,L|290:134,1,55.0000016784668,10|8,0:1|0:2,0:0:0:0:
273,82,143474,1,10,0:1:0:0:
273,82,143678,1,4,1:2:0:0:
173,34,144086,1,12,0:2:0:0:
81,94,144494,101,0,0:0:0:0:
81,94,144698,2,0,L|100:145,1,55.0000016784668,2|10,1:1|0:1,0:0:0:0:
124,195,145106,1,2,1:1:0:0:
60,284,145514,1,2,1:1:0:0:
137,361,145923,1,2,1:1:0:0:
235,313,146331,2,0,L|288:299,1,55.0000016784668,2|8,1:1|0:2,0:0:0:0:
312,250,146739,2,0,P|382:208|408:131,1,165.000005035401,2|8,0:1|0:2,0:0:0:0:
392,79,147555,1,0,1:2:0:0:
295,26,147963,54,0,L|241:40,1,55.0000016784668,2|10,1:1|0:1,0:0:0:0:
208,83,148371,1,2,0:1:0:0:
264,177,148780,1,2,1:1:0:0:
202,267,149188,1,2,1:1:0:0:
278,345,149596,2,0,P|349:305|431:308,1,165.000005035401,2|4,1:1|1:2,0:0:0:0:
479,282,150412,1,2,1:1:0:0:
479,282,150616,1,10,0:1:0:0:
429,183,151025,1,2,0:1:0:0:
478,84,151433,101,8,0:2:0:0:
478,84,151637,1,2,0:1:0:0:
394,12,152045,1,2,1:1:0:0:
291,51,152453,1,2,1:1:0:0:
185,20,152861,2,0,L|137:48,1,55.0000016784668,2|8,1:1|0:2,0:0:0:0:
161,96,153269,6,0,P|200:169|218:250,1,165.000005035401,2|8,1:1|0:2,0:0:0:0:
205,303,154086,1,2,1:1:0:0:
111,360,154494,2,0,L|61:335,1,55.0000016784668,0|8,1:2|0:2,0:0:0:0:
12,311,154902,1,2,1:2:0:0:
12,311,155106,1,6,1:1:0:0:
71,218,155514,38,0,L|53:165,1,55.0000016784668,8|0,0:2|1:2,0:0:0:0:
37,113,155923,1,0,1:2:0:0:
37,113,156127,2,0,L|54:60,1,55.0000016784668,8|0,0:2|1:2,0:0:0:0:
101,31,156535,1,0,1:2:0:0:
101,31,156739,1,4,1:2:0:0:
187,98,157147,22,0,P|240:83|295:81,1,110.000003356934,10|2,0:1|1:1,0:0:0:0:
336,43,157759,2,0,P|363:51|390:57,1,55.0000016784668,2|8,1:1|0:2,0:0:0:0:
443,71,158167,1,2,1:1:0:0:
390,168,158576,1,2,1:1:0:0:
345,268,158984,2,0,P|399:271|444:301,1,110.000003356934,2|2,1:1|1:1,0:0:0:0:
489,272,159596,2,0,P|493:244|499:217,2,55.0000016784668,10|0|4,0:1|0:0|1:2,0:0:0:0:
479,381,160412,37,10,0:1:0:0:
371,355,160820,1,2,1:1:0:0:
371,355,161025,2,0,L|317:342,1,55.0000016784668,2|8,1:1|0:2,0:0:0:0:
267,317,161433,2,0,P|216:337|161:332,1,110.000003356934,2|2,1:1|1:1,0:0:0:0:
112,308,162045,1,8,0:2:0:0:
112,308,162249,1,2,1:1:0:0:
70,206,162657,1,2,1:1:0:0:
70,206,162861,2,0,L|94:156,1,55.0000016784668,8|2,0:2|1:1,0:0:0:0:
117,106,163269,37,4,1:2:0:0:
212,158,163678,2,0,P|266:146|321:143,1,110.000003356934,10|2,0:1|1:1,0:0:0:0:
413,83,164494,1,8,0:2:0:0:
413,83,164698,1,2,1:1:0:0:
481,168,165106,2,0,L|455:216,1,55.0000016784668,0|8,1:2|0:2,0:0:0:0:
405,238,165514,2,0,L|296:219,1,110.000003356934,2|0,1:1|1:2,0:0:0:0:
242,207,166127,21,8,0:2:0:0:
242,207,166331,1,2,1:1:0:0:
129,86,166943,1,12,0:2:0:0:
129,86,167147,2,0,P|183:79|230:52,1,110.000003356934,2|0,0:1|1:2,0:0:0:0:
285,52,167759,1,8,0:2:0:0:
285,52,167963,1,0,1:2:0:0:
419,148,168576,6,0,L|397:198,1,55.0000016784668,8|0,0:2|1:2,0:0:0:0:
430,242,168984,2,0,L|420:296,1,55.0000016784668,10|8,0:1|0:2,0:0:0:0:
445,345,169392,1,0,1:2:0:0:
339,375,169800,1,4,1:2:0:0:
256,192,170004,12,4,171841,1:1:0:0:
256,192,173065,37,4,1:2:0:0:
256,192,173269,12,4,175106,1:1:0:0:
256,192,176331,53,4,1:2:0:0:
256,192,176535,12,4,178371,1:1:0:0:
256,192,179596,85,4,1:2:0:0:
256,192,179800,12,4,182861,1:1:0:0:
