osu file format v14

[General]
AudioFilename: audio.mp3
AudioLeadIn: 0
PreviewTime: 26076
Countdown: 0
SampleSet: Drum
StackLeniency: 0.4
Mode: 0
LetterboxInBreaks: 0
EpilepsyWarning: 1
WidescreenStoryboard: 1

[Editor]
Bookmarks: 4,13065,26127,52249,65310,75106,104494,130616,156739,182861
DistanceSpacing: 2.8
BeatDivisor: 4
GridSize: 4
TimelineZoom: 1

[Metadata]
Title:Tek It
TitleUnicode:Tek It
Artist:Cafune
ArtistUnicode:Cafuné
Creator:Heroine
Version:Insane
Source:
Tags:I watch the moon Iwatchthemoon running alternative indie pop shoegaze english friction Some Hero Some_Hero tiktok tik tok tik-tok
BeatmapID:3690639
BeatmapSetID:1800225

[Difficulty]
HPDrainRate:5
CircleSize:4
OverallDifficulty:8
ApproachRate:9
SliderMultiplier:1.4
SliderTickRate:1

[Events]
//Background and Video events
0,0,"cti.jpg",0,0
Video,-1865,"video.mp4"
//Break Periods
//Storyboard Layer 0 (Background)
//Storyboard Layer 1 (Fail)
//Storyboard Layer 2 (Pass)
//Storyboard Layer 3 (Foreground)
//Storyboard Layer 4 (Overlay)
//Storyboard Sound Samples

[TimingPoints]
-1628,408.163265306122,4,2,1,70,1,0
3065,-100,4,3,1,70,0,0
25514,-66.6666666666667,4,3,1,70,0,0
26127,-66.6666666666667,4,3,1,80,0,1
26535,-80,4,3,1,80,0,1
52249,-111.111111111111,4,2,1,60,0,0
65310,-90.9090909090909,4,3,1,70,0,0
74086,-66.6666666666667,4,3,1,70,0,0
75106,-66.6666666666667,4,3,1,80,0,1
75514,-80,4,3,1,80,0,1
103882,-80,4,3,2,60,0,1
104494,-80,4,3,1,60,0,0
130616,-80,4,3,1,70,0,1
131025,-80,4,3,1,70,0,0
143065,-80,4,3,2,60,0,0
143678,-66.6666666666667,4,3,3,75,0,1
144086,-80,4,3,3,75,0,1
149800,-80,4,3,2,75,0,1
150004,-80,4,3,3,75,0,1
155514,-80,4,3,2,75,0,1
156739,-80,4,3,3,80,0,1
162861,-80,4,3,2,80,0,1
163065,-80,4,3,3,80,0,1
168576,-80,4,3,2,80,0,1
169800,-80,4,3,1,80,0,1
182453,-80,4,3,2,80,0,1
182861,-200,4,3,1,50,0,0
183269,-200,4,3,1,5,0,0

[Colours]
Combo1 : 232,232,232
Combo2 : 255,234,81
Combo3 : 164,196,249
Combo4 : 224,75,71
Combo5 : 114,74,149
Combo6 : 104,198,135
Combo7 : 68,225,238
Combo8 : 210,60,196

[HitObjects]
183,59,4,38,0,B|219:59|219:59|252:51,1,70,2|0,1:1|0:0,0:0:0:0:
329,59,1433,2,0,B|293:59|293:59|259:51,1,70,2|0,1:1|0:0,0:0:0:0:
252,51,3065,6,0,P|257:120|259:190,1,140,6|0,1:2|3:2,0:0:0:0:
196,242,3678,2,0,B|160:244|160:244|128:232,1,70,10|0,0:2|3:2,0:0:0:0:
52,158,4086,1,0,1:2:0:0:
0,225,4290,1,2,1:2:0:0:
170,155,4494,1,8,0:2:0:0:
125,89,4698,86,0,P|90:84|55:79,2,70,2|0|0,3:2|1:2|3:2,0:0:0:0:
252,51,5310,2,0,B|338:44|310:81|388:71,1,140,10|0,0:2|1:2,0:0:0:0:
466,61,5923,1,2,1:2:0:0:
512,0,6127,1,8,0:2:0:0:
276,133,6331,1,0,3:2:0:0:
269,141,6433,1,0,0:0:0:0:
262,148,6535,6,0,B|259:183|259:183|271:215,1,70,2|0,1:1|2:0,0:0:0:0:
287,287,7963,2,0,B|289:251|289:251|277:219,1,70,2|0,1:1|2:0,0:0:0:0:
271,215,9596,6,0,B|192:200|205:234|132:220,1,140,6|0,1:2|3:2,0:0:0:0:
60,267,10208,2,0,B|80:299|80:299|76:331,1,70,10|0,0:2|3:2,0:0:0:0:
162,131,10616,1,0,1:2:0:0:
240,87,10820,1,2,1:2:0:0:
354,206,11025,1,8,0:2:0:0:
288,279,11229,22,0,B|268:247|268:247|271:214,1,70,2|0,3:2|1:2,0:0:0:0:
311,38,11637,1,0,3:2:0:0:
161,32,11841,2,0,B|86:14|93:64|27:68,1,140,10|0,0:2|1:2,0:0:0:0:
4,146,12453,1,2,1:2:0:0:
239,177,12657,1,8,0:2:0:0:
234,92,12861,1,0,3:2:0:0:
87,302,13065,21,6,1:2:0:0:
136,370,13269,1,2,0:2:0:0:
223,376,13474,1,10,0:2:0:0:
346,284,13678,2,0,P|334:251|324:217,1,70,2|2,3:2|1:1,0:0:0:0:
414,62,14086,69,2,1:1:0:0:
482,108,14290,1,8,0:2:0:0:
317,128,14494,2,0,B|319:92|319:92|337:64,1,70,2|0,3:2|1:2,0:0:0:0:
146,48,14902,2,0,B|173:23|173:23|205:16,1,70,2|8,3:2|0:2,0:0:0:0:
252,87,15310,1,2,3:2:0:0:
62,74,15514,1,2,1:1:0:0:
82,0,15718,1,2,1:1:0:0:
264,165,15923,1,8,0:2:0:0:
188,142,16127,86,0,B|115:164|49:155,1,140,2|0,3:2|3:2,0:0:0:0:
0,220,16739,1,8,0:2:0:0:
58,280,16943,1,0,3:2:0:0:
273,342,17147,1,0,1:2:0:0:
206,220,17351,1,2,1:2:0:0:
98,384,17555,1,8,0:2:0:0:
328,279,17759,22,0,P|318:245|311:211,1,70,2|0,3:2|1:2,0:0:0:0:
236,11,18167,1,0,3:2:0:0:
417,196,18371,2,0,P|386:134|323:108,1,140,8|0,0:2|1:2,0:0:0:0:
242,123,18984,1,0,1:2:0:0:
436,8,19188,1,8,0:2:0:0:
466,82,19392,1,0,3:2:0:0:
323,195,19596,101,2,1:2:0:0:
224,225,19800,2,0,P|190:218|156:212,1,70,2|8,3:2|0:2,0:0:0:0:
142,299,20208,2,0,P|135:333|129:367,1,70,2|2,3:2|1:1,0:0:0:0:
319,374,20616,1,2,1:1:0:0:
361,309,20820,70,0,B|339:244|364:250|340:171,1,140,8|0,0:2|1:2,0:0:0:0:
225,21,21433,1,0,3:2:0:0:
174,90,21637,2,0,B|137:80|137:80|120:53,1,70,10|2,0:2|3:2,0:0:0:0:
254,211,22045,1,2,1:1:0:0:
334,188,22249,1,2,1:1:0:0:
400,240,22453,1,10,0:2:0:0:
102,321,22657,22,0,P|93:287|83:253,1,70,2|0,3:2|1:2,0:0:0:0:
57,176,23065,1,0,3:2:0:0:
209,358,23269,1,8,0:2:0:0:
183,279,23474,1,0,3:2:0:0:
273,123,23678,5,0,1:2:0:0:
352,106,23882,1,0,1:2:0:0:
417,160,24086,1,8,0:2:0:0:
158,197,24290,102,0,P|149:163|139:129,1,70,0|0,3:2|1:2,0:0:0:0:
119,54,24698,1,0,3:2:0:0:
441,82,24902,5,8,0:2:0:0:
380,23,25106,1,0,3:2:0:0:
297,38,25310,1,0,1:2:0:0:
512,221,25514,2,0,L|461:234,1,52.5000020027161,0|0,1:2|2:2,0:0:0:0:
387,256,25718,1,8,0:2:0:0:
382,265,25820,1,8,0:2:0:0:
377,274,25923,1,0,1:2:0:0:
185,362,26127,102,0,P|101:346|29:335,1,157.500006008148,6|0,1:2|0:0,0:0:0:0:
30,335,26535,2,0,B|75:325|75:325|111:305,1,87.5,8|0,0:1|0:0,0:0:0:0:
360,103,26943,5,0,1:2:0:0:
231,17,27147,1,0,1:2:0:0:
222,167,27351,1,8,0:2:0:0:
477,262,27555,54,0,P|460:198|455:133,1,131.25,2|0,1:2|0:0,0:0:0:0:
455,134,27963,2,0,B|473:95|473:95|476:50,1,87.5,0|8,1:2|0:2,0:0:0:0:
210,256,28371,53,0,0:0:0:0:
129,276,28576,1,0,1:2:0:0:
64,227,28780,1,0,1:2:0:0:
294,251,28984,1,10,0:2:0:0:
142,191,29188,1,2,1:2:0:0:
411,357,29392,54,0,B|326:329|326:329|302:335|281:332,1,131.25,4|0,1:2|0:0,0:0:0:0:
285,332,29800,2,0,B|245:351|245:351|202:360,1,87.5,10|0,0:1|0:0,0:0:0:0:
65,160,30208,1,0,1:2:0:0:
2,214,30412,1,2,1:1:0:0:
8,298,30616,1,8,0:2:0:0:
255,248,30820,38,0,P|265:205|271:162,1,87.5,2|0,0:2|1:2,0:0:0:0:
152,179,31229,1,2,1:1:0:0:
138,302,31433,1,8,0:2:0:0:
325,85,31637,2,0,B|246:60|262:88|196:81,1,131.25,2|0,1:1|0:0,0:0:0:0:
196,81,32045,2,0,B|155:97|155:97|112:90,1,87.5,2|8,1:2|0:2,0:0:0:0:
253,289,32453,1,2,0:2:0:0:
334,356,32657,22,0,B|354:328|353:293|353:293|366:268|368:229,1,131.25,6|0,1:2|0:0,0:0:0:0:
368,231,33065,2,0,P|410:220|453:213,1,87.5,10|0,0:2|0:0,0:0:0:0:
306,166,33474,1,0,1:2:0:0:
233,384,33678,1,0,1:2:0:0:
65,211,33882,1,8,0:2:0:0:
160,330,34086,6,0,P|150:287|149:243,1,87.5,2|0,1:2|0:0,0:0:0:0:
213,83,34494,2,0,P|222:40|240:0,1,87.5,2|8,1:2|0:2,0:0:0:0:
231,269,34902,102,0,P|220:205|170:165,1,131.25,2|0,1:2|0:0,0:0:0:0:
170,165,35310,2,0,P|142:130|124:91,1,87.5,2|8,1:2|0:2,0:0:0:0:
456,39,35718,1,2,1:2:0:0:
450,29,35820,1,0,3:2:0:0:
444,19,35923,6,0,P|390:55|369:116,1,131.25,4|0,1:2|0:0,0:0:0:0:
369,116,36331,2,0,B|386:159|386:159|414:189,1,87.5,10|0,0:1|0:0,0:0:0:0:
504,175,36739,1,0,3:2:0:0:
189,13,36943,1,2,1:1:0:0:
126,93,37147,1,8,0:2:0:0:
354,247,37351,102,0,L|311:237,1,43.75,2|0,0:2|0:0,0:0:0:0:
227,218,37555,1,0,1:2:0:0:
117,334,37759,1,2,1:1:0:0:
57,177,37963,1,8,0:2:0:0:
267,384,38167,2,0,P|260:340|254:297,1,87.5,2|0,1:1|0:0,0:0:0:0:
302,84,38576,1,0,1:2:0:0:
396,216,38780,2,0,P|389:259|383:302,1,87.5,10|8,0:1|0:3,0:0:0:0:
491,315,39086,1,4,0:3:0:0:
497,302,39188,86,0,B|476:260|476:260|490:220|476:177,1,131.25,6|0,1:2|0:0,0:0:0:0:
476,177,39596,2,0,L|489:69,1,87.5,10|0,0:1|0:0,0:0:0:0:
297,293,40004,1,2,1:2:0:0:
216,331,40208,2,0,P|173:318|131:310,1,87.5,2|8,1:1|0:2,0:0:0:0:
153,150,40616,38,0,P|89:166|24:172,1,131.25,2|0,1:2|0:0,0:0:0:0:
25,172,41025,2,0,P|21:216|13:259,1,87.5,0|8,1:2|0:2,0:0:0:0:
269,204,41433,1,0,0:0:0:0:
317,27,41637,1,0,1:2:0:0:
146,67,41841,1,0,1:2:0:0:
246,101,42045,1,8,0:2:0:0:
497,59,42249,69,2,1:2:0:0:
497,59,42351,1,0,3:2:0:0:
497,59,42453,2,0,B|444:33|444:33|393:84,1,131.25,4|0,1:2|0:0,0:0:0:0:
422,161,42861,1,10,0:1:0:0:
341,241,43065,2,0,P|350:283|358:326,1,87.5,2|0,0:2|1:2,0:0:0:0:
439,171,43474,2,0,P|448:213|456:256,1,87.5,2|8,1:1|0:2,0:0:0:0:
88,166,43882,6,0,P|45:175|2:183,1,87.5,2|0,0:2|1:2,0:0:0:0:
148,89,44290,2,0,P|138:46|130:3,1,87.5,2|8,1:2|0:2,0:0:0:0:
238,369,44698,102,0,B|239:291|262:316|261:240,1,131.25,2|0,1:1|0:0,0:0:0:0:
261,241,45106,2,0,B|248:202|248:202|242:155,1,87.5,2|8,1:2|0:2,0:0:0:0:
256,35,45514,1,0,1:2:0:0:
510,146,45718,6,0,B|461:134|461:134|427:153|383:155,1,131.25,6|0,1:2|0:0,0:0:0:0:
384,155,46127,2,0,P|424:175|456:204,1,87.5,10|0,0:2|0:0,0:0:0:0:
158,142,46535,2,0,P|201:142|243:156,1,87.5,2|0,1:2|1:2,0:0:0:0:
369,252,46943,1,10,0:2:0:0:
48,226,47147,22,0,B|96:214|96:214|130:239|174:235,1,131.25,2|0,1:2|0:0,0:0:0:0:
173,235,47555,2,0,P|132:252|97:278,1,87.5,2|8,1:2|0:2,0:0:0:0:
347,384,47963,2,0,P|330:343|304:308,1,87.5,2|0,0:2|1:2,0:0:0:0:
353,242,48371,2,0,P|393:225|428:199,1,87.5,2|8,1:2|0:2,0:0:0:0:
267,384,48780,1,2,1:2:0:0:
304,308,48984,22,0,P|278:247|260:184,1,131.25,4|0,1:2|0:0,0:0:0:0:
260,185,49392,2,0,P|278:145|292:103,1,87.5,12|0,0:2|0:0,0:0:0:0:
238,25,49800,1,0,1:2:0:0:
27,201,50004,1,0,1:2:0:0:
90,258,50208,1,8,0:2:0:0:
449,188,50412,70,0,P|429:125|435:60,1,131.25,6|0,1:2|0:0,0:0:0:0:
478,0,50820,1,0,1:2:0:0:
435,62,51025,2,0,B|422:85|422:85|410:97,1,43.75,8|0,0:2|0:0,0:0:0:0:
343,143,51229,1,0,1:2:0:0:
110,175,51433,37,0,1:2:0:0:
47,118,51637,1,0,1:2:0:0:
40,35,51841,1,8,0:2:0:0:
268,352,52045,1,0,1:2:0:0:
268,352,52147,1,0,3:2:0:0:
268,352,52249,6,0,P|254:290|239:229,2,125.999996154785,2|10|2,1:2|0:2|0:2,0:0:0:0:
335,285,53269,2,0,B|361:267|361:267|392:265,1,62.9999980773926,2|8,1:2|0:2,0:0:0:0:
41,324,53678,1,2,0:2:0:0:
41,324,54086,2,0,P|71:326|102:336,1,62.9999980773926,2|8,1:2|0:2,0:0:0:0:
192,108,54494,1,2,0:2:0:0:
139,173,54698,2,0,B|105:178|105:178|79:191,1,62.9999980773926,2|0,0:2|1:2,0:0:0:0:
408,87,55106,2,0,P|362:76|328:44,1,94.499997116089,10|0,0:2|0:0,0:0:0:0:
328,44,55514,86,0,P|334:75|334:107,1,62.9999980773926,2|0,1:2|0:0,0:0:0:0:
388,207,55923,2,0,P|380:237|366:265,1,62.9999980773926,10|0,0:2|0:0,0:0:0:0:
507,150,56331,1,2,0:2:0:0:
451,297,56535,2,0,P|436:324|415:348,1,62.9999980773926,2|8,1:2|0:2,0:0:0:0:
274,356,56943,22,0,P|237:305|179:283,1,125.999996154785,2|2,0:2|1:2,0:0:0:0:
99,285,57555,1,8,0:2:0:0:
286,148,57759,2,0,B|256:143|236:130|236:130|196:137|164:129,1,125.999996154785,2|2,0:2|1:2,0:0:0:0:
84,141,58371,2,0,P|85:173|91:204,1,62.9999980773926,10|0,0:2|3:0,0:0:0:0:
213,207,58678,1,0,3:2:0:0:
220,213,58780,70,0,P|214:243|211:275,1,62.9999980773926,2|0,1:2|0:0,0:0:0:0:
385,285,59188,1,10,0:2:0:0:
367,202,59596,1,2,3:2:0:0:
385,285,59800,1,2,1:2:0:0:
289,53,60004,1,8,0:2:0:0:
367,202,60208,86,0,P|354:156|335:113,1,94.499997116089,2|0,0:2|0:0,0:0:0:0:
335,113,60616,2,0,B|341:83|341:83|355:53,1,62.9999980773926,2|8,1:2|0:2,0:0:0:0:
105,151,61025,2,0,P|134:141|164:130,1,62.9999980773926,2|0,0:2|0:0,0:0:0:0:
229,95,61433,1,0,1:2:0:0:
151,288,61637,2,0,P|141:258|130:228,1,62.9999980773926,10|0,0:2|0:0,0:0:0:0:
301,376,62045,102,0,P|300:328|310:282,1,94.499997116089,2|0,1:2|0:0,0:0:0:0:
310,283,62453,2,0,B|301:249|301:249|299:221,1,62.9999980773926,10|0,0:2|0:0,0:0:0:0:
369,49,62861,1,2,0:2:0:0:
414,143,63065,1,0,1:2:0:0:
414,143,63167,1,2,0:2:0:0:
414,143,63269,1,8,0:2:0:0:
229,95,63474,6,0,B|185:78|185:78|149:91|107:86,1,125.999996154785,2|0,0:2|1:2,0:0:0:0:
28,66,64086,1,8,0:2:0:0:
197,198,64290,1,2,0:2:0:0:
191,186,64392,1,2,0:2:0:0:
185,174,64494,1,2,0:2:0:0:
108,87,64698,1,0,1:2:0:0:
165,342,64902,1,10,0:2:0:0:
136,265,65106,1,2,0:3:0:0:
269,354,65310,102,0,P|271:315|275:277,1,77.0000023498536,2|0,1:1|0:0,0:0:0:0:
288,198,65718,1,10,0:1:0:0:
416,21,65923,2,0,B|407:63|407:63|421:93,1,77.0000023498536,2|2,0:2|1:1,0:0:0:0:
512,91,66331,2,0,B|521:49|521:49|506:18,1,77.0000023498536,2|8,1:1|0:2,0:0:0:0:
288,198,66739,6,0,P|232:183|174:179,1,115.50000352478,2|0,0:1|0:0,0:0:0:0:
175,179,67147,2,0,B|136:199|136:199|102:200,1,77.0000023498536,2|10,1:2|0:1,0:0:0:0:
27,155,67555,1,2,0:2:0:0:
353,149,67759,1,2,1:1:0:0:
288,198,67963,1,2,1:1:0:0:
280,275,68167,1,8,0:2:0:0:
190,384,68371,38,0,P|199:346|202:308,1,77.0000023498536,2|2,0:3|1:1,0:0:0:0:
276,117,68780,2,0,P|268:79|255:43,1,77.0000023498536,2|8,0:2|0:2,0:0:0:0:
109,371,69188,2,0,P|112:333|122:296,1,77.0000023498536,2|2,1:2|0:1,0:0:0:0:
199,138,69596,2,0,P|185:102|178:64,1,77.0000023498536,2|8,1:1|0:2,0:0:0:0:
359,226,70004,22,0,P|391:177|433:138,1,115.50000352478,2|0,0:3|0:0,0:0:0:0:
432,138,70412,2,0,P|446:102|453:64,1,77.0000023498536,2|8,1:1|0:2,0:0:0:0:
462,317,70820,2,0,B|389:295|407:336|326:319,1,115.50000352478,2|0,1:1|0:0,0:0:0:0:
349,323,71229,2,0,B|311:307|311:307|275:301,1,77.0000023498536,2|8,1:1|0:2,0:0:0:0:
8,262,71637,38,0,P|44:250|80:235,1,77.0000023498536,2|2,0:3|1:1,0:0:0:0:
177,61,72045,2,0,P|149:88|119:112,1,77.0000023498536,2|10,0:2|0:1,0:0:0:0:
188,271,72453,2,0,P|176:234|161:198,1,77.0000023498536,2|2,0:2|1:1,0:0:0:0:
0,2,72861,2,0,P|27:29|57:53,1,77.0000023498536,2|8,1:1|0:2,0:0:0:0:
268,89,73269,70,0,P|311:52|367:39,1,115.50000352478,2|0,1:1|0:0,0:0:0:0:
367,39,73678,2,0,B|401:56|401:56|439:61,1,77.0000023498536,2|10,1:1|0:1,0:0:0:0:
246,184,74086,22,0,L|296:169,1,52.5000020027161,6|0,1:1|0:0,0:0:0:0:
281,316,74290,2,0,L|266:265,1,52.5000020027161,6|0,1:1|0:0,0:0:0:0:
178,112,74494,5,10,0:1:0:0:
154,29,74698,1,10,0:1:0:0:
336,384,74902,1,10,0:1:0:0:
372,306,75106,22,0,B|366:276|353:261|353:261|341:203|359:148,1,157.500006008148,6|0,1:2|0:0,0:0:0:0:
357,154,75514,2,0,P|346:111|337:68,1,87.5,8|0,0:1|0:0,0:0:0:0:
431,375,75923,1,0,1:2:0:0:
511,345,76127,1,0,1:2:0:0:
512,261,76331,1,8,0:2:0:0:
281,316,76535,86,0,B|254:308|225:319|225:319|188:302|165:272,1,131.25,2|0,1:2|0:0,0:0:0:0:
167,274,76943,2,0,B|160:229|160:229|140:192,1,87.5,0|8,1:2|0:2,0:0:0:0:
51,152,77351,1,0,1:2:0:0:
34,76,77555,1,0,1:2:0:0:
17,0,77759,1,0,1:2:0:0:
245,226,77963,1,10,0:2:0:0:
215,43,78167,1,2,1:2:0:0:
215,43,78269,1,0,0:0:0:0:
215,43,78371,54,0,B|257:87|257:87|323:65,1,131.25,4|0,1:2|0:0,0:0:0:0:
363,0,78780,2,0,B|450:-11|406:37|497:37,1,131.25,10|0,0:1|0:0,0:0:0:0:
483,37,79188,2,0,P|462:44|442:53,1,43.75,0|0,1:2|0:0,0:0:0:0:
409,128,79392,1,0,1:2:0:0:
215,43,79596,1,8,0:2:0:0:
501,304,79800,86,0,P|458:293|417:279,1,87.5,2|0,0:2|1:2,0:0:0:0:
242,254,80208,2,0,P|203:233|167:208,1,87.5,2|8,1:1|0:2,0:0:0:0:
5,42,80616,70,0,B|57:63|57:63|29:133,1,131.25,2|0,1:1|0:0,0:0:0:0:
29,133,81025,2,0,P|42:174|54:216,1,87.5,2|8,1:2|0:2,0:0:0:0:
295,376,81433,1,2,0:2:0:0:
295,376,81535,1,0,0:0:0:0:
295,376,81637,38,0,L|316:246,1,131.25,6|0,1:2|0:0,0:0:0:0:
316,246,82045,2,0,B|305:203|305:203|297:160,1,87.5,10|0,0:2|0:0,0:0:0:0:
512,0,82453,1,0,1:2:0:0:
456,63,82657,1,0,1:2:0:0:
195,0,82861,1,8,0:2:0:0:
133,52,83065,6,0,P|133:96|147:138,1,87.5,2|0,1:2|0:0,0:0:0:0:
399,362,83474,2,0,P|398:318|384:276,1,87.5,2|8,1:2|0:2,0:0:0:0:
39,73,83882,2,0,P|53:115|54:159,1,87.5,2|0,0:2|1:2,0:0:0:0:
319,378,84290,2,0,P|305:336|304:292,1,87.5,2|8,1:2|0:2,0:0:0:0:
400,54,84698,1,2,1:2:0:0:
400,54,84800,1,0,3:2:0:0:
400,54,84902,54,0,P|386:118|380:183,1,131.25,4|0,1:2|0:0,0:0:0:0:
380,183,85310,2,0,B|335:175|335:175|296:157,1,87.5,10|0,0:1|0:0,0:0:0:0:
116,226,85718,1,0,1:2:0:0:
39,265,85923,1,0,1:2:0:0:
305,293,86127,1,8,0:2:0:0:
238,239,86331,54,0,P|220:200|201:160,1,87.5,2|0,0:2|1:2,0:0:0:0:
403,0,86739,1,2,0:1:0:0:
459,60,86943,1,8,0:2:0:0:
235,79,87147,2,0,P|217:39|198:0,1,87.5,2|0,1:1|0:0,0:0:0:0:
379,182,87555,1,0,1:2:0:0:
430,248,87759,2,0,B|421:271|421:271|416:289,1,43.75,10|0,0:1|0:0,0:0:0:0:
397,362,87963,1,8,0:3:0:0:
161,285,88167,54,0,B|150:255|150:224|150:224|134:190|133:157,1,131.25,6|0,1:2|0:0,0:0:0:0:
133,158,88576,2,0,P|131:114|121:71,1,87.5,10|0,0:1|0:0,0:0:0:0:
246,241,88984,1,0,1:2:0:0:
272,161,89188,1,0,1:2:0:0:
247,82,89392,1,8,0:2:0:0:
34,335,89596,54,0,P|49:294|57:251,1,87.5,2|0,1:2|0:0,0:0:0:0:
133,158,90004,2,0,P|131:114|121:71,1,87.5,0|8,1:2|0:2,0:0:0:0:
331,384,90412,1,0,1:2:0:0:
305,304,90616,1,0,1:2:0:0:
330,225,90820,1,0,1:2:0:0:
460,3,91025,1,8,0:2:0:0:
512,82,91229,1,2,1:2:0:0:
512,82,91331,1,0,3:2:0:0:
512,82,91433,54,0,B|447:99|447:99|391:66,1,131.25,4|0,1:2|0:0,0:0:0:0:
317,91,91841,2,0,B|246:75|261:129|191:106,1,131.25,10|0,0:1|0:0,0:0:0:0:
117,81,92249,1,0,1:2:0:0:
250,213,92453,1,2,1:1:0:0:
213,27,92657,1,8,0:2:0:0:
85,287,92861,38,0,P|43:301|0:307,1,87.5,2|0,0:2|1:2,0:0:0:0:
357,256,93269,2,0,P|319:278|279:295,1,87.5,2|8,1:2|0:2,0:0:0:0:
438,284,93678,6,0,P|434:219|450:156,1,131.25,2|0,1:1|0:0,0:0:0:0:
450,156,94086,2,0,B|470:119|470:119|478:74,1,87.5,2|10,1:2|0:1,0:0:0:0:
512,321,94494,1,0,1:2:0:0:
380,87,94698,54,0,P|322:116|258:130,1,131.25,6|0,1:2|0:0,0:0:0:0:
198,187,95106,2,0,P|139:157|75:143,1,131.25,10|0,0:2|0:0,0:0:0:0:
23,82,95514,1,2,1:2:0:0:
95,37,95718,1,0,1:2:0:0:
283,212,95923,1,10,0:2:0:0:
218,271,96127,1,2,1:2:0:0:
221,275,96535,6,0,P|238:325|248:369,1,87.5,2|8,1:2|0:2,0:0:0:0:
284,47,96943,2,0,P|267:97|257:141,1,87.5,2|0,1:2|1:2,0:0:0:0:
138,300,97351,2,0,P|149:342|164:384,1,87.5,2|8,1:2|0:2,0:0:0:0:
361,68,97759,2,0,P|350:110|335:151,1,87.5,2|4,1:2|1:2,0:0:0:0:
267,208,98371,22,0,B|238:200|219:184|219:184|143:199,1,131.25,12|0,0:2|0:0,0:0:0:0:
144,199,98780,2,0,L|103:181,1,43.75,0|0,1:2|0:0,0:0:0:0:
0,75,98984,2,0,L|40:57,1,43.75,0|0,1:2|0:0,0:0:0:0:
112,13,99188,1,8,0:2:0:0:
295,38,99392,22,0,P|286:80|283:124,1,87.5,6|0,1:2|0:0,0:0:0:0:
435,376,99800,1,0,1:2:0:0:
480,305,100004,2,0,P|467:263|458:220,1,87.5,8|0,0:2|1:2,0:0:0:0:
202,314,100412,1,0,1:2:0:0:
144,199,100616,1,0,1:2:0:0:
199,77,100820,1,8,0:2:0:0:
399,149,101025,1,0,1:2:0:0:
399,149,101127,1,0,3:2:0:0:
399,149,101229,22,0,P|339:176|275:188,1,131.25,6|0,1:2|0:0,0:0:0:0:
275,188,101637,2,0,B|317:202|317:202|354:226,1,87.5,8|0,0:2|0:0,0:0:0:0:
433,356,102045,1,0,1:2:0:0:
512,384,102249,1,2,1:2:0:0:
439,49,102453,85,8,0:2:0:0:
263,0,102657,1,6,1:2:0:0:
266,4,103065,21,2,1:2:0:0:
203,62,103269,2,0,L|159:54,1,43.75,10|0,0:2|0:0,0:0:0:0:
320,70,103474,2,0,L|363:62,1,43.75,0|0,1:2|0:0,0:0:0:0:
260,127,103678,1,0,1:2:0:0:
251,330,103882,1,8,0:1:0:0:
252,288,103984,1,8,0:1:0:0:
255,247,104086,1,8,0:1:0:0:
263,131,104290,2,0,L|260:174,1,43.75,0|0,1:2|2:2,0:0:0:0:
176,376,104494,102,0,B|130:360|130:360|95:372|48:359,1,131.25,6|0,1:2|0:0,0:0:0:0:
0,299,104902,1,10,0:1:0:0:
87,264,105106,2,0,B|75:222|75:222|56:184,1,87.5,2|0,3:2|1:2,0:0:0:0:
266,4,105514,2,0,B|254:46|254:46|234:84,1,87.5,2|8,1:2|0:2,0:0:0:0:
413,354,105923,70,0,P|385:295|368:232,1,131.25,6|0,1:2|0:0,0:0:0:0:
354,158,106331,1,0,1:2:0:0:
470,10,106535,2,0,P|467:53|472:97,1,87.5,8|0,0:2|3:2,0:0:0:0:
433,185,106943,1,2,1:2:0:0:
353,83,107147,1,0,1:2:0:0:
294,213,107351,1,10,0:2:0:0:
354,158,107555,1,0,1:2:0:0:
82,283,107759,22,0,P|112:225|138:164,1,131.25,6|0,1:2|0:0,0:0:0:0:
161,92,108167,1,10,0:1:0:0:
0,5,108371,2,0,P|7:49|20:90,1,87.5,2|0,3:2|1:2,0:0:0:0:
148,251,108780,2,0,P|140:207|138:164,1,87.5,2|8,1:2|0:2,0:0:0:0:
247,381,109188,70,0,P|264:295|294:213,1,175,6|0,1:2|1:2,0:0:0:0:
343,145,109800,1,8,0:2:0:0:
404,89,110004,1,0,3:2:0:0:
214,152,110208,1,2,1:2:0:0:
325,62,110412,1,0,1:2:0:0:
236,277,110616,54,0,P|262:242|295:212,1,87.5,10|0,0:2|1:2,0:0:0:0:
176,38,111025,2,0,P|173:102|213:151,1,131.25,6|0,1:2|0:0,0:0:0:0:
178,221,111433,1,10,0:1:0:0:
339,49,111637,2,0,P|298:66|255:75,1,87.5,2|0,3:2|1:2,0:0:0:0:
30,143,112045,2,0,P|70:159|113:168,1,87.5,2|8,1:2|0:2,0:0:0:0:
353,366,112453,54,0,B|359:344|363:315|363:315|382:283|386:238,1,131.25,6|0,1:2|0:0,0:0:0:0:
386,240,112861,2,0,P|368:199|353:158,1,87.5,0|8,1:2|0:2,0:0:0:0:
321,86,113269,1,0,3:2:0:0:
274,321,113474,6,0,L|259:279,1,43.75,2|0,1:2|0:0,0:0:0:0:
231,210,113678,1,0,1:2:0:0:
507,115,113882,2,0,P|495:157|472:193,1,87.5,10|0,0:2|1:2,0:0:0:0:
231,210,114290,6,0,L|216:168,1,43.75,6|0,1:2|0:0,0:0:0:0:
188,99,114494,1,0,1:2:0:0:
432,80,114698,2,0,P|420:122|397:158,1,87.5,10|2,0:1|3:2,0:0:0:0:
136,163,115106,1,0,1:2:0:0:
105,88,115310,1,2,1:2:0:0:
148,20,115514,1,8,0:2:0:0:
355,22,115718,86,0,P|346:87|307:138,1,131.25,6|0,1:2|0:0,0:0:0:0:
307,139,116127,2,0,P|325:178|341:219,1,87.5,0|8,1:2|0:2,0:0:0:0:
247,48,116535,1,0,3:2:0:0:
147,172,116739,1,2,3:2:0:0:
64,164,116943,1,0,1:2:0:0:
21,92,117147,1,10,0:2:0:0:
47,18,117351,1,0,3:2:0:0:
341,219,117555,22,0,P|278:237|219:267,1,131.25,6|0,1:2|0:0,0:0:0:0:
153,307,117963,1,10,0:1:0:0:
493,331,118167,2,0,P|449:330|406:322,1,87.5,2|0,3:2|1:2,0:0:0:0:
512,252,118576,1,2,1:2:0:0:
325,376,118780,1,8,0:2:0:0:
246,380,118984,6,0,P|249:314|270:252,1,131.25,6|0,1:2|0:0,0:0:0:0:
270,252,119392,2,0,B|257:211|257:211|252:166,1,87.5,0|8,1:2|0:2,0:0:0:0:
299,30,119800,1,0,1:2:0:0:
176,239,120004,1,2,1:2:0:0:
340,185,120208,1,4,1:2:0:0:
39,106,120412,2,0,B|79:126|79:126|121:132,1,87.5,10|4,0:2|1:2,0:0:0:0:
445,74,120820,6,0,L|438:117,1,43.75,6|0,1:2|0:0,0:0:0:0:
422,194,121025,1,0,1:2:0:0:
254,373,121229,21,10,0:1:0:0:
336,289,121433,2,0,B|330:263|321:244|321:244|297:217|284:169,1,131.25,2|0,3:2|0:0,0:0:0:0:
285,170,121841,2,0,P|287:126|292:82,1,87.5,2|8,1:2|0:2,0:0:0:0:
230,284,122249,2,0,B|157:262|166:333|83:318,1,131.25,6|0,1:2|0:0,0:0:0:0:
34,316,122657,1,0,1:2:0:0:
43,145,122861,54,0,P|83:163|126:171,1,87.5,8|0,0:2|3:2,0:0:0:0:
204,172,123269,1,2,1:2:0:0:
271,120,123474,1,0,1:2:0:0:
43,145,123678,2,0,P|61:105|69:62,1,87.5,10|0,0:2|3:2,0:0:0:0:
281,204,124086,21,6,1:2:0:0:
191,93,124494,1,10,0:1:0:0:
281,204,124698,2,0,P|324:193|367:186,1,87.5,2|0,3:2|1:2,0:0:0:0:
425,124,125106,1,2,1:2:0:0:
329,61,125310,1,8,0:2:0:0:
385,272,125514,54,0,P|374:229|367:186,1,87.5,6|0,1:2|0:0,0:0:0:0:
325,338,125923,1,0,1:2:0:0:
463,223,126127,1,8,0:2:0:0:
328,342,126331,1,0,1:2:0:0:
492,384,126535,1,2,1:2:0:0:
492,384,126739,1,0,3:2:0:0:
385,272,126943,2,0,P|344:256|301:257,1,87.5,10|0,0:2|1:2,0:0:0:0:
129,207,127351,21,6,1:2:0:0:
79,337,127555,1,0,1:2:0:0:
133,211,127759,2,0,L|125:167,1,43.75,14|0,0:1|0:0,0:0:0:0:
223,93,127963,2,0,L|179:100,1,43.75,6|0,1:2|0:0,0:0:0:0:
100,4,128167,2,0,L|107:47,1,43.75,4|0,1:2|0:0,0:0:0:0:
10,126,128371,2,0,L|53:118,1,43.75,2|0,1:2|0:0,0:0:0:0:
226,97,128576,85,8,0:2:0:0:
296,162,128780,2,0,P|359:143|423:155,1,131.25,6|0,1:2|0:0,0:0:0:0:
423,155,129188,2,0,B|465:161|465:161|507:145,1,87.5,2|8,1:2|0:2,0:0:0:0:
354,287,129596,1,2,1:2:0:0:
456,76,129800,85,10,0:2:0:0:
454,63,129902,1,8,0:2:0:0:
452,50,130004,1,0,1:2:0:0:
354,287,130208,1,10,0:2:0:0:
356,274,130310,1,8,0:2:0:0:
358,261,130412,1,0,1:2:0:0:
141,295,130616,38,0,P|182:308|221:328,1,87.5,6|0,1:2|1:2,0:0:0:0:
288,381,131025,1,8,0:2:0:0:
28,228,131229,70,0,P|60:283|49:346,1,131.25,0|0,1:2|0:0,0:0:0:0:
49,346,131637,1,2,1:2:0:0:
141,295,131841,1,10,0:2:0:0:
28,228,132045,2,0,P|8:189|15:147,1,87.5,2|0,1:2|1:2,0:0:0:0:
69,77,132453,1,2,1:2:0:0:
147,117,132657,1,8,0:2:0:0:
28,228,132861,2,0,P|41:187|76:162,1,87.5,2|0,1:2|0:0,0:0:0:0:
147,117,133269,2,0,P|185:97|227:104,1,87.5,2|8,1:2|0:2,0:0:0:0:
376,73,133678,38,0,P|333:122|306:181,1,131.25,2|0,1:2|0:0,0:0:0:0:
305,181,134086,1,0,0:0:0:0:
227,104,134290,1,8,0:2:0:0:
511,179,134494,2,0,P|467:176|424:169,1,87.5,0|0,1:2|0:0,0:0:0:0:
216,251,134902,1,2,1:2:0:0:
373,287,135106,2,0,P|329:289|286:296,1,87.5,10|2,0:2|0:2,0:0:0:0:
322,374,135514,69,0,1:2:0:0:
383,208,135718,1,2,1:2:0:0:
286,296,135923,1,8,0:2:0:0:
415,358,136127,2,0,P|458:355|501:348,1,87.5,2|0,1:2|0:0,0:0:0:0:
136,356,136535,2,0,P|134:312|114:273,1,87.5,2|8,1:2|0:2,0:0:0:0:
51,215,136943,1,0,1:2:0:0:
22,318,137147,6,0,B|111:310|75:342|183:324,1,131.25,4|0,1:2|0:0,0:0:0:0:
151,328,137555,2,0,P|191:309|233:296,1,87.5,10|0,0:2|1:2,0:0:0:0:
401,239,137963,1,0,0:0:0:0:
489,232,138167,1,0,1:2:0:0:
404,243,138371,1,8,0:2:0:0:
326,303,138576,70,0,P|314:260|309:217,1,87.5,2|0,0:2|1:2,0:0:0:0:
241,133,138984,2,0,P|252:90|257:47,1,87.5,2|8,1:2|0:2,0:0:0:0:
115,58,139392,2,0,B|96:141|96:141|121:179,1,131.25,2|0,1:2|0:0,0:0:0:0:
121,179,139800,2,0,P|85:204|47:227,1,87.5,2|8,1:2|0:2,0:0:0:0:
80,338,140208,54,0,P|124:333|166:343,2,87.5,2|0|0,1:2|1:2|1:2,0:0:0:0:
7,373,140820,1,8,0:2:0:0:
259,319,141025,2,0,P|235:282|200:256,1,87.5,2|0,1:2|0:0,0:0:0:0:
342,348,141433,1,0,1:2:0:0:
286,193,141637,1,8,0:2:0:0:
350,355,141841,1,2,1:2:0:0:
350,355,141943,1,2,0:2:0:0:
350,355,142045,2,0,P|351:311|337:270,1,87.5,2|0,1:2|1:2,0:0:0:0:
286,193,142453,101,8,0:2:0:0:
254,113,142657,1,0,1:2:0:0:
298,39,142861,1,4,0:2:0:0:
138,74,143065,2,0,L|176:94,1,43.75,10|8,0:1|0:2,0:0:0:0:
197,186,143269,2,0,L|160:209,1,43.75,8|8,0:2|0:2,0:0:0:0:
68,184,143474,2,0,L|66:140,1,43.75,10|8,0:1|0:2,0:0:0:0:
338,271,143678,70,0,B|354:226|354:226|406:194|459:210,1,157.500006008148,4|0,1:2|0:0,0:0:0:0:
459,210,144086,2,0,P|476:170|471:127,1,87.5,12|0,0:2|1:2,0:0:0:0:
270,320,144494,1,0,0:0:0:0:
163,194,144698,1,2,1:1:0:0:
273,324,144902,2,0,L|229:331,1,43.75,10|0,0:1|0:0,0:0:0:0:
156,376,145106,2,0,L|69:363,1,87.5,2|0,1:1|1:2,0:0:0:0:
166,198,145514,1,2,1:1:0:0:
0,226,145718,1,8,0:2:0:0:
149,284,145923,102,0,B|235:302|193:316|272:324,1,131.25,2|0,1:1|0:0,0:0:0:0:
272,324,146331,2,0,P|314:311|353:291,1,87.5,2|8,1:1|0:2,0:0:0:0:
388,176,146739,2,0,P|344:104|260:106,1,175,2|0,0:1|0:0,0:0:0:0:
303,177,147351,1,8,0:2:0:0:
459,244,147555,2,0,P|476:204|480:160,1,87.5,0|0,1:2|0:0,0:0:0:0:
261,106,147963,5,2,1:1:0:0:
275,22,148167,1,10,0:1:0:0:
153,246,148371,2,0,B|154:220|149:203|149:203|167:170|175:119,1,131.25,2|0,0:1|0:0,0:0:0:0:
175,120,148780,2,0,P|161:78|151:35,1,87.5,2|8,1:1|0:2,0:0:0:0:
65,235,149188,2,0,P|51:276|41:319,1,87.5,2|0,1:1|1:2,0:0:0:0:
127,373,149596,102,0,L|169:362,1,43.75,2|0,1:1|0:0,0:0:0:0:
310,324,149800,1,8,0:2:0:0:
344,315,149902,1,8,0:2:0:0:
378,306,150004,1,0,1:2:0:0:
169,362,150208,38,0,L|211:351,1,43.75,4|0,1:2|0:0,0:0:0:0:
381,310,150412,1,2,1:1:0:0:
448,237,150616,86,0,P|409:216|366:214,1,87.5,10|0,0:1|1:2,0:0:0:0:
211,351,151025,2,0,P|224:286|218:221,1,131.25,2|0,0:1|0:0,0:0:0:0:
218,221,151433,85,8,0:2:0:0:
274,29,151637,2,0,L|269:72,1,43.75,2|0,0:1|0:0,0:0:0:0:
210,138,151841,2,0,L|221:224,1,87.5,0|2,1:2|1:1,0:0:0:0:
277,33,152249,1,8,0:2:0:0:
222,224,152453,6,0,P|179:272|115:272,1,131.25,2|0,1:1|0:0,0:0:0:0:
116,273,152861,2,0,L|73:268,1,43.75,2|0,1:1|0:0,0:0:0:0:
0,256,153065,1,8,0:2:0:0:
286,370,153269,2,0,L|243:365,1,43.75,2|0,1:1|0:0,0:0:0:0:
163,355,153474,1,4,1:2:0:0:
289,374,153678,1,0,1:2:0:0:
116,273,153882,2,0,L|159:278,1,43.75,8|0,0:2|0:0,0:0:0:0:
263,225,154086,38,0,P|305:272|369:272,1,131.25,2|0,1:1|0:0,0:0:0:0:
369,273,154494,2,0,L|412:268,1,43.75,0|0,1:2|0:0,0:0:0:0:
485,256,154698,1,8,0:2:0:0:
199,370,154902,2,0,L|242:365,1,43.75,2|2,1:2|0:2,0:0:0:0:
322,355,155107,1,6,1:1:0:0:
196,374,155311,1,0,1:2:0:0:
369,273,155514,53,8,0:2:0:0:
355,275,155616,1,8,0:2:0:0:
340,277,155718,1,0,1:2:0:0:
488,260,155923,1,0,1:2:0:0:
237,293,156127,1,8,0:2:0:0:
251,291,156229,1,8,0:2:0:0:
266,289,156331,1,0,1:2:0:0:
118,306,156536,1,0,1:2:0:0:
118,306,156739,86,0,P|121:262|121:218,1,87.5,4|0,1:2|1:2,0:0:0:0:
18,163,157147,2,0,P|14:97|14:31,1,131.25,10|0,0:1|0:0,0:0:0:0:
14,31,157555,1,2,1:1:0:0:
134,90,157759,1,2,1:1:0:0:
186,30,157963,1,8,0:2:0:0:
251,88,158167,54,0,P|216:61|185:30,1,87.5,2|0,1:1|0:0,0:0:0:0:
355,113,158576,2,0,P|332:75|316:34,1,87.5,2|8,1:1|0:2,0:0:0:0:
452,143,158984,2,0,P|445:99|445:56,1,87.5,2|0,1:1|1:2,0:0:0:0:
301,309,159392,101,2,1:1:0:0:
373,365,159596,2,0,B|389:332|389:297|389:297|402:268|404:238,1,131.25,10|0,0:1|0:0,0:0:0:0:
404,239,160004,38,0,P|383:247|362:250,1,43.75,4|0,1:2|0:0,0:0:0:0:
469,317,160208,1,0,1:2:0:0:
361,250,160412,2,0,P|300:230|268:174,1,131.25,10|0,0:1|0:0,0:0:0:0:
268,175,160820,2,0,P|264:153|265:131,1,43.75,2|0,1:1|0:0,0:0:0:0:
362,250,161025,1,2,1:1:0:0:
265,132,161229,1,8,0:2:0:0:
298,44,161433,22,0,P|347:1|411:0,1,131.25,2|0,1:1|0:0,0:0:0:0:
411,0,161841,2,0,P|431:8|448:21,1,43.75,2|0,1:1|0:0,0:0:0:0:
265,132,162045,1,8,0:2:0:0:
447,20,162249,2,0,P|487:72|492:137,1,131.25,2|0,1:1|0:0,0:0:0:0:
492,137,162657,2,0,P|486:158|475:177,1,43.75,2|0,1:1|0:0,0:0:0:0:
409,225,162861,1,8,0:2:0:0:
391,231,162963,1,8,0:2:0:0:
372,234,163065,1,2,1:1:0:0:
265,132,163269,86,0,L|222:123,1,43.75,4|0,1:2|0:0,0:0:0:0:
146,106,163474,1,0,1:2:0:0:
72,325,163678,2,0,B|69:275|69:275|54:247|44:197,1,131.25,10|0,0:1|0:0,0:0:0:0:
44,197,164086,1,2,1:1:0:0:
246,323,164290,70,0,P|205:306|162:297,1,87.5,0|8,1:2|0:2,0:0:0:0:
230,230,164698,1,2,1:1:0:0:
311,380,164902,1,0,0:0:0:0:
317,257,165106,2,0,B|323:231|318:207|318:207|338:172|344:131,1,131.25,0|0,1:2|0:0,0:0:0:0:
344,131,165514,2,0,P|386:144|430:142,1,87.5,2|0,1:1|1:2,0:0:0:0:
230,230,165923,2,0,L|186:222,1,43.75,0|0,1:2|0:0,0:0:0:0:
112,206,166127,1,8,0:2:0:0:
512,153,166331,38,0,P|505:110|477:76,1,87.5,2|4,1:1|1:2,0:0:0:0:
405,43,166739,1,0,0:0:0:0:
325,45,166943,1,12,0:2:0:0:
128,77,167147,2,0,B|215:108|169:108|246:132,1,131.25,2|0,0:1|0:0,0:0:0:0:
246,132,167555,1,0,1:2:0:0:
150,0,167759,1,8,0:2:0:0:
72,198,167963,2,0,P|58:156|42:115,1,87.5,0|2,1:2|0:1,0:0:0:0:
43,116,168576,37,8,0:2:0:0:
96,127,168678,1,8,0:2:0:0:
146,113,168780,1,0,1:2:0:0:
325,45,168984,2,0,L|340:4,1,43.75,10|0,0:1|0:0,0:0:0:0:
368,117,169188,1,8,0:2:0:0:
368,117,169290,1,8,0:2:0:0:
368,117,169392,1,0,1:2:0:0:
253,299,169596,101,10,0:1:0:0:
253,299,169698,1,8,0:2:0:0:
253,299,169800,2,0,L|268:339,1,43.75,4|0,1:2|0:0,0:0:0:0:
86,376,170004,2,0,L|101:335,1,43.75,0|0,1:2|0:0,0:0:0:0:
128,264,170208,1,8,0:2:0:0:
0,162,170412,2,0,P|38:141|65:107,1,87.5,0|0,1:2|1:2,0:0:0:0:
84,25,170820,1,0,1:2:0:0:
0,162,171025,2,0,P|22:153|38:141,1,43.75,8|0,0:2|0:0,0:0:0:0:
162,159,171229,6,0,P|180:96|223:47,1,131.25,0|0,1:2|0:0,0:0:0:0:
222,47,171637,2,0,P|241:37|262:32,1,43.75,0|0,1:2|0:0,0:0:0:0:
349,41,171841,1,8,0:2:0:0:
162,159,172045,2,0,P|183:156|205:159,1,43.75,2|0,1:1|0:0,0:0:0:0:
276,189,172249,1,0,1:2:0:0:
106,276,172453,2,0,P|127:281|145:292,1,43.75,2|0,1:1|0:0,0:0:0:0:
205,344,172657,1,8,0:2:0:0:
393,278,172861,38,0,P|384:235|379:191,2,87.5,2|4|0,1:1|1:2|1:2,0:0:0:0:
491,318,173474,1,8,0:2:0:0:
309,266,173678,1,0,1:2:0:0:
494,322,173882,2,0,L|451:330,1,43.75,0|0,1:2|0:0,0:0:0:0:
291,359,174086,2,0,L|204:343,1,87.5,0|8,1:2|0:2,0:0:0:0:
159,252,174494,102,0,P|170:187|177:122,1,131.25,4|0,1:2|0:0,0:0:0:0:
177,123,174902,2,0,P|164:80|156:38,1,87.5,2|8,1:1|0:2,0:0:0:0:
499,19,175310,6,0,B|452:40|452:40|432:70|397:98,1,131.25,2|0,1:1|0:0,0:0:0:0:
397,98,175718,2,0,P|441:93|485:93,1,87.5,2|8,1:1|0:2,0:0:0:0:
177,124,176127,2,0,P|155:127|133:131,1,43.75,2|0,1:1|0:0,0:0:0:0:
61,152,176331,1,4,1:2:0:0:
251,114,176535,1,0,1:2:0:0:
325,106,176739,1,8,0:2:0:0:
177,124,176943,1,0,1:2:0:0:
398,98,177147,1,0,1:2:0:0:
445,169,177351,102,0,P|433:215|424:265,1,87.5,0|8,1:2|0:2,0:0:0:0:
289,359,177759,2,0,P|276:296|278:230,1,131.25,0|0,1:2|0:0,0:0:0:0:
278,229,178167,2,0,P|269:249|257:267,1,43.75,0|0,1:2|0:0,0:0:0:0:
197,315,178371,1,8,0:2:0:0:
196,196,178576,2,0,P|154:209|111:205,1,87.5,2|0,1:1|1:2,0:0:0:0:
337,148,178984,2,0,P|330:127|325:105,1,43.75,2|0,1:1|0:0,0:0:0:0:
310,29,179188,1,8,0:2:0:0:
196,196,179392,2,0,P|201:152|206:109,2,87.5,2|0|0,1:1|1:2|1:2,0:0:0:0:
275,254,180004,37,10,0:1:0:0:
113,131,180208,1,2,1:1:0:0:
197,315,180412,1,0,1:2:0:0:
272,181,180616,1,0,1:2:0:0:
337,148,180820,1,10,0:1:0:0:
23,207,181025,2,0,P|64:219|107:230,1,87.5,2|0,1:1|0:0,0:0:0:0:
270,358,181433,85,0,1:2:0:0:
207,110,181637,1,8,0:2:0:0:
350,235,181841,1,0,1:2:0:0:
107,230,182045,1,0,1:2:0:0:
442,327,182249,102,0,L|416:291,1,43.75,8|0,0:2|0:0,0:0:0:0:
337,148,182453,1,8,0:2:0:0:
349,101,182555,1,8,0:3:0:0:
381,59,182657,1,4,1:3:0:0:
423,26,182759,1,4,0:3:0:0:
444,26,182861,102,0,P|477:16|511:6,1,70,14|0,0:2|0:2,0:0:0:0:
