osu file format v14

[General]
AudioFilename: audio.mp3
AudioLeadIn: 0
PreviewTime: 26076
Countdown: 0
SampleSet: Drum
StackLeniency: 0.4
Mode: 0
LetterboxInBreaks: 0
EpilepsyWarning: 1
WidescreenStoryboard: 1

[Editor]
Bookmarks: 4,13065,26127,52249,65310,75106,104494,130616,156739,182861
DistanceSpacing: 2.8
BeatDivisor: 4
GridSize: 4
TimelineZoom: 1

[Metadata]
Title:Tek It
TitleUnicode:Tek It
Artist:Cafune
ArtistUnicode:Cafuné
Creator:Heroine
Version:Hard
Source:
Tags:I watch the moon Iwatchthemoon running alternative indie pop shoegaze english friction Some Hero Some_Hero tiktok tik tok tik-tok
BeatmapID:3690638
BeatmapSetID:1800225

[Difficulty]
HPDrainRate:4
CircleSize:3.7
OverallDifficulty:6.5
ApproachRate:7.5
SliderMultiplier:1.4
SliderTickRate:1

[Events]
//Background and Video events
0,0,"cti.jpg",0,0
Video,-1865,"video.mp4"
//Break Periods
//Storyboard Layer 0 (Background)
//Storyboard Layer 1 (Fail)
//Storyboard Layer 2 (Pass)
//Storyboard Layer 3 (Foreground)
//Storyboard Layer 4 (Overlay)
//Storyboard Sound Samples

[TimingPoints]
-1628,408.163265306122,4,2,1,70,1,0
3065,-100,4,3,1,70,0,0
26127,-86.9565217391304,4,3,1,80,0,1
52249,-111.111111111111,4,2,1,60,0,0
65310,-100,4,3,1,70,0,0
75106,-86.9565217391304,4,3,1,80,0,1
103882,-86.9565217391304,4,3,2,60,0,1
104494,-100,4,3,1,60,0,0
130616,-86.9565217391304,4,3,1,70,0,1
131025,-86.9565217391304,4,3,1,70,0,0
143065,-86.9565217391304,4,3,2,60,0,0
143678,-80,4,3,3,75,0,1
149800,-80,4,3,2,75,0,1
150004,-80,4,3,3,75,0,1
155514,-80,4,3,2,75,0,1
156739,-80,4,3,3,80,0,1
162861,-80,4,3,2,80,0,1
163065,-80,4,3,3,80,0,1
168576,-80,4,3,2,80,0,1
169800,-80,4,3,1,80,0,1
182453,-80,4,3,2,80,0,1
182861,-80,4,3,1,50,0,0
183269,-80,4,3,1,5,0,0

[Colours]
Combo1 : 232,232,232
Combo2 : 255,234,81
Combo3 : 164,196,249
Combo4 : 224,75,71
Combo5 : 114,74,149
Combo6 : 104,198,135
Combo7 : 68,225,238
Combo8 : 210,60,196

[HitObjects]
256,192,4,37,2,1:1:0:0:
256,192,1433,5,2,1:1:0:0:
255,192,3065,86,0,P|235:126|175:93,1,140,6|0,1:2|3:2,0:0:0:0:
112,27,3678,2,0,P|46:47|13:107,1,140,10|0,0:2|1:2,0:0:0:0:
50,187,4290,1,2,1:2:0:0:
1,255,4494,1,8,0:2:0:0:
78,300,4698,2,0,L|144:279,1,70,2|0,3:2|1:2,0:0:0:0:
322,333,5310,2,0,L|457:371,1,140,10|0,0:2|1:2,0:0:0:0:
512,305,5923,5,2,1:2:0:0:
447,242,6127,1,8,0:2:0:0:
505,175,6331,1,0,3:2:0:0:
433,103,6535,5,2,1:1:0:0:
433,103,7963,85,2,1:1:0:0:
432,103,9596,6,0,P|339:148|235:156,1,210,6|10,1:2|0:2,0:0:0:0:
47,38,10616,1,0,1:2:0:0:
126,12,10820,1,2,1:2:0:0:
130,94,11025,1,8,0:2:0:0:
142,181,11229,2,0,P|156:212|165:246,1,70,2|0,3:2|1:2,0:0:0:0:
259,222,11637,2,0,P|244:190|235:156,1,70,0|10,3:2|0:2,0:0:0:0:
335,160,12045,2,0,P|368:220|346:284,1,140,0|2,0:0|1:2,0:0:0:0:
296,349,12657,37,8,0:2:0:0:
296,349,12861,1,0,3:2:0:0:
207,326,13065,1,6,1:2:0:0:
132,374,13269,1,2,0:2:0:0:
65,306,13474,1,10,0:2:0:0:
124,252,13678,2,0,P|129:217|137:183,1,70,2|2,3:2|1:1,0:0:0:0:
101,106,14086,1,2,1:1:0:0:
101,106,14290,1,8,0:2:0:0:
184,49,14494,22,0,P|218:54|252:62,1,70,2|0,3:2|1:2,0:0:0:0:
332,85,14902,2,0,P|326:119|318:153,1,70,2|8,3:2|0:2,0:0:0:0:
390,237,15310,2,0,P|373:267|375:302,1,70,2|2,3:2|1:1,0:0:0:0:
453,347,15718,1,2,1:1:0:0:
493,272,15923,1,8,0:2:0:0:
493,272,16127,2,0,P|475:204|472:134,1,140,2|0,3:2|3:2,0:0:0:0:
485,48,16739,1,8,0:2:0:0:
485,48,16943,1,0,3:2:0:0:
405,1,17147,38,0,P|372:14|338:22,1,70,0|2,1:2|1:2,0:0:0:0:
253,27,17555,1,8,0:2:0:0:
175,91,17759,2,0,P|231:129|233:197,1,140,2|0,3:2|3:2,0:0:0:0:
302,247,18371,2,0,P|337:240|370:227,1,70,8|0,0:2|0:0,0:0:0:0:
437,285,18780,1,0,1:2:0:0:
437,285,18984,1,0,1:2:0:0:
387,363,19188,2,0,P|352:369|319:382,1,70,8|0,0:2|3:2,0:0:0:0:
244,336,19596,22,0,P|181:309|154:247,1,140,2|8,1:2|0:2,0:0:0:0:
175,164,20208,1,2,3:2:0:0:
233,104,20412,1,2,1:1:0:0:
158,56,20616,2,0,P|124:63|90:69,1,70,2|8,1:1|0:2,0:0:0:0:
41,148,21025,102,0,P|50:218|38:286,1,140,0|0,0:0|3:2,0:0:0:0:
86,359,21637,1,10,0:2:0:0:
168,300,21841,2,0,P|201:289|233:276,2,70,2|2|2,3:2|1:1|1:1,0:0:0:0:
209,370,22453,1,10,0:2:0:0:
289,359,22657,2,0,P|327:300|370:245,1,140,2|0,3:2|3:2,0:0:0:0:
355,157,23269,1,8,0:2:0:0:
276,111,23474,2,0,P|243:123|208:125,1,70,0|0,3:2|1:2,0:0:0:0:
219,236,23882,2,0,P|251:224|286:222,1,70,0|8,1:2|0:2,0:0:0:0:
355,156,24290,102,0,P|358:87|369:18,1,140,0|0,3:2|3:2,0:0:0:0:
457,6,24902,1,8,0:2:0:0:
457,6,25106,1,0,3:2:0:0:
491,74,25310,2,0,P|498:108|504:142,1,70,0|0,1:2|1:2,0:0:0:0:
512,237,25718,1,8,0:2:0:0:
512,237,25820,1,8,0:2:0:0:
512,237,25923,1,0,1:2:0:0:
444,317,26127,6,0,P|370:288|290:281,2,161.000003070831,6|8|0,1:2|0:1|1:2,0:0:0:0:
512,237,27147,1,0,1:2:0:0:
445,184,27351,1,8,0:2:0:0:
353,192,27555,2,0,P|348:153|340:113,1,80.5000015354157,2|0,1:2|0:0,0:0:0:0:
321,34,27963,53,0,1:2:0:0:
242,89,28167,1,8,0:2:0:0:
159,79,28371,2,0,P|154:39|146:0,1,80.5000015354157,0|0,0:0|1:2,0:0:0:0:
59,15,28780,1,0,1:2:0:0:
0,81,28984,1,10,0:2:0:0:
28,161,29188,54,0,P|65:175|98:198,1,80.5000015354157,2|4,1:2|1:2,0:0:0:0:
263,323,29800,2,0,P|332:283|367:211,1,161.000003070831,10|0,0:1|1:2,0:0:0:0:
366,126,30412,1,2,1:1:0:0:
325,49,30616,1,8,0:2:0:0:
248,98,30820,2,0,P|241:137|252:175,1,80.5000015354157,2|0,0:2|1:2,0:0:0:0:
185,243,31229,2,0,P|191:282|180:320,1,80.5000015354157,2|8,1:1|0:2,0:0:0:0:
95,373,31637,2,0,P|84:293|67:214,1,161.000003070831,2|2,1:1|1:2,0:0:0:0:
38,142,32249,1,8,0:2:0:0:
85,69,32453,102,0,P|123:80|162:89,1,80.5000015354157,2|6,0:2|1:2,0:0:0:0:
366,126,33065,2,0,P|404:114|443:105,1,80.5000015354157,10|0,0:2|0:0,0:0:0:0:
484,25,33474,1,0,1:2:0:0:
406,3,33678,1,0,1:2:0:0:
340,36,33882,1,8,0:2:0:0:
275,100,34086,22,0,P|291:178|297:258,1,161.000003070831,2|2,1:2|1:2,0:0:0:0:
284,342,34698,1,8,0:2:0:0:
208,384,34902,2,0,P|199:344|196:304,1,80.5000015354157,2|0,1:2|0:0,0:0:0:0:
185,224,35310,2,0,P|145:232|105:235,1,80.5000015354157,2|8,1:2|0:2,0:0:0:0:
48,178,35718,1,2,1:2:0:0:
72,102,35923,6,0,L|231:78,2,161.000003070831,4|10|0,1:2|0:1|3:2,0:0:0:0:
16,35,36943,1,2,1:1:0:0:
89,1,37147,1,8,0:2:0:0:
71,102,37351,2,0,P|56:139|48:178,1,80.5000015354157,2|0,0:2|1:2,0:0:0:0:
115,243,37759,101,2,1:1:0:0:
188,201,37963,1,8,0:2:0:0:
258,251,38167,2,0,P|336:265|411:239,1,161.000003070831,2|0,1:1|1:2,0:0:0:0:
466,177,38780,1,10,0:1:0:0:
480,100,38984,1,8,0:3:0:0:
391,104,39188,86,0,L|312:123,1,80.5000015354157,6|0,1:2|0:0,0:0:0:0:
260,8,39596,2,0,L|338:27,1,80.5000015354157,10|0,0:1|0:0,0:0:0:0:
312,123,40004,1,2,1:2:0:0:
229,173,40208,2,0,P|216:135|210:96,1,80.5000015354157,2|8,1:1|0:2,0:0:0:0:
126,146,40616,38,0,P|108:223|119:303,1,161.000003070831,2|0,1:2|1:2,0:0:0:0:
207,311,41229,1,8,0:2:0:0:
288,361,41433,1,0,0:0:0:0:
343,291,41637,1,0,1:2:0:0:
343,291,41841,1,0,1:2:0:0:
276,223,42045,1,8,0:2:0:0:
334,164,42249,70,0,P|371:177|411:185,1,80.5000015354157,2|4,1:2|1:2,0:0:0:0:
466,112,42657,1,0,0:0:0:0:
397,44,42861,1,10,0:1:0:0:
292,43,43065,2,0,P|254:56|214:64,1,80.5000015354157,2|0,0:2|1:2,0:0:0:0:
176,143,43474,2,0,P|138:129|98:121,1,80.5000015354157,2|8,1:1|0:2,0:0:0:0:
37,198,43882,6,0,P|24:235|30:274,1,80.5000015354157,2|0,0:2|1:2,0:0:0:0:
114,319,44290,2,0,P|151:302|185:281,1,80.5000015354157,2|8,1:2|0:2,0:0:0:0:
274,315,44698,2,0,P|349:343|429:347,1,161.000003070831,2|2,1:1|1:2,0:0:0:0:
501,302,45310,2,0,P|484:265|463:231,1,80.5000015354157,8|0,0:2|1:2,0:0:0:0:
417,160,45718,101,6,1:2:0:0:
252,34,46127,1,10,0:2:0:0:
202,231,46535,2,0,P|164:219|125:211,1,80.5000015354157,2|0,1:2|1:2,0:0:0:0:
96,133,46943,1,10,0:2:0:0:
177,117,47147,1,2,1:2:0:0:
267,332,47555,1,2,1:2:0:0:
325,278,47759,1,8,0:2:0:0:
350,205,47963,6,0,P|332:170|316:133,1,80.5000015354157,2|0,0:2|1:2,0:0:0:0:
394,86,48371,2,0,P|389:45|389:5,1,80.5000015354157,2|8,1:2|0:2,0:0:0:0:
482,59,48780,2,0,P|486:99|486:139,1,80.5000015354157,2|4,1:2|1:2,0:0:0:0:
248,247,49392,2,0,P|236:168|235:87,1,161.000003070831,12|0,0:2|1:2,0:0:0:0:
247,6,50004,1,0,1:2:0:0:
318,45,50208,1,8,0:2:0:0:
404,16,50412,22,0,P|395:55|390:94,1,80.5000015354157,6|0,1:2|0:0,0:0:0:0:
343,164,50820,1,0,1:2:0:0:
395,238,51025,1,8,0:2:0:0:
357,317,51229,1,0,1:2:0:0:
278,356,51433,1,0,1:2:0:0:
278,356,51637,1,0,1:2:0:0:
202,303,51841,2,0,P|165:320|127:331,1,80.5000015354157,8|0,0:2|1:2,0:0:0:0:
126,331,52147,1,0,3:2:0:0:
126,331,52249,21,2,1:2:0:0:
257,198,52657,2,0,P|247:135|253:73,1,125.999996154785,10|2,0:2|0:2,0:0:0:0:
162,114,53269,2,0,P|154:144|142:173,1,62.9999980773926,2|8,1:2|0:2,0:0:0:0:
58,159,53678,2,0,P|55:97|91:46,1,125.999996154785,2|2,0:2|1:2,0:0:0:0:
163,14,54290,1,8,0:2:0:0:
232,60,54494,1,2,0:2:0:0:
232,60,54698,2,0,P|263:54|293:47,1,62.9999980773926,2|0,0:2|1:2,0:0:0:0:
357,109,55106,2,0,P|388:114|418:121,1,62.9999980773926,10|0,0:2|0:0,0:0:0:0:
465,196,55514,70,0,P|447:222|440:252,1,62.9999980773926,2|0,1:2|0:0,0:0:0:0:
368,327,55923,2,0,P|361:296|345:269,1,62.9999980773926,10|0,0:2|0:0,0:0:0:0:
260,277,56331,1,2,0:2:0:0:
260,277,56535,2,0,L|200:298,1,62.9999980773926,2|8,1:2|0:2,0:0:0:0:
148,369,56943,2,0,L|88:347,1,62.9999980773926,2|0,0:2|0:0,0:0:0:0:
61,264,57351,1,2,1:2:0:0:
130,223,57555,1,8,0:2:0:0:
120,142,57759,38,0,P|182:138|243:122,1,125.999996154785,2|2,0:2|1:2,0:0:0:0:
320,165,58371,2,0,P|351:168|381:177,1,62.9999980773926,10|0,0:2|3:0,0:0:0:0:
461,202,58780,6,0,P|464:170|473:140,1,62.9999980773926,2|0,1:2|0:0,0:0:0:0:
500,66,59188,1,10,0:2:0:0:
317,15,59596,1,2,0:2:0:0:
317,15,59800,2,0,L|254:25,1,62.9999980773926,2|8,1:2|0:2,0:0:0:0:
211,93,60208,2,0,P|149:79|87:69,1,125.999996154785,2|2,0:2|1:2,0:0:0:0:
8,55,60820,1,8,0:2:0:0:
25,140,61025,2,0,P|32:171|37:202,2,62.9999980773926,2|0|0,0:2|0:0|1:2,0:0:0:0:
130,167,61637,2,0,P|116:229|108:291,1,125.999996154785,10|2,0:2|1:2,0:0:0:0:
273,358,62453,86,0,P|300:341|328:329,1,62.9999980773926,10|0,0:2|0:0,0:0:0:0:
393,201,62861,2,0,P|365:217|337:229,1,62.9999980773926,2|0,0:2|1:2,0:0:0:0:
336,229,63167,1,2,0:2:0:0:
336,229,63269,1,8,0:2:0:0:
250,196,63474,2,0,P|226:138|238:77,1,125.999996154785,2|0,0:2|1:2,0:0:0:0:
295,13,64086,1,8,0:2:0:0:
377,50,64290,21,2,0:2:0:0:
377,50,64392,1,2,0:2:0:0:
377,50,64494,2,0,P|360:77|355:108,1,62.9999980773926,2|0,0:2|1:2,0:0:0:0:
424,168,64902,1,10,0:2:0:0:
502,140,65106,1,2,0:3:0:0:
512,233,65310,22,0,P|491:300|477:369,1,140,2|10,1:1|0:1,0:0:0:0:
391,384,65923,2,0,P|381:350|377:315,1,70,2|2,0:2|1:1,0:0:0:0:
290,286,66331,2,0,P|299:252|303:217,1,70,2|8,1:1|0:2,0:0:0:0:
233,152,66739,2,0,P|165:147|110:188,1,140,2|2,0:1|1:2,0:0:0:0:
74,273,67351,1,10,0:1:0:0:
28,206,67555,2,0,P|18:172|6:139,1,70,2|2,0:2|1:1,0:0:0:0:
13,51,67963,2,0,P|46:41|79:29,1,70,2|8,1:1|0:2,0:0:0:0:
198,36,68371,6,0,B|284:55|253:80|324:91,1,140,2|2,0:3|0:2,0:0:0:0:
409,107,68984,1,8,0:2:0:0:
462,182,69188,2,0,P|453:216|441:249,1,70,2|2,1:2|0:1,0:0:0:0:
357,289,69596,2,0,P|347:322|335:355,1,70,2|8,1:1|0:2,0:0:0:0:
235,384,70004,38,0,P|204:322|140:299,1,140,2|2,0:3|1:1,0:0:0:0:
55,316,70616,1,8,0:2:0:0:
81,225,70820,2,0,P|115:215|147:200,1,70,2|0,1:1|0:0,0:0:0:0:
203,119,71229,2,0,P|236:128|268:143,1,70,2|8,1:1|0:2,0:0:0:0:
369,180,71637,22,0,P|356:111|372:43,1,140,2|2,0:3|0:2,0:0:0:0:
454,4,72249,1,10,0:1:0:0:
512,63,72453,2,0,P|502:96|487:128,1,70,2|2,0:2|1:1,0:0:0:0:
455,217,72861,2,0,P|464:250|479:282,1,70,2|8,1:1|0:2,0:0:0:0:
408,344,73269,38,0,P|345:316|277:330,1,140,2|2,1:1|1:1,0:0:0:0:
200,362,73882,1,10,0:1:0:0:
142,300,74086,1,6,1:1:0:0:
215,223,74290,1,6,1:1:0:0:
158,126,74494,1,10,0:1:0:0:
240,41,74698,1,10,0:1:0:0:
240,41,74902,1,10,0:1:0:0:
311,92,75106,22,0,P|347:140|403:162,1,120.750002303124,6|0,1:2|0:0,0:0:0:0:
402,162,75514,2,0,P|441:154|480:146,1,80.5000015354157,8|0,0:1|0:0,0:0:0:0:
512,226,75923,1,0,1:2:0:0:
427,283,76127,1,0,1:2:0:0:
500,360,76331,1,8,0:2:0:0:
403,384,76535,86,0,P|329:350|253:325,1,161.000003070831,2|0,1:2|1:2,0:0:0:0:
169,300,77147,1,8,0:2:0:0:
111,226,77351,1,0,1:2:0:0:
109,150,77555,1,0,1:2:0:0:
163,95,77759,1,0,1:2:0:0:
105,15,77963,1,10,0:2:0:0:
21,54,78167,54,0,P|18:94|10:133,1,80.5000015354157,2|4,1:2|1:2,0:0:0:0:
169,299,78780,2,0,P|204:228|272:187,1,161.000003070831,10|0,0:1|1:2,0:0:0:0:
280,47,79392,2,0,P|303:79|337:100,1,80.5000015354157,0|8,1:2|0:2,0:0:0:0:
438,95,79800,2,0,L|419:173,1,80.5000015354157,2|0,0:2|1:2,0:0:0:0:
480,284,80208,2,0,L|401:265,1,80.5000015354157,2|8,1:1|0:2,0:0:0:0:
307,318,80616,2,0,B|217:297|246:364|154:339,1,161.000003070831,2|2,1:1|1:2,0:0:0:0:
74,319,81229,1,8,0:2:0:0:
25,240,81433,38,0,P|51:210|68:174,1,80.5000015354157,2|6,0:2|1:2,0:0:0:0:
295,158,82045,2,0,P|252:90|254:11,1,161.000003070831,10|0,0:2|1:2,0:0:0:0:
338,10,82657,1,0,1:2:0:0:
402,72,82861,1,8,0:2:0:0:
409,175,83065,38,0,L|372:246,1,80.5000015354157,2|0,1:2|0:0,0:0:0:0:
284,280,83474,2,0,L|320:351,1,80.5000015354157,2|8,1:2|0:2,0:0:0:0:
418,373,83882,1,2,0:2:0:0:
484,315,84086,1,0,1:2:0:0:
484,315,84290,1,2,1:2:0:0:
512,233,84494,1,8,0:2:0:0:
512,142,84698,6,0,P|502:102|495:63,1,80.5000015354157,2|4,1:2|1:2,0:0:0:0:
314,168,85310,2,0,P|330:89|338:9,1,161.000003070831,10|0,0:1|1:2,0:0:0:0:
256,15,85923,1,0,1:2:0:0:
174,0,86127,1,8,0:2:0:0:
92,48,86331,54,0,P|93:88|97:128,1,80.5000015354157,2|0,0:2|1:2,0:0:0:0:
172,197,86739,1,2,0:1:0:0:
115,264,86943,1,8,0:2:0:0:
26,300,87147,2,0,P|20:219|9:139,1,161.000003070831,2|0,1:1|1:2,0:0:0:0:
97,128,87759,1,10,0:1:0:0:
178,77,87963,1,8,0:3:0:0:
262,122,88167,54,0,B|330:143|311:162|366:179,1,120.750002303124,6|0,1:2|0:0,0:0:0:0:
367,179,88576,2,0,P|406:171|444:156,1,80.5000015354157,10|0,0:1|0:0,0:0:0:0:
481,76,88984,1,0,1:2:0:0:
406,34,89188,1,0,1:2:0:0:
321,60,89392,1,8,0:2:0:0:
235,21,89596,1,2,1:2:0:0:
155,225,90004,1,0,1:2:0:0:
109,156,90208,1,8,0:2:0:0:
183,109,90412,54,0,P|218:128|255:142,2,80.5000015354157,0|0|0,1:2|1:2|1:2,0:0:0:0:
142,27,91025,1,8,0:2:0:0:
235,21,91229,1,2,1:2:0:0:
235,21,91331,1,0,3:2:0:0:
235,21,91433,2,0,P|310:35|333:108,1,161.000003070831,4|10,1:2|0:1,0:0:0:0:
386,184,92045,54,0,P|381:224|389:263,1,80.5000015354157,2|0,0:2|1:2,0:0:0:0:
475,260,92453,2,0,P|479:220|471:181,1,80.5000015354157,2|8,1:1|0:2,0:0:0:0:
414,98,92861,2,0,L|333:106,1,80.5000015354157,2|0,0:2|1:2,0:0:0:0:
273,182,93269,2,0,L|192:173,1,80.5000015354157,2|8,1:2|0:2,0:0:0:0:
83,140,93678,2,0,P|103:196|116:255,1,120.750002303124,2|0,1:1|0:0,0:0:0:0:
115,255,94086,2,0,P|106:294|99:333,2,80.5000015354157,2|10|0,1:2|0:1|1:2,0:0:0:0:
212,343,94698,54,0,B|293:324|245:360|364:328,1,120.750002303124,6|0,1:2|0:0,0:0:0:0:
331,336,95106,2,0,P|369:347|409:354,1,80.5000015354157,10|0,0:2|0:0,0:0:0:0:
491,301,95514,1,2,1:2:0:0:
447,236,95718,1,0,1:2:0:0:
487,150,95923,1,10,0:2:0:0:
439,71,96127,38,0,P|406:48|381:16,1,80.5000015354157,2|0,1:2|0:0,0:0:0:0:
300,0,96535,2,0,P|277:32|245:57,1,80.5000015354157,2|8,1:2|0:2,0:0:0:0:
208,137,96943,2,0,P|240:159|265:191,1,80.5000015354157,2|0,1:2|1:2,0:0:0:0:
358,211,97351,2,0,P|380:178|412:153,1,80.5000015354157,2|8,1:2|0:2,0:0:0:0:
439,71,97759,1,2,1:2:0:0:
439,71,97861,1,0,0:0:0:0:
439,71,97963,1,4,1:2:0:0:
178,231,98371,22,0,P|138:162|64:133,1,161.000003070831,12|0,0:2|1:2,0:0:0:0:
4,205,98984,1,0,1:2:0:0:
79,263,99188,1,8,0:2:0:0:
56,357,99392,2,0,B|144:326|133:373|214:353,1,161.000003070831,6|0,1:2|1:2,0:0:0:0:
276,294,100004,21,8,0:2:0:0:
361,317,100208,1,0,1:2:0:0:
440,260,100412,1,0,1:2:0:0:
440,260,100616,1,0,1:2:0:0:
415,164,100820,1,8,0:2:0:0:
415,164,101025,1,0,1:2:0:0:
489,78,101229,86,0,P|429:70|380:36,1,120.750002303124,6|0,1:2|0:0,0:0:0:0:
381,37,101637,2,0,P|342:44|303:54,1,80.5000015354157,8|0,0:2|0:0,0:0:0:0:
218,81,102045,1,0,1:2:0:0:
134,26,102249,1,2,1:2:0:0:
36,70,102453,1,8,0:2:0:0:
37,160,102657,22,0,B|95:214|59:217|106:276,1,120.750002303124,6|0,1:2|0:0,0:0:0:0:
96,263,103065,2,0,L|82:342,2,80.5000015354157,2|10|0,1:2|0:2|1:2,0:0:0:0:
168,196,103678,101,0,1:2:0:0:
248,262,103882,1,8,0:1:0:0:
248,262,103984,1,8,0:1:0:0:
248,262,104086,1,8,0:1:0:0:
337,208,104290,1,0,1:2:0:0:
416,253,104494,70,0,P|423:287|426:321,1,70,6|0,1:2|0:0,0:0:0:0:
506,276,104902,1,10,0:1:0:0:
485,190,105106,2,0,P|478:156|475:122,1,70,2|0,3:2|1:2,0:0:0:0:
383,90,105514,2,0,P|390:56|393:22,1,70,2|8,1:2|0:2,0:0:0:0:
295,24,105923,22,0,P|227:24|183:76,1,140,6|0,1:2|1:2,0:0:0:0:
184,162,106535,1,8,0:2:0:0:
184,162,106739,1,0,3:2:0:0:
120,225,106943,2,0,P|86:218|52:215,1,70,2|0,1:2|1:2,0:0:0:0:
14,324,107351,2,0,P|48:317|82:314,1,70,10|0,0:2|1:2,0:0:0:0:
203,285,107759,22,0,P|259:323|327:313,1,140,6|10,1:2|0:1,0:0:0:0:
413,289,108371,2,0,P|406:255|403:221,1,70,2|0,3:2|1:2,0:0:0:0:
390,131,108780,2,0,P|356:138|322:141,1,70,2|8,1:2|0:2,0:0:0:0:
207,127,109188,38,0,P|185:63|226:10,1,140,6|0,1:2|1:2,0:0:0:0:
330,2,109800,1,8,0:2:0:0:
330,2,110004,1,0,3:2:0:0:
381,61,110208,2,0,P|383:95|389:130,1,70,2|0,1:2|1:2,0:0:0:0:
478,171,110616,2,0,P|467:204|459:238,1,70,10|0,0:2|1:2,0:0:0:0:
409,314,111025,53,6,1:2:0:0:
228,214,111433,1,10,0:1:0:0:
245,297,111637,2,0,P|280:290|312:277,1,70,2|0,3:2|1:2,0:0:0:0:
385,197,112045,2,0,P|350:190|318:177,1,70,2|8,1:2|0:2,0:0:0:0:
210,124,112453,54,0,P|142:139|78:167,1,140,6|0,1:2|1:2,0:0:0:0:
32,237,113065,1,8,0:2:0:0:
32,237,113269,1,0,3:2:0:0:
0,143,113474,1,2,1:2:0:0:
66,76,113678,1,0,1:2:0:0:
121,6,113882,2,0,P|154:15|189:20,1,70,10|0,0:2|1:2,0:0:0:0:
272,83,114290,5,6,1:2:0:0:
354,36,114494,1,0,1:2:0:0:
438,81,114698,1,10,0:1:0:0:
381,141,114902,2,0,P|371:174|366:209,1,70,2|0,3:2|1:2,0:0:0:0:
430,278,115310,2,0,P|399:294|371:316,1,70,2|8,1:2|0:2,0:0:0:0:
512,284,115718,6,0,P|490:217|481:148,1,140,6|0,1:2|1:2,0:0:0:0:
484,64,116331,1,8,0:2:0:0:
484,64,116535,1,0,3:2:0:0:
397,2,116739,2,0,P|365:19|332:29,1,70,2|0,3:2|1:2,0:0:0:0:
289,110,117147,2,0,P|257:93|224:83,1,70,10|0,0:2|3:2,0:0:0:0:
132,131,117555,6,0,P|107:195|117:264,1,140,6|10,1:2|0:1,0:0:0:0:
191,326,118167,2,0,L|258:309,1,70,2|0,3:2|1:2,0:0:0:0:
294,219,118576,2,0,L|361:235,1,70,2|8,1:2|0:2,0:0:0:0:
470,235,118984,6,0,P|435:295|427:364,1,140,6|0,1:2|1:2,0:0:0:0:
323,370,119596,1,8,0:2:0:0:
259,310,119800,1,0,1:2:0:0:
180,261,120004,2,0,L|205:195,1,70,2|4,1:2|1:2,0:0:0:0:
150,122,120412,21,10,0:2:0:0:
205,49,120616,1,4,1:2:0:0:
124,2,120820,1,6,1:2:0:0:
124,2,121025,1,0,1:2:0:0:
66,73,121229,1,10,0:1:0:0:
17,136,121433,54,0,P|28:170|37:204,1,70,2|0,3:2|0:0,0:0:0:0:
99,271,121841,2,0,P|88:304|79:338,1,70,2|8,1:2|0:2,0:0:0:0:
179,260,122249,22,0,P|172:193|217:142,1,140,6|0,1:2|1:2,0:0:0:0:
273,68,122861,1,8,0:2:0:0:
335,122,123065,1,0,3:2:0:0:
408,104,123269,2,0,P|415:69|422:35,1,70,2|0,1:2|1:2,0:0:0:0:
512,160,123678,2,0,P|504:125|497:91,1,70,10|0,0:2|3:2,0:0:0:0:
452,227,124086,53,6,1:2:0:0:
294,367,124494,1,10,0:1:0:0:
208,343,124698,2,0,P|200:308|189:275,1,70,2|0,3:2|1:2,0:0:0:0:
159,191,125106,2,0,P|193:183|226:172,1,70,2|8,1:2|0:2,0:0:0:0:
308,250,125514,22,0,P|374:269|430:311,1,140,6|0,1:2|1:2,0:0:0:0:
512,286,126127,1,8,0:2:0:0:
452,227,126331,1,0,1:2:0:0:
506,163,126535,2,0,P|494:129|486:95,1,70,2|0,1:2|3:2,0:0:0:0:
461,17,126943,2,0,P|427:28|393:36,1,70,10|0,0:2|1:2,0:0:0:0:
326,105,127351,5,6,1:2:0:0:
245,45,127555,1,0,1:2:0:0:
141,88,127759,1,14,0:1:0:0:
201,171,127963,1,6,1:2:0:0:
109,252,128167,1,4,1:2:0:0:
109,252,128371,1,2,1:2:0:0:
26,163,128576,69,8,0:2:0:0:
2,71,128780,2,0,P|71:75|140:87,1,140,6|2,1:2|1:2,0:0:0:0:
212,25,129392,1,8,0:2:0:0:
290,92,129596,1,2,1:2:0:0:
386,26,129800,85,10,0:2:0:0:
386,26,129902,1,8,0:2:0:0:
386,26,130004,1,0,1:2:0:0:
471,105,130208,1,10,0:2:0:0:
471,105,130310,1,8,0:2:0:0:
471,105,130412,1,0,1:2:0:0:
510,185,130616,38,0,P|496:222|491:262,1,80.5000015354157,6|0,1:2|1:2,0:0:0:0:
430,328,131025,1,8,0:2:0:0:
347,373,131229,2,0,P|334:295|288:230,1,161.000003070831,0|2,1:2|1:2,0:0:0:0:
209,191,131841,1,10,0:2:0:0:
122,238,132045,2,0,P|110:199|107:159,1,80.5000015354157,2|0,1:2|1:2,0:0:0:0:
28,229,132453,2,0,P|16:267|13:307,1,80.5000015354157,2|8,1:2|0:2,0:0:0:0:
85,367,132861,2,0,P|158:337|238:343,1,161.000003070831,2|2,1:2|1:2,0:0:0:0:
347,373,133474,1,8,0:2:0:0:
409,311,133678,70,0,P|390:276|377:238,1,80.5000015354157,2|0,1:2|0:0,0:0:0:0:
411,67,134290,1,8,0:2:0:0:
411,67,134494,2,0,P|375:86|337:99,1,80.5000015354157,0|0,1:2|0:0,0:0:0:0:
253,58,134902,1,2,1:2:0:0:
180,108,135106,1,10,0:2:0:0:
80,69,135310,38,0,L|99:148,1,80.5000015354157,2|0,0:2|1:2,0:0:0:0:
166,203,135718,2,0,L|147:282,1,80.5000015354157,2|8,1:2|0:2,0:0:0:0:
54,324,136127,2,0,P|42:245|16:169,1,161.000003070831,2|2,1:2|1:2,0:0:0:0:
6,81,136739,1,8,0:2:0:0:
6,81,136943,1,0,1:2:0:0:
80,69,137147,1,4,1:2:0:0:
168,107,137351,85,2,0:2:0:0:
239,38,137555,1,10,0:2:0:0:
313,110,137759,2,0,P|303:148|299:188,1,80.5000015354157,0|0,1:2|0:0,0:0:0:0:
345,270,138167,1,0,1:2:0:0:
418,218,138371,1,8,0:2:0:0:
508,226,138576,70,0,P|497:187|493:147,1,80.5000015354157,2|0,0:2|1:2,0:0:0:0:
409,100,138984,2,0,P|419:61|423:21,1,80.5000015354157,2|8,1:2|0:2,0:0:0:0:
313,110,139392,2,0,P|234:103|170:150,1,161.000003070831,2|2,1:2|1:2,0:0:0:0:
129,229,140004,1,8,0:2:0:0:
196,291,140208,1,2,1:2:0:0:
275,247,140412,53,0,1:2:0:0:
275,247,140616,1,0,1:2:0:0:
348,310,140820,1,8,0:2:0:0:
431,271,141025,2,0,P|437:191|454:113,1,161.000003070831,2|0,1:2|1:2,0:0:0:0:
413,32,141637,1,8,0:2:0:0:
328,77,141841,101,2,1:2:0:0:
328,77,141943,1,2,0:2:0:0:
328,77,142045,1,2,1:2:0:0:
235,21,142249,2,0,L|139:37,1,80.5000015354157,0|8,1:2|0:2,0:2:0:0:
63,51,142657,1,0,1:2:0:0:
63,51,142861,1,4,0:2:0:0:
13,142,143065,69,10,0:1:0:0:
13,142,143167,1,8,0:2:0:0:
13,142,143269,1,8,0:2:0:0:
13,142,143371,1,8,0:2:0:0:
13,142,143474,1,10,0:1:0:0:
13,142,143576,1,8,0:2:0:0:
13,141,143678,2,0,P|24:184|33:227,2,87.5,4|0|12,1:2|0:0|0:2,0:0:0:0:
127,189,144290,2,0,B|229:171|199:227|295:215,1,175,0|2,1:2|1:1,0:0:0:0:
360,140,144902,53,10,0:1:0:0:
420,82,145106,2,0,P|402:42|389:0,1,87.5,2|0,1:1|1:2,0:0:0:0:
302,8,145514,2,0,P|262:25|220:38,1,87.5,2|8,1:1|0:2,0:0:0:0:
133,45,145923,1,2,1:1:0:0:
360,140,146331,1,2,1:1:0:0:
295,215,146535,1,8,0:2:0:0:
365,271,146739,2,0,P|406:283|447:299,2,87.5,2|0|0,0:1|0:0|0:0,0:0:0:0:
284,343,147351,37,8,0:2:0:0:
215,293,147555,2,0,B|103:304|159:331|49:342,1,175,0|2,1:2|1:1,0:0:0:0:
0,270,148167,1,10,0:1:0:0:
73,219,148371,2,0,P|84:176|92:133,1,87.5,2|0,0:1|0:0,0:0:0:0:
115,48,148780,2,0,P|157:59|200:67,1,87.5,2|8,1:1|0:2,0:0:0:0:
266,135,149188,5,2,1:1:0:0:
350,88,149392,1,0,1:2:0:0:
430,144,149596,1,2,1:1:0:0:
512,87,149800,1,8,0:2:0:0:
512,87,149902,1,8,0:2:0:0:
512,87,150004,1,0,1:2:0:0:
427,282,150412,101,2,1:1:0:0:
427,282,150616,2,0,P|339:285|253:299,2,175,10|2|8,0:1|0:1|0:2,0:0:0:0:
511,311,151637,2,0,P|511:267|501:224,1,87.5,2|0,0:1|1:2,0:0:0:0:
426,281,152045,2,0,P|416:238|416:195,1,87.5,2|8,1:1|0:2,0:0:0:0:
437,115,152453,1,2,1:1:0:0:
253,299,152861,1,2,1:1:0:0:
197,233,153065,1,8,0:2:0:0:
267,183,153269,102,0,P|267:139|274:96,2,87.5,2|4|0,1:1|1:2|1:2,0:0:0:0:
327,248,153882,1,8,0:2:0:0:
381,178,154086,2,0,P|353:95|343:8,1,175,2|0,1:1|1:2,0:0:0:0:
274,96,154698,1,8,0:2:0:0:
213,36,154902,5,2,1:2:0:0:
213,36,155004,1,2,0:2:0:0:
213,36,155106,1,6,1:1:0:0:
125,82,155310,1,0,1:2:0:0:
28,50,155514,2,0,L|8:10,2,43.75,8|8|0,0:2|0:2|1:2,0:0:0:0:
7,137,155923,37,0,1:2:0:0:
90,205,156127,1,8,0:2:0:0:
90,205,156229,1,8,0:2:0:0:
90,205,156331,1,0,1:2:0:0:
21,280,156535,1,0,1:2:0:0:
106,350,156739,21,4,1:2:0:0:
106,350,156943,1,0,1:2:0:0:
206,288,157147,54,0,P|244:308|286:319,1,87.5,10|0,0:1|0:0,0:0:0:0:
367,277,157555,1,2,1:1:0:0:
367,277,157759,1,2,1:1:0:0:
296,198,157963,1,8,0:2:0:0:
365,131,158167,54,0,P|356:88|343:46,1,87.5,2|0,1:1|0:0,0:0:0:0:
448,86,158576,2,0,P|456:43|459:0,1,87.5,2|8,1:1|0:2,0:0:0:0:
500,163,158984,2,0,P|509:250|483:333,1,175,2|2,1:1|1:1,0:0:0:0:
400,375,159596,1,10,0:1:0:0:
317,339,159800,1,0,0:0:0:0:
219,360,160004,1,4,1:2:0:0:
219,360,160208,1,0,1:2:0:0:
126,298,160412,38,0,P|110:212|69:135,1,175,10|2,0:1|1:1,0:0:0:0:
103,45,161025,1,2,1:1:0:0:
190,84,161229,1,8,0:2:0:0:
269,29,161433,2,0,P|310:47|352:56,1,87.5,2|0,1:1|0:0,0:0:0:0:
436,90,161841,2,0,P|418:130|409:172,1,87.5,2|8,1:1|0:2,0:0:0:0:
378,268,162249,38,0,P|294:245|211:267,1,175,2|2,1:1|1:1,0:0:0:0:
138,322,162861,1,8,0:2:0:0:
138,322,162963,1,8,0:2:0:0:
138,322,163065,1,2,1:1:0:0:
59,256,163269,2,0,P|76:215|87:173,1,87.5,4|0,1:2|1:2,0:0:0:0:
190,133,163678,22,0,P|173:92|162:50,1,87.5,10|0,0:1|0:0,0:0:0:0:
258,20,164086,2,0,P|340:11|385:81,1,175,2|8,1:1|0:2,0:0:0:0:
363,165,164698,1,2,1:1:0:0:
162,50,165106,1,0,1:2:0:0:
190,133,165310,1,8,0:2:0:0:
253,205,165514,2,0,P|241:248|232:290,2,87.5,2|0|0,1:1|1:2|1:2,0:0:0:0:
363,165,166127,85,8,0:2:0:0:
427,219,166331,2,0,P|432:263|437:306,1,87.5,2|4,1:1|1:2,0:0:0:0:
512,333,166739,1,0,0:0:0:0:
512,253,166943,1,12,0:2:0:0:
512,170,167147,2,0,P|484:86|467:1,1,175,2|0,0:1|1:2,0:0:0:0:
381,48,167759,1,8,0:2:0:0:
313,104,167963,2,0,P|226:101|150:143,1,175,0|0,1:2|0:0,0:0:0:0:
87,201,168576,38,0,L|96:243,2,43.75,8|8|0,0:2|0:2|1:2,0:0:0:0:
20,138,168984,1,10,0:1:0:0:
67,56,169188,1,8,0:2:0:0:
67,56,169290,1,8,0:2:0:0:
67,56,169392,1,0,1:2:0:0:
168,3,169596,101,10,0:1:0:0:
168,3,169698,1,8,0:2:0:0:
168,3,169800,2,0,L|253:21,2,87.5,4|0|8,1:2|1:2|0:2,0:0:0:0:
166,98,170412,1,0,1:2:0:0:
243,147,170616,1,0,1:2:0:0:
326,100,170820,1,0,1:2:0:0:
413,151,171025,5,8,0:2:0:0:
412,151,171229,2,0,P|369:197|369:262,1,131.25,0|0,1:2|0:0,0:0:0:0:
369,261,171637,2,0,P|327:276|284:285,1,87.5,0|8,1:2|0:2,0:0:0:0:
197,310,172045,1,2,1:1:0:0:
125,253,172249,1,0,1:2:0:0:
37,273,172453,1,2,1:1:0:0:
0,186,172657,1,8,0:2:0:0:
40,117,172861,38,0,P|82:104|122:87,2,87.5,2|4|0,1:1|1:2|1:2,0:0:0:0:
164,169,173474,2,0,P|206:181|246:198,2,87.5,8|0|0,0:2|1:2|1:2,0:0:0:0:
274,111,174086,2,0,P|264:68|265:24,1,87.5,0|8,1:2|0:2,0:0:0:0:
379,79,174494,2,0,P|387:166|354:246,1,175,4|2,1:2|1:1,0:0:0:0:
382,333,175106,1,8,0:2:0:0:
476,301,175310,1,2,1:1:0:0:
476,301,175514,1,0,1:2:0:0:
512,226,175718,2,0,P|493:186|481:144,1,87.5,2|8,1:1|0:2,0:0:0:0:
482,49,176127,101,2,1:1:0:0:
402,0,176331,1,4,1:2:0:0:
402,0,176535,1,0,1:2:0:0:
307,58,176739,2,0,L|223:30,1,87.5,8|0,0:2|1:2,0:0:0:0:
158,90,177147,1,0,1:2:0:0:
216,164,177351,1,0,1:2:0:0:
148,228,177555,1,8,0:2:0:0:
82,178,177759,6,0,P|82:91|39:16,1,175,0|0,1:2|1:2,0:0:0:0:
0,97,178371,1,8,0:2:0:0:
0,183,178576,2,0,P|9:226|24:267,1,87.5,2|0,1:1|1:2,0:0:0:0:
110,296,178984,2,0,P|102:339|101:382,1,87.5,2|8,1:1|0:2,0:0:0:0:
198,369,179392,101,2,1:1:0:0:
278,313,179596,1,0,1:2:0:0:
375,344,179800,1,0,1:2:0:0:
429,257,180004,1,10,0:1:0:0:
476,187,180208,2,0,P|460:145|452:103,2,87.5,2|0|0,1:1|1:2|1:2,0:0:0:0:
365,167,180820,1,10,0:1:0:0:
317,97,181024,2,0,P|332:55|340:13,2,87.5,2|0|0,1:1|0:0|1:2,0:0:0:0:
227,133,181637,5,8,0:2:0:0:
155,72,181841,1,0,1:2:0:0:
89,147,182045,1,0,1:2:0:0:
163,217,182249,1,8,0:2:0:0:
240,296,182453,2,0,L|229:338,3,43.75,8|8|4|4,0:2|0:3|1:3|0:3,0:0:0:0:
256,384,182861,85,14,0:2:0:0:
