osu file format v14

[General]
AudioFilename: Nightcore (Cady Groves)-This Little Girl www.mp3c.cc .mp3
AudioLeadIn: 0
PreviewTime: 43466
Countdown: 0
SampleSet: Soft
StackLeniency: 0.8
Mode: 0
LetterboxInBreaks: 0
WidescreenStoryboard: 0

[Editor]
DistanceSpacing: 1
BeatDivisor: 2
GridSize: 4
TimelineZoom: 1.2

[Metadata]
Title:This Little Girl (Speed Up Ver.)
TitleUnicode:This Little Girl (Speed Up Ver.)
Artist:Cady Groves
ArtistUnicode:Cady Groves
Creator:agusch
Version:Normal
Source:
Tags:NightcoreReality RCA Records
BeatmapID:687362
BeatmapSetID:307131

[Difficulty]
HPDrainRate:4
CircleSize:3
OverallDifficulty:4
ApproachRate:5
SliderMultiplier:1
SliderTickRate:1

[Events]
//Background and Video events
0,0,"anime-girls-carrying-guns-anime-hd-wallpaper-2560x1440-8483.jpg",0,0
//Break Periods
2,16647,19993
2,108913,118028
2,130622,133293
//Storyboard Layer 0 (Background)
//Storyboard Layer 1 (Fail)
//Storyboard Layer 2 (Pass)
//Storyboard Layer 3 (Foreground)
//Storyboard Sound Samples

[TimingPoints]
165,339.21302578019,4,2,3,50,1,0
21196,-100,4,2,1,70,0,0
24927,-100,4,2,4,70,0,0
25266,-100,4,2,1,70,0,0
31711,-100,4,2,4,70,0,0
32051,-100,4,2,1,70,0,0
32729,-100,4,3,1,80,0,0
35782,-100,4,2,4,80,0,0
36121,-100,4,3,1,80,0,0
38496,-100,4,2,4,80,0,0
38835,-100,4,3,1,80,0,0
41209,-100,4,2,4,80,0,0
41548,-100,4,3,1,80,0,0
41888,-100,4,2,1,80,0,0
43584,-100,4,2,1,100,0,1
47654,-100,4,2,2,100,0,1
49011,-100,4,2,1,100,0,1
63767,-100,4,2,1,70,0,0
68346,-100,4,2,4,70,0,0
68686,-100,4,2,1,70,0,0
76148,-100,4,3,1,80,0,0
79201,-100,4,2,4,80,0,0
79540,-100,4,3,1,80,0,0
81915,-100,4,2,4,80,0,0
82254,-100,4,3,1,80,0,0
83272,-100,4,2,4,80,0,0
83611,-100,4,3,1,80,0,0
84629,-100,4,2,4,80,0,0
84968,-100,4,3,1,80,0,0
85307,-100,4,2,1,80,0,0
87003,-100,4,2,1,100,0,1
91074,-100,4,2,2,100,0,1
92430,-100,4,2,1,100,0,1
107186,-100,4,2,1,70,0,0
130422,-100,4,2,0,35,0,0
141277,-100,4,2,1,100,0,1
145348,-100,4,2,2,100,0,1
146705,-100,4,2,1,100,0,1
160273,-100,4,1,1,50,0,0
161630,-100,4,2,1,100,0,1
166888,-100,4,2,1,100,0,0

[Colours]
Combo1 : 12,1,148
Combo2 : 192,192,192
Combo3 : 170,4,17
Combo4 : 70,1,163

[HitObjects]
156,328,165,5,8,0:0:0:0:
355,328,843,1,8,0:0:0:0:
256,156,1521,1,8,0:0:0:0:
55,156,2200,2,0,B|55:256,1,100,8|2,0:0|0:0,0:0:0:0:
154,256,2878,5,8,0:0:0:0:
339,180,3557,1,8,0:0:0:0:
181,57,4235,1,8,0:0:0:0:
32,190,4913,2,0,L|101:278,1,100,8|2,0:0|0:0,0:0:0:0:
175,326,5592,6,0,P|266:361|360:332,1,200,8|0,0:0|0:0,0:0:0:0:
407,243,6610,1,2,0:0:0:0:
361,154,6949,2,0,P|267:125|175:161,1,200,8|0,0:0|0:0,0:0:0:0:
80,192,7966,1,2,0:0:0:0:
80,192,8306,6,0,B|94:228|122:250|154:257|154:257|236:327,1,200,8|0,0:0|0:0,0:0:0:0:
327,328,9323,1,2,0:0:0:0:
327,327,9662,2,0,P|372:308|403:269,2,100,8|0|0,0:0|0:0|0:0,0:0:0:0:
313,228,10680,1,2,0:0:0:0:
400,178,11019,6,0,P|444:187|485:228,1,100,8|0,0:0|0:0,0:0:0:0:
482,274,11528,1,0,0:0:0:0:
482,323,11698,2,0,P|447:357|399:369,1,100,0|2,0:0|0:0,0:0:0:0:
298,361,12376,2,0,P|250:343|220:305,1,100,8|0,0:0|0:0,0:0:0:0:
226,257,12885,1,0,0:0:0:0:
230,206,13055,2,0,P|268:173|317:167,1,100,0|2,0:0|0:0,0:0:0:0:
389,232,13733,6,0,P|410:186|409:137,2,100,8|0|0,0:0|0:0|0:0,0:0:0:0:
315,166,14751,1,2,0:0:0:0:
338,68,15090,2,0,P|429:41|502:103,1,200,8|0,0:0|0:0,0:0:0:0:
409,137,16108,1,2,0:0:0:0:
315,166,16447,5,8,0:0:0:0:
300,343,21196,6,0,L|242:325,1,50,2|0,0:0|0:0,0:0:0:0:
227,284,21535,2,0,L|169:266,1,50,8|0,0:0|0:0,0:0:0:0:
147,230,21874,6,0,B|127:208|127:208|127:121,1,100,2|8,0:0|0:0,0:0:0:0:
140,89,22383,1,2,0:0:0:0:
172,50,22553,2,0,P|217:38|275:57,1,100,2|8,0:0|0:0,0:0:0:0:
249,150,23231,2,0,P|241:200|258:255,1,100,2|8,0:0|0:0,0:0:0:0:
295,274,23740,1,2,0:0:0:0:
295,274,23909,2,0,L|395:274,1,100,2|8,0:0|0:0,0:0:0:0:
454,354,24588,6,0,P|493:267|433:182,1,200,2|2,0:0|0:0,0:0:0:0:
395,274,25605,1,8,0:0:0:0:
317,337,25945,2,0,B|269:350|269:350|219:333,2,100,2|8|2,0:0|0:0|0:0,0:0:0:0:
271,247,26962,2,0,L|271:190,1,50,8|0,0:0|0:0,0:0:0:0:
241,154,27302,6,0,P|193:143|145:154,1,100,2|8,0:0|0:0,0:0:0:0:
75,225,27980,2,0,P|48:178|53:118,1,100,2|8,0:0|0:0,0:0:0:0:
109,54,28658,2,0,P|152:62|211:49,1,100,2|8,0:0|0:0,0:0:0:0:
252,31,29167,1,2,0:0:0:0:
252,31,29337,2,0,P|295:22|352:39,1,100,2|8,0:0|0:0,0:0:0:0:
411,113,30015,6,0,B|472:113|472:113|520:91,2,100,2|8|2,0:0|0:0|0:0,0:0:0:0:
311,116,31033,1,8,0:0:0:0:
212,116,31372,2,0,P|137:152|129:272,1,200,2|2,0:0|0:0,0:0:0:0:
213,217,32390,1,8,0:0:0:0:
309,189,32729,6,0,L|433:189,1,100,2|8,0:0|0:0,0:0:0:0:
409,289,33407,2,0,L|308:289,1,100,0|8,0:0|0:0,0:0:0:0:
209,289,34086,2,0,L|97:289,1,100,2|8,0:0|0:0,0:0:0:0:
109,189,34764,2,0,L|209:189,1,100,0|8,0:0|0:0,0:0:0:0:
252,98,35443,6,0,B|291:120|303:149|308:177|308:177|341:171|376:177|406:207,1,200,2|0,0:0|0:0,0:0:0:0:
332,275,36460,1,8,0:0:0:0:
248,329,36800,2,0,P|194:339|135:312,2,100,2|8|0,0:0|0:0|0:0,0:0:0:0:
203,239,37817,1,8,0:0:0:0:
151,154,38156,6,0,P|173:69|306:53,1,200,2|0,0:0|0:0,0:0:0:0:
248,134,39174,1,8,0:0:0:0:
290,224,39513,2,0,P|328:255|376:266,1,100,2|8,0:0|0:0,0:0:0:0:
460,212,40192,2,0,P|475:263|460:324,1,100,0|8,0:0|0:0,0:0:0:0:
386,366,40870,6,0,P|268:340|205:273,1,200,2|0,0:0|0:0,0:0:0:0:
210,186,41888,1,8,0:0:0:0:
238,90,42227,2,0,P|286:60|352:48,1,100,8|8,0:0|0:0,0:0:0:0:
374,68,42736,1,0,0:0:0:0:
414,97,42905,2,0,P|413:154|390:216,1,100,8|8,0:0|0:0,0:0:0:0:
330,265,43584,6,0,B|230:265,1,100,6|10,0:0|0:0,0:0:0:0:
147,321,44262,2,0,P|131:266|148:206,1,100,2|10,0:0|0:0,0:0:0:0:
96,134,44941,2,0,P|40:144|-17:124,2,100,6|10|2,0:0|0:0|0:0,0:0:0:0:
165,62,45958,2,0,L|216:62,1,50,10|0,0:0|0:0,0:0:0:0:
257,35,46297,6,0,P|310:24|367:42,2,100,6|10|2,0:0|0:0|0:0,0:0:0:0:
306,122,47315,1,10,0:0:0:0:
376,192,47654,2,0,L|376:242,1,50,6|0,0:0|0:0,0:0:0:0:
339,276,47994,1,10,0:0:0:0:
244,304,48333,2,0,L|201:277,1,50,2|2,0:0|0:0,0:0:0:0:
163,244,48672,2,0,L|163:194,1,50,10|0,0:0|0:0,0:0:0:0:
163,143,49011,6,0,P|188:93|249:60,1,100,6|10,0:0|0:0,0:0:0:0:
322,72,49690,1,2,0:0:0:0:
381,152,50029,2,0,L|349:216,1,50,10|0,0:0|0:0,0:0:0:0:
334,240,50368,2,0,B|289:257|289:257|221:257,1,100,6|10,0:0|0:0,0:0:0:0:
162,190,51046,1,2,0:0:0:0:
85,254,51386,1,10,0:0:0:0:
136,339,51725,6,0,P|186:347|245:337,1,100,6|10,0:0|0:0,0:0:0:0:
319,288,52403,1,2,0:0:0:0:
240,225,52743,1,10,0:0:0:0:
332,190,53082,2,0,P|363:150|371:101,1,100,6|10,0:0|0:0,0:0:0:0:
272,110,53760,2,0,L|221:70,1,50,2|2,0:0|0:0,0:0:0:0:
211,33,54099,1,10,0:0:0:0:
310,29,54439,6,0,P|355:7|404:12,1,100,6|2,0:0|0:0,0:0:0:0:
445,41,54947,2,0,P|477:86|470:159,1,100,6|2,0:0|0:0,0:0:0:0:
465,177,55456,2,0,P|427:217|354:226,1,100,6|2,0:0|0:0,0:0:0:0:
296,182,56135,1,10,0:0:0:0:
223,250,56474,1,2,0:0:0:0:
304,308,56813,2,0,L|353:308,1,50,10|0,0:0|0:0,0:0:0:0:
404,308,57152,6,0,P|443:268|449:195,1,100,6|2,0:0|0:0,0:0:0:0:
443,179,57661,2,0,P|413:132|342:111,1,100,6|2,0:0|0:0,0:0:0:0:
324,109,58170,2,0,P|272:129|236:193,1,100,6|2,0:0|0:0,0:0:0:0:
280,255,58848,1,10,0:0:0:0:
180,242,59188,2,0,L|154:174,1,50,2|2,0:0|0:0,0:0:0:0:
147,147,59527,1,10,0:0:0:0:
182,53,59866,6,0,P|226:33|293:33,1,100,6|10,0:0|0:0,0:0:0:0:
286,130,60544,2,0,P|332:143|385:184,1,100,2|10,0:0|0:0,0:0:0:0:
318,255,61223,2,0,P|346:294|360:359,1,100,6|10,0:0|0:0,0:0:0:0:
259,339,61901,1,2,0:0:0:0:
169,295,62240,2,0,L|134:258,1,50,10|0,0:0|0:0,0:0:0:0:
161,216,62580,6,0,P|246:188|266:73,1,200,6|2,0:0|0:0,0:0:0:0:
175,115,63597,1,10,0:0:0:0:
84,157,63937,1,2,0:0:0:0:
303,276,64785,5,2,0:0:0:0:
350,259,64954,2,0,L|413:259,1,50,2|0,0:0|0:0,0:0:0:0:
443,233,65293,2,0,P|454:186|440:132,1,100,2|8,0:0|0:0,0:0:0:0:
400,110,65802,1,2,0:0:0:0:
350,119,65972,2,0,P|302:130|255:117,1,100,2|8,0:0|0:0,0:0:0:0:
173,58,66650,2,0,P|155:118|179:183,1,100,2|8,0:0|0:0,0:0:0:0:
187,196,67159,1,2,0:0:0:0:
208,241,67329,2,0,L|108:241,1,100,2|8,0:0|0:0,0:0:0:0:
38,312,68007,6,0,B|57:330|81:346|110:346|236:343,1,200,2|2,0:0|0:0,0:0:0:0:
308,280,69025,1,8,0:0:0:0:
366,199,69364,2,0,L|366:99,2,100,2|8|2,0:0|0:0|0:0,0:0:0:0:
458,159,70382,2,0,L|458:92,1,50,8|0,0:0|0:0,0:0:0:0:
450,59,70721,6,0,P|407:15|336:11,1,100,2|8,0:0|0:0,0:0:0:0:
286,59,71399,2,0,P|216:88|171:74,1,100,2|8,0:0|0:0,0:0:0:0:
111,28,72078,2,0,P|66:15|12:32,2,100,2|8|2,0:0|0:0|0:0,0:0:0:0:
64,116,73095,1,8,0:0:0:0:
63,215,73435,6,0,L|64:323,1,100,2|8,0:0|0:0,0:0:0:0:
111,299,73943,1,2,0:0:0:0:
157,280,74113,2,0,P|205:268|254:272,1,100,2|8,0:0|0:0,0:0:0:0:
305,358,74791,2,0,P|345:313|351:253,1,100,2|8,0:0|0:0,0:0:0:0:
348,225,75300,1,2,0:0:0:0:
310,192,75470,2,0,P|270:147|264:87,1,100,2|8,0:0|0:0,0:0:0:0:
362,106,76148,6,0,B|474:106,1,100,2|8,0:0|0:0,0:0:0:0:
462,6,76827,2,0,L|350:6,1,100,0|8,0:0|0:0,0:0:0:0:
262,6,77505,2,0,B|162:6,1,100,2|8,0:0|0:0,0:0:0:0:
162,106,78183,2,0,L|262:106,1,100,0|8,0:0|0:0,0:0:0:0:
215,194,78862,6,0,B|153:194|153:194|128:223|128:223|93:227|67:243|46:276,1,200,2|0,0:0|0:0,0:0:0:0:
134,322,79880,1,8,0:0:0:0:
230,335,80219,2,0,L|343:302,1,100,2|8,0:0|0:0,0:0:0:0:
398,238,80897,2,0,L|429:140,1,100,0|8,0:0|0:0,0:0:0:0:
327,151,81576,6,0,P|236:178|163:116,1,200,2|0,0:0|0:0,0:0:0:0:
257,80,82593,1,8,0:0:0:0:
180,16,82932,2,0,P|87:50|67:146,1,200,2|0,0:0|0:0,0:0:0:0:
162,115,83950,1,8,0:0:0:0:
257,80,84289,6,0,P|354:54|427:145,1,200,2|0,0:0|0:0,0:0:0:0:
327,151,85307,1,8,0:0:0:0:
233,187,85646,2,0,P|188:224|161:301,1,100,8|8,0:0|0:0,0:0:0:0:
119,253,86155,1,0,0:0:0:0:
74,229,86325,2,0,L|41:123,1,100,8|8,0:0|0:0,0:0:0:0:
54,34,87003,6,0,P|88:69|135:84,1,100,6|10,0:0|0:0,0:0:0:0:
234,68,87681,2,0,P|282:56|330:69,1,100,2|10,0:0|0:0,0:0:0:0:
424,104,88360,2,0,L|481:1,2,100,6|10|2,0:0|0:0|0:0,0:0:0:0:
370,189,89378,2,0,L|391:244,1,50,10|0,0:0|0:0,0:0:0:0:
386,286,89717,6,0,L|279:258,1,100,6|10,0:0|0:0,0:0:0:0:
191,237,90395,1,2,0:0:0:0:
267,172,90734,1,10,0:0:0:0:
176,129,91074,2,0,L|156:82,1,50,6|0,0:0|0:0,0:0:0:0:
168,34,91413,1,10,0:0:0:0:
266,51,91752,2,0,L|313:35,1,50,2|2,0:0|0:0,0:0:0:0:
325,84,92091,2,0,L|382:109,1,50,10|0,0:0|0:0,0:0:0:0:
342,145,92430,6,0,P|352:194|390:247,1,100,6|10,0:0|0:0,0:0:0:0:
474,264,93109,1,2,0:0:0:0:
404,336,93448,1,10,0:0:0:0:
304,347,93787,2,0,L|218:291,1,100,6|10,0:0|0:0,0:0:0:0:
262,199,94466,2,0,P|312:178|349:130,1,100,2|10,0:0|0:0,0:0:0:0:
390,57,95144,6,0,L|497:57,2,100,6|10|2,0:0|0:0|0:0,0:0:0:0:
289,57,96162,2,0,L|238:57,1,50,10|0,0:0|0:0,0:0:0:0:
226,105,96501,2,0,L|263:203,1,100,6|10,0:0|0:0,0:0:0:0:
349,246,97179,2,0,L|380:189,1,50,2|2,0:0|0:0,0:0:0:0:
401,160,97519,1,10,0:0:0:0:
448,248,97858,6,0,P|431:302|375:342,1,100,6|2,0:0|0:0,0:0:0:0:
352,344,98367,2,0,P|305:328|256:337,1,100,6|2,0:0|0:0,0:0:0:0:
208,325,98875,2,0,P|173:289|160:241,1,100,6|2,0:0|0:0,0:0:0:0:
221,163,99554,1,10,0:0:0:0:
163,81,99893,1,2,0:0:0:0:
251,33,100232,1,10,0:0:0:0:
350,37,100572,6,0,P|403:56|440:114,1,100,6|2,0:0|0:0,0:0:0:0:
440,137,101080,2,0,P|421:183|427:232,1,100,6|2,0:0|0:0,0:0:0:0:
414,280,101589,2,0,P|376:313|327:323,1,100,6|2,0:0|0:0,0:0:0:0:
259,251,102268,1,10,0:0:0:0:
169,295,102607,2,0,L|120:253,1,50,2|2,0:0|0:0,0:0:0:0:
96,226,102946,1,10,0:0:0:0:
186,183,103285,6,0,L|231:61,1,100,6|10,0:0|0:0,0:0:0:0:
313,126,103964,2,0,L|443:68,1,100,2|10,0:0|0:0,0:0:0:0:
425,183,104642,2,0,L|525:238,1,100,6|10,0:0|0:0,0:0:0:0:
445,305,105321,1,2,0:0:0:0:
346,286,105660,2,0,L|279:324,1,50,10|0,0:0|0:0,0:0:0:0:
256,287,105999,6,0,P|205:206|109:205,1,200,6|2,0:0|0:0,0:0:0:0:
158,293,107017,1,10,0:0:0:0:
58,291,107356,2,0,B|20:267|0:231|1:182|21:145|54:123|54:123|29:100|18:67|23:32,1,300,2|10,0:0|0:0,0:0:0:0:
121,50,108713,5,6,0:0:0:0:
510,145,119228,6,0,L|510:93,1,50,8|0,0:0|0:0,0:0:0:0:
504,44,119567,2,0,P|456:33|408:44,1,100,2|8,0:0|0:0,0:0:0:0:
307,44,120246,2,0,P|259:33|211:44,1,100,2|8,0:0|0:0,0:0:0:0:
110,44,120924,2,0,P|62:33|14:44,2,100,2|8|0,0:0|0:0|0:0,0:0:0:0:
62,131,121942,2,0,L|100:162,1,50,8|0,0:0|0:0,0:0:0:0:
142,188,122281,6,0,P|191:199|239:188,1,100,2|8,0:0|0:0,0:0:0:0:
325,137,122960,2,0,P|373:126|421:137,1,100,2|8,0:0|0:0,0:0:0:0:
453,231,123638,1,2,0:0:0:0:
378,296,123977,1,8,0:0:0:0:
299,233,124316,1,2,0:0:0:0:
225,301,124656,2,0,L|179:270,1,50,8|0,0:0|0:0,0:0:0:0:
140,247,124995,6,0,L|52:318,1,100,2|8,0:0|0:0,0:0:0:0:
38,212,125673,2,0,L|115:149,1,100,2|8,0:0|0:0,0:0:0:0:
207,189,126352,2,0,L|284:126,1,100,2|8,0:0|0:0,0:0:0:0:
313,221,127030,1,2,0:0:0:0:
239,289,127369,2,0,L|277:323,1,50,8|0,0:0|0:0,0:0:0:0:
327,326,127709,5,2,0:0:0:0:
401,259,128048,1,8,0:0:0:0:
448,170,128387,2,0,P|456:121|436:61,1,100,2|8,0:0|0:0,0:0:0:0:
343,77,129065,1,2,0:0:0:0:
257,128,129405,1,8,0:0:0:0:
170,77,129744,1,2,0:0:0:0:
257,256,130422,5,2,0:0:0:0:
368,194,134493,6,0,P|318:195|270:225,1,100,8|8,0:0|0:0,0:0:0:0:
235,189,135002,2,0,P|185:188|137:158,1,100,2|2,0:0|0:0,0:0:0:0:
102,193,135510,1,8,0:0:0:0:
107,292,135850,2,0,P|145:328|235:332,1,100,8|2,0:0|0:0,0:0:0:0:
236,321,136359,1,8,0:0:0:0:
277,293,136528,2,0,P|324:272|391:278,1,100,8|2,0:0|0:0,0:0:0:0:
418,289,137037,1,8,0:0:0:0:
463,309,137207,6,0,P|493:253|490:201,1,100,8|2,0:0|0:0,0:0:0:0:
463,177,137715,1,8,0:0:0:0:
432,137,137885,2,0,P|380:153|322:136,1,100,8|2,0:0|0:0,0:0:0:0:
295,114,138394,1,8,0:0:0:0:
252,87,138563,2,0,P|189:73|146:82,1,100,8|2,0:0|0:0,0:0:0:0:
112,106,139072,1,8,0:0:0:0:
74,138,139242,1,8,0:0:0:0:
256,192,139411,12,0,140599,0:0:0:0:
63,280,141277,6,0,P|105:258|130:206,1,100,6|10,0:0|0:0,0:0:0:0:
190,133,141956,2,0,L|239:219,1,100,2|10,0:0|0:0,0:0:0:0:
339,217,142634,2,0,P|407:214|463:256,1,100,6|10,0:0|0:0,0:0:0:0:
377,309,143312,1,2,0:0:0:0:
280,334,143652,2,0,L|232:363,1,50,10|0,0:0|0:0,0:0:0:0:
190,340,143991,6,0,L|145:221,1,100,6|10,0:0|0:0,0:0:0:0:
216,168,144669,1,2,0:0:0:0:
290,235,145008,1,10,0:0:0:0:
387,210,145348,2,0,L|381:160,1,50,6|0,0:0|0:0,0:0:0:0:
368,113,145687,1,10,0:0:0:0:
277,73,146026,2,0,L|271:23,1,50,2|2,0:0|0:0,0:0:0:0:
225,4,146365,2,0,L|174:31,1,50,10|0,0:0|0:0,0:0:0:0:
144,61,146705,6,0,P|146:109|181:162,1,100,6|10,0:0|0:0,0:0:0:0:
192,250,147383,2,0,L|101:236,2,50,2|2|10,0:0|0:0|0:0,0:0:0:0:
291,260,148061,2,0,P|364:236|397:184,1,100,6|10,0:0|0:0,0:0:0:0:
429,134,148740,2,0,L|472:181,2,50,2|2|10,0:0|0:0|0:0,0:0:0:0:
329,127,149418,6,0,P|283:139|210:112,1,100,6|10,0:0|0:0,0:0:0:0:
151,69,150097,2,0,B|75:105,1,50,2|2,0:0|0:0,0:0:0:0:
60,112,150436,1,10,0:0:0:0:
112,196,150775,2,0,B|196:249,1,100,6|10,0:0|0:0,0:0:0:0:
293,225,151454,2,0,L|283:171,1,50,2|2,0:0|0:0,0:0:0:0:
272,126,151793,1,10,0:0:0:0:
205,51,152132,6,0,L|112:131,1,100,6|2,0:0|0:0,0:0:0:0:
178,124,152641,2,0,L|97:194,1,100,6|2,0:0|0:0,0:0:0:0:
151,196,153150,2,0,L|70:266,1,100,6|2,0:0|0:0,0:0:0:0:
133,342,153828,1,10,0:0:0:0:
214,283,154167,1,2,0:0:0:0:
297,338,154506,1,10,0:0:0:0:
304,238,154846,6,0,L|397:158,1,100,6|2,0:0|0:0,0:0:0:0:
331,165,155354,2,0,L|412:95,1,100,6|2,0:0|0:0,0:0:0:0:
358,93,155863,2,0,L|439:23,1,100,6|2,0:0|0:0,0:0:0:0:
501,101,156542,1,10,0:0:0:0:
456,190,156881,2,0,L|475:248,1,50,2|2,0:0|0:0,0:0:0:0:
484,285,157220,1,10,0:0:0:0:
407,349,157559,6,0,P|360:360|278:329,1,100,6|10,0:0|0:0,0:0:0:0:
248,270,158238,2,0,L|186:294,1,50,2|2,0:0|0:0,0:0:0:0:
155,307,158577,1,10,0:0:0:0:
176,209,158916,2,0,P|191:159|179:103,1,100,6|10,0:0|0:0,0:0:0:0:
101,54,159595,2,0,L|101:-2,2,50,2|2|10,0:0|0:0|0:0,0:0:0:0:
38,132,160273,6,0,B|36:184|6:224|6:224|61:216|103:245|103:245|68:284|87:344,1,300,0|8,0:0|0:0,0:0:0:0:
181,308,161630,2,0,P|254:297|300:262,1,100,6|10,0:0|0:0,0:0:0:0:
313,191,162308,2,0,L|365:235,1,50,2|2,0:0|0:0,0:0:0:0:
389,255,162648,1,10,0:0:0:0:
480,216,162987,6,0,L|480:116,1,100,6|10,0:0|0:0,0:0:0:0:
400,55,163665,2,0,L|400:6,2,50,2|2|10,0:0|0:0|0:0,0:0:0:0:
321,116,164344,2,0,P|269:106|223:116,1,100,6|10,0:0|0:0,0:0:0:0:
154,187,165022,2,0,L|115:142,1,50,2|2,0:0|0:0,0:0:0:0:
89,110,165361,1,10,0:0:0:0:
37,195,165700,6,0,L|37:306,1,100,6|10,0:0|0:0,0:0:0:0:
126,338,166379,2,0,L|176:304,1,50,2|2,0:0|0:0,0:0:0:0:
208,282,166718,2,0,L|258:248,1,50,10|0,0:0|0:0,0:0:0:0:
