osu file format v14

[General]
AudioFilename: Nightcore (Cady Groves)-This Little Girl www.mp3c.cc .mp3
AudioLeadIn: 0
PreviewTime: 43466
Countdown: 0
SampleSet: Soft
StackLeniency: 0.8
Mode: 0
LetterboxInBreaks: 0
WidescreenStoryboard: 0

[Editor]
Bookmarks: 119567
DistanceSpacing: 1.9
BeatDivisor: 4
GridSize: 4
TimelineZoom: 1.5

[Metadata]
Title:This Little Girl (Speed Up Ver.)
TitleUnicode:This Little Girl (Speed Up Ver.)
Artist:Cady Groves
ArtistUnicode:Cady Groves
Creator:agusch
Version:Little Girl
Source:
Tags:NightcoreReality RCA Records
BeatmapID:687246
BeatmapSetID:307131

[Difficulty]
HPDrainRate:8
CircleSize:4
OverallDifficulty:9
ApproachRate:9.2
SliderMultiplier:1.7
SliderTickRate:2

[Events]
//Background and Video events
0,0,"anime-girls-carrying-guns-anime-hd-wallpaper-2560x1440-8483.jpg",0,0
//Break Periods
2,16647,20456
//Storyboard Layer 0 (Background)
//Storyboard Layer 1 (Fail)
//Storyboard Layer 2 (Pass)
//Storyboard Layer 3 (Foreground)
//Storyboard Sound Samples

[TimingPoints]
165,339.21302578019,4,2,3,50,1,0
165,-200,4,2,3,50,0,0
14411,-200,4,2,5,50,0,0
14581,-200,4,2,3,50,0,0
21196,-100,4,2,1,70,0,0
32729,-100,4,3,1,80,0,0
32899,-100,4,3,3,80,0,0
34086,-100,4,3,1,80,0,0
34255,-100,4,3,3,80,0,0
35443,-100,4,3,1,80,0,0
35612,-100,4,3,3,80,0,0
36800,-100,4,3,1,80,0,0
36969,-100,4,3,3,80,0,0
38156,-100,4,3,1,80,0,0
38326,-100,4,3,3,80,0,0
39513,-100,4,3,1,80,0,0
39683,-100,4,3,3,80,0,0
40870,-100,4,3,1,80,0,0
41040,-100,4,3,3,80,0,0
41888,-100,4,2,1,80,0,0
43584,-66.6666666666667,4,2,1,100,0,1
47654,-66.6666666666667,4,2,2,100,0,1
49011,-66.6666666666667,4,2,1,100,0,1
58509,-66.6666666666667,4,2,2,100,0,1
59866,-66.6666666666667,4,2,1,100,0,1
63767,-100,4,2,1,70,0,0
76148,-100,4,3,1,80,0,0
76318,-100,4,3,3,80,0,0
77505,-100,4,3,1,80,0,0
77675,-100,4,3,3,80,0,0
78862,-100,4,3,1,80,0,0
79032,-100,4,3,3,80,0,0
80219,-100,4,3,1,80,0,0
80388,-100,4,3,3,80,0,0
81576,-100,4,3,1,80,0,0
81745,-100,4,3,3,80,0,0
82932,-100,4,3,1,80,0,0
83102,-100,4,3,3,80,0,0
84289,-100,4,3,1,80,0,0
84459,-100,4,3,3,80,0,0
85307,-100,4,2,1,80,0,0
87003,-66.6666666666667,4,2,1,100,0,1
91074,-66.6666666666667,4,2,2,100,0,1
92430,-66.6666666666667,4,2,1,100,0,1
101928,-66.6666666666667,4,2,2,100,0,1
103285,-66.6666666666667,4,2,1,100,0,1
107186,-100,4,2,1,70,0,0
110578,-100,4,2,1,30,0,0
110663,-100,4,2,1,35,0,0
110748,-100,4,2,1,40,0,0
110833,-100,4,2,1,45,0,0
110918,-100,4,2,1,50,0,0
111002,-100,4,2,1,55,0,0
111087,-100,4,2,1,60,0,0
111172,-100,4,2,1,65,0,0
111257,-100,4,2,1,70,0,0
124995,-100,4,2,1,90,0,0
130422,-200,4,2,0,35,0,0
141277,-66.6666666666667,4,2,1,100,0,1
145348,-66.6666666666667,4,2,2,100,0,1
146705,-66.6666666666667,4,2,1,100,0,1
156202,-66.6666666666667,4,2,2,100,0,1
157559,-66.6666666666667,4,2,1,100,0,1
160273,-66.6666666666667,4,1,1,50,0,0
161630,-66.6666666666667,4,2,1,100,0,1
166888,-100,4,2,0,70,0,0

[Colours]
Combo1 : 12,1,148
Combo2 : 192,192,192
Combo3 : 170,4,17
Combo4 : 70,1,163

[HitObjects]
256,296,165,5,8,0:0:0:0:
348,192,843,1,8,0:0:0:0:
164,192,1521,1,8,0:0:0:0:
256,64,2200,1,8,0:0:0:0:
256,97,2539,1,2,0:0:0:0:
256,130,2878,5,8,0:0:0:0:
164,286,3557,1,8,0:0:0:0:
348,286,4235,1,8,0:0:0:0:
143,248,4913,2,0,L|107:224,1,42.5,8|0,0:0|0:0,0:0:0:0:
107,182,5253,1,2,0:0:0:0:
107,140,5422,1,0,0:0:0:0:
114,98,5592,6,0,B|147:100|172:117|184:137|184:137|215:134|247:141|267:157,1,170,8|8,0:0|0:0,0:0:0:0:
326,217,6440,1,0,0:0:0:0:
326,217,6610,2,0,L|370:226,1,42.5
449,197,6949,5,8,0:0:0:0:
449,197,7118,2,0,B|429:161|431:128|443:99|443:99|431:57,1,127.5,0|8,0:0|0:0,0:0:0:0:
356,36,7797,1,0,0:0:0:0:
322,63,7966,1,2,0:0:0:0:
290,89,8136,1,0,0:0:0:0:
256,116,8306,6,0,B|256:176|256:176|322:202|317:278,1,170,8|8,0:0|0:0,0:0:0:0:
231,259,9154,1,0,0:0:0:0:
190,247,9323,1,0,0:0:0:0:
157,219,9493,1,0,0:0:0:0:
135,182,9662,5,8,0:0:0:0:
130,99,10002,2,0,P|124:141|135:182,1,85,0|8,0:0|0:0,0:0:0:0:
324,117,10680,1,2,0:0:0:0:
401,81,10850,1,0,0:0:0:0:
331,35,11019,6,0,P|316:74|323:116,1,85,8|0,0:0|0:0,0:0:0:0:
394,166,11528,1,0,0:0:0:0:
468,126,11698,2,0,P|440:94|400:80,1,85,8|0,0:0|0:0,0:0:0:0:
324,117,12207,1,0,0:0:0:0:
255,166,12376,6,0,L|231:200,1,42.5,8|0,0:0|0:0,0:0:0:0:
254,282,12715,2,0,L|279:316,1,42.5
364,320,13055,2,0,L|388:286,1,42.5,8|0,0:0|0:0,0:0:0:0:
473,289,13394,2,0,L|498:323,1,42.5,2|0,0:0|0:0,0:0:0:0:
429,373,13733,5,8,0:0:0:0:
364,320,13903,1,0,0:0:0:0:
317,249,14072,1,0,0:0:0:0:
295,166,14242,2,0,P|274:131|234:107,1,85
154,130,14751,1,0,0:0:0:0:
209,194,14920,1,0,0:0:0:0:
237,108,15090,5,8,0:0:0:0:
299,50,15259,2,0,P|338:53|376:78,1,85
309,138,15768,2,0,L|297:187,1,42.5,8|0,0:0|0:0,0:0:0:0:
209,194,16108,2,0,L|197:240,1,42.5,2|0,0:0|0:0,0:0:0:0:
256,303,16447,5,8,0:0:0:0:
43,164,21026,5,0,0:0:0:0:
136,89,21196,1,2,0:0:0:0:
152,206,21365,1,0,0:0:0:0:
247,134,21535,2,0,P|256:91|238:28,1,85,8|0,0:0|0:0,0:0:0:0:
152,206,21874,6,0,P|230:253|316:232,1,170,2|8,0:0|0:0,0:0:0:0:
247,134,22383,1,2,0:0:0:0:
303,239,22553,2,0,L|344:315,1,85,2|0,0:0|0:0,0:0:0:0:
361,135,22892,1,8,0:0:0:0:
303,239,23061,1,0,0:0:0:0:
246,133,23231,6,0,P|215:105|176:89,1,85,2|0,0:0|0:0,0:0:0:0:
179,232,23570,1,8,0:0:0:0:
246,133,23740,1,2,0:0:0:0:
265,313,23909,2,0,P|308:318|349:309,1,85,2|0,0:0|0:0,0:0:0:0:
179,232,24249,2,0,P|154:265|146:307,1,85,8|0,0:0|0:0,0:0:0:0:
378,206,24588,6,0,B|340:187|294:196|294:196|286:153|244:131,1,170,2|8,0:0|0:0,0:0:0:0:
126,121,25097,1,2,0:0:0:0:
179,232,25266,2,0,P|171:274|135:316,1,85,2|0,0:0|0:0,0:0:0:0:
126,121,25605,1,8,0:0:0:0:
179,232,25775,1,0,0:0:0:0:
245,131,25945,6,0,B|273:92|273:92|302:120|351:130|387:119,1,170,2|8,0:0|0:0,0:0:0:0:
353,4,26454,1,2,0:0:0:0:
207,49,26623,2,0,L|155:123,1,85,2|0,0:0|0:0,0:0:0:0:
163,271,26962,2,0,L|211:201,1,85,8|0,0:0|0:0,0:0:0:0:
386,119,27302,6,0,L|287:257,1,170,2|8,0:0|0:0,0:0:0:0:
310,62,27810,1,2,0:0:0:0:
310,62,27980,2,0,L|211:201,1,170,2|8,0:0|0:0,0:0:0:0:
220,35,28489,1,0,0:0:0:0:
158,135,28658,6,0,P|178:171|210:199,1,85,2|0,0:0|0:0,0:0:0:0:
318,252,28998,2,0,P|331:211|326:169,1,85,8|2,0:0|0:0,0:0:0:0:
221,322,29337,2,0,P|252:351|292:368,1,85,2|0,0:0|0:0,0:0:0:0:
211,200,29676,2,0,P|170:210|135:235,1,85,8|0,0:0|0:0,0:0:0:0:
318,252,30015,6,0,P|332:207|322:158,1,85,2|0,0:0|0:0,0:0:0:0:
221,322,30354,1,8,0:0:0:0:
211,200,30524,1,2,0:0:0:0:
114,269,30694,2,0,L|43:315,1,85,2|0,0:0|0:0,0:0:0:0:
103,150,31033,1,8,0:0:0:0:
114,269,31202,1,0,0:0:0:0:
187,135,31372,5,2,0:0:0:0:
190,262,31542,2,0,B|237:263|273:282|273:282|304:255|349:248,1,170,2|2,0:0|0:0,0:0:0:0:
187,135,32051,2,0,P|145:142|109:164,1,85,2|0,0:0|0:0,0:0:0:0:
26,321,32390,2,0,P|67:313|104:292,1,85,2|0,0:0|0:0,0:0:0:0:
187,136,32729,6,0,B|244:138|271:94|271:94|342:164,1,170,6|8,0:0|0:0,0:0:0:0:
331,288,33238,2,0,P|350:326|379:358,1,85,2|0,0:0|0:0,0:0:0:0:
445,259,33576,1,0,0:0:0:0:
297,215,33747,2,0,P|258:233|216:240,1,85,8|0,0:0|0:0,0:0:0:0:
445,259,34085,5,6,0:0:0:0:
431,106,34255,2,0,P|448:67|480:32,1,85,0|8,0:0|0:0,0:0:0:0:
362,18,34594,1,2,0:0:0:0:
365,168,34764,2,0,P|334:198|293:215,1,85
270,29,35103,2,0,P|273:72|260:114,1,85,8|0,0:0|0:0,0:0:0:0:
99,15,35443,6,0,P|134:39|158:77,2,85,6|0|8,0:0|0:0|0:0,0:0:0:0:
48,122,35951,1,2,0:0:0:0:
153,176,36121,2,0,P|199:167|257:170,1,85
204,282,36460,1,8,0:0:0:0:
153,176,36630,1,0,0:0:0:0:
83,312,36800,6,0,P|57:350|8:380,1,85,6|0,0:0|0:0,0:0:0:0:
173,176,37139,1,8,0:0:0:0:
103,312,37308,2,0,P|77:350|28:380,1,85,2|0,0:0|0:0,0:0:0:0:
193,176,37648,1,2,0:0:0:0:
123,312,37817,2,0,P|97:350|48:380,1,85,8|0,0:0|0:0,0:0:0:0:
75,142,38156,6,0,P|131:68|228:57,1,170,6|8,0:0|0:0,0:0:0:0:
305,166,38665,2,0,P|347:184|397:190,1,85,2|0,0:0|0:0,0:0:0:0:
376,71,39004,1,0,0:0:0:0:
232,125,39174,2,0,P|217:168|171:211,1,85,8|0,0:0|0:0,0:0:0:0:
376,71,39513,5,6,0:0:0:0:
274,185,39683,2,0,P|234:198|190:197,1,85,0|8,0:0|0:0,0:0:0:0:
120,101,40022,1,2,0:0:0:0:
103,253,40192,2,0,P|132:283|170:301,1,85
317,346,40531,2,0,P|295:309|286:268,1,85,8|0,0:0|0:0,0:0:0:0:
269,115,40870,6,0,P|298:145|336:163,2,85,6|0|8,0:0|0:0|0:0,0:0:0:0:
366,46,41379,1,2,0:0:0:0:
336,163,41548,1,0,0:0:0:0:
452,136,41718,1,0,0:0:0:0:
355,255,41888,2,0,L|241:284,1,85,8|0,0:0|0:0,0:0:0:0:
129,219,42227,6,0,L|211:198,1,85,8|0,0:0|0:0,0:0:0:0:
311,82,42566,2,0,L|228:102,2,85,8|0|8,0:0|0:0|0:0,0:0:0:0:
446,153,43075,5,2,0:0:0:0:
446,153,43245,1,2,0:0:0:0:
70,82,43584,6,0,B|106:162|106:162|184:217|184:217|210:284,1,255.000009727478,6|10,0:0|0:0,0:0:0:0:
401,356,44093,2,0,B|353:313|353:313|329:252,1,127.500004863739,2|0,0:0|0:0,0:0:0:0:
236,132,44432,1,2,0:0:0:0:
210,284,44601,1,10,0:0:0:0:
149,62,44771,6,0,P|207:24|279:29,1,127.500004863739,0|2,0:0|0:0,0:0:0:0:
402,196,45110,1,0,0:0:0:0:
236,132,45280,1,10,0:0:0:0:
464,140,45449,1,2,0:0:0:0:
319,164,45619,1,0,0:0:0:0:
442,53,45788,1,2,0:0:0:0:
485,227,45958,1,10,0:0:0:0:
236,132,46128,6,0,B|175:132|175:132|115:167,1,127.500004863739,0|2,0:0|0:0,0:0:0:0:
222,277,46467,1,0,0:0:0:0:
319,164,46637,1,10,0:0:0:0:
194,202,46806,1,2,0:0:0:0:
291,89,46976,1,0,0:0:0:0:
325,268,47146,2,0,B|303:325|303:325|242:363,2,127.500004863739,2|10|0,0:0|0:0|0:0,0:0:0:0:
181,81,47654,5,2,0:0:0:0:
115,257,47824,1,2,0:0:0:0:
335,81,47994,1,10,0:0:0:0:
398,257,48163,1,2,0:0:0:0:
168,68,48333,1,2,0:0:0:0:
93,269,48502,1,2,0:0:0:0:
347,68,48672,1,10,0:0:0:0:
419,269,48842,1,2,0:0:0:0:
152,162,49011,6,0,B|88:150|88:150|28:167,1,127.500004863739,6|0,0:0|0:0,0:0:0:0:
233,291,49350,1,10,0:0:0:0:
350,189,49520,2,0,B|363:125|363:125|342:57,1,127.500004863739,2|0,0:0|0:0,0:0:0:0:
152,162,49859,1,2,0:0:0:0:
233,291,50029,1,10,0:0:0:0:
344,65,50198,6,0,B|411:69|411:69|474:101,1,127.500004863739,0|2,0:0|0:0,0:0:0:0:
339,267,50538,1,0,0:0:0:0:
262,135,50707,1,10,0:0:0:0:
166,344,50877,2,0,B|106:322|106:322|63:266,1,127.500004863739,2|0,0:0|0:0,0:0:0:0:
142,81,51216,1,2,0:0:0:0:
165,239,51386,1,10,0:0:0:0:
313,48,51555,6,0,B|374:29|374:29|447:29,1,127.500004863739,0|2,0:0|0:0,0:0:0:0:
439,271,51894,1,0,0:0:0:0:
318,137,52064,1,10,0:0:0:0:
243,271,52234,1,2,0:0:0:0:
125,137,52403,1,0,0:0:0:0:
176,334,52573,2,0,P|226:364|295:348,1,127.500004863739,2|10,0:0|0:0,0:0:0:0:
28,175,52912,6,0,B|0:231|0:231|0:296,1,127.500004863739,0|2,0:0|0:0,0:0:0:0:
120,48,53251,1,0,0:0:0:0:
238,182,53420,1,10,0:0:0:0:
313,48,53590,1,2,0:0:0:0:
434,182,53760,1,0,0:0:0:0:
313,48,53930,2,0,B|254:24|254:24|180:24,2,127.500004863739,2|10|0,0:0|0:0|0:0,0:0:0:0:
237,249,54439,6,0,B|125:194|125:194|56:62,1,255.000009727478,6|2,0:0|0:0,0:0:0:0:
277,133,54947,2,0,B|388:187|388:187|458:320,1,255.000009727478,6|2,0:0|0:0,0:0:0:0:
184,351,55456,1,10,0:0:0:0:
326,294,55626,1,0,0:0:0:0:
158,234,55795,5,2,0:0:0:0:
356,183,55965,1,0,0:0:0:0:
143,94,56135,1,10,0:0:0:0:
364,38,56304,1,2,0:0:0:0:
143,79,56474,1,0,0:0:0:0:
356,168,56643,1,2,0:0:0:0:
158,219,56813,1,10,0:0:0:0:
348,292,56983,1,0,0:0:0:0:
37,324,57152,6,0,B|102:276|102:276|200:261|200:261|267:205,1,255.000009727478,6|2,0:0|0:0,0:0:0:0:
478,324,57661,2,0,B|413:276|413:276|315:261|315:261|248:205,1,255.000009727478,6|2,0:0|0:0,0:0:0:0:
153,36,58170,2,0,B|181:62|181:62|239:80|239:80|261:100,1,127.500004863739,6|0,0:0|0:0,0:0:0:0:
461,210,58509,5,2,0:0:0:0:
370,119,58679,1,2,0:0:0:0:
369,299,58848,1,10,0:0:0:0:
459,29,59018,1,2,0:0:0:0:
279,209,59188,1,2,0:0:0:0:
280,29,59357,1,2,0:0:0:0:
151,209,59527,2,0,P|171:280|231:329,1,127.500004863739,10|2,0:0|0:0,0:0:0:0:
404,197,59866,6,0,B|339:191|339:191|279:208,1,127.500004863739,6|0,0:0|0:0,0:0:0:0:
362,337,60205,1,10,0:0:0:0:
151,209,60375,2,0,P|171:139|237:88,1,127.500004863739,2|0,0:0|0:0,0:0:0:0:
282,292,60714,1,2,0:0:0:0:
151,209,60884,1,10,0:0:0:0:
350,170,61053,6,0,B|396:122|396:122|409:53,1,127.500004863739,0|2,0:0|0:0,0:0:0:0:
208,101,61392,1,0,0:0:0:0:
350,170,61562,1,10,0:0:0:0:
151,209,61732,2,0,P|107:170|88:98,1,127.500004863739,2|0,0:0|0:0,0:0:0:0:
292,111,62071,1,2,0:0:0:0:
233,251,62240,1,10,0:0:0:0:
429,193,62410,6,0,B|447:131|447:131|428:47,1,127.500004863739,0|2,0:0|0:0,0:0:0:0:
159,132,62749,1,0,0:0:0:0:
334,27,62919,1,10,0:0:0:0:
327,205,63089,1,2,0:0:0:0:
205,11,63258,1,0,0:0:0:0:
206,232,63428,2,0,B|270:232|270:232|327:204,1,127.500004863739,2|10,0:0|0:0,0:0:0:0:
433,69,63767,6,0,P|408:160|464:244,1,170
90,185,64785,5,2,0:0:0:0:
204,210,64954,2,0,P|189:249|160:279,1,85,2|0,0:0|0:0,0:0:0:0:
169,96,65293,6,0,B|196:113|224:110|224:110|249:135|249:135|278:133|301:137|322:150,1,170,2|8,0:0|0:0,0:0:0:0:
391,247,65802,1,2,0:0:0:0:
272,258,65972,2,0,P|231:241|201:204,1,85,2|0,0:0|0:0,0:0:0:0:
391,247,66311,2,0,P|385:296|363:331,1,85,8|0,0:0|0:0,0:0:0:0:
322,150,66650,5,2,0:0:0:0:
272,258,66820,2,0,B|219:293|156:259|156:259|114:282,1,170,2|2,0:0|0:0,0:0:0:0:
299,371,67329,2,0,P|336:358|368:322,1,85,2|0,0:0|0:0,0:0:0:0:
322,150,67668,1,8,0:0:0:0:
272,258,67837,1,0,0:0:0:0:
217,91,68007,6,0,P|273:39|384:48,1,170,2|8,0:0|0:0,0:0:0:0:
322,150,68516,1,2,0:0:0:0:
216,205,68686,2,0,P|171:195|132:164,1,85,2|0,0:0|0:0,0:0:0:0:
322,150,69025,1,8,0:0:0:0:
315,268,69194,1,0,0:0:0:0:
423,218,69364,6,0,B|448:178|449:128|428:91|428:91|466:78,1,170,2|8,0:0|0:0,0:0:0:0:
373,0,69873,1,2,0:0:0:0:
322,150,70042,2,0,P|282:135|250:109,1,85,2|0,0:0|0:0,0:0:0:0:
315,268,70382,1,8,0:0:0:0:
322,150,70551,1,0,0:0:0:0:
205,304,70721,6,0,P|121:286|71:220,1,170,2|8,0:0|0:0,0:0:0:0:
315,268,71230,1,2,0:0:0:0:
315,267,71399,2,0,P|264:201|183:185,1,170,2|8,0:0|0:0,0:0:0:0:
275,380,71908,1,0,0:0:0:0:
391,358,72078,6,0,P|418:325|431:284,1,85,2|0,0:0|0:0,0:0:0:0:
448,166,72417,2,0,P|406:168|351:197,1,85,8|2,0:0|0:0,0:0:0:0:
233,285,72756,2,0,P|275:283|315:267,1,85,2|0,0:0|0:0,0:0:0:0:
139,211,73095,1,8,0:0:0:0:
233,285,73265,1,0,0:0:0:0:
185,99,73435,6,0,P|144:90|103:97,1,85,2|0,0:0|0:0,0:0:0:0:
257,194,73774,1,8,0:0:0:0:
303,84,73943,1,2,0:0:0:0:
374,179,74113,2,0,P|370:227|347:271,1,85,2|0,0:0|0:0,0:0:0:0:
303,84,74452,1,8,0:0:0:0:
374,179,74622,1,0,0:0:0:0:
257,194,74791,6,0,P|215:201|179:224,1,85,2|0,0:0|0:0,0:0:0:0:
354,260,75131,1,8,0:0:0:0:
257,194,75300,1,2,0:0:0:0:
275,321,75470,2,0,P|311:350|354:359,1,85,2|0,0:0|0:0,0:0:0:0:
437,257,75809,2,0,P|395:266|353:260,1,85,8|0,0:0|0:0,0:0:0:0:
168,205,76148,6,4,P|198:277|282:322,1,170,2|8,0:0|0:0,0:0:0:0:
338,181,76657,2,0,P|355:135|386:101,1,85,2|0,0:0|0:0,0:0:0:0:
281,37,76996,1,0,0:0:0:0:
338,181,77166,2,0,P|312:208|264:230,1,85,8|0,0:0|0:0,0:0:0:0:
281,37,77505,5,2,0:0:0:0:
337,180,77675,2,0,P|366:149|406:130,1,85,0|8,0:0|0:0,0:0:0:0:
462,26,78014,1,2,0:0:0:0:
457,193,78183,2,0,P|435:158|403:130,1,85
340,298,78523,2,0,P|362:262|394:234,1,85,8|0,0:0|0:0,0:0:0:0:
267,359,78862,6,0,P|262:316|245:277,2,85,2|0|8,0:0|0:0|0:0,0:0:0:0:
148,348,79371,1,2,0:0:0:0:
71,257,79540,2,0,P|77:227|65:162,1,85
153,88,79880,1,8,0:0:0:0:
204,194,80049,1,0,0:0:0:0:
30,38,80219,6,0,P|49:75|80:103,1,85,2|0,0:0|0:0,0:0:0:0:
201,214,80558,1,8,0:0:0:0:
26,57,80727,2,0,P|45:94|76:122,1,85,2|0,0:0|0:0,0:0:0:0:
198,234,81067,1,2,0:0:0:0:
23,77,81236,2,0,P|42:114|73:142,1,85,8|0,0:0|0:0,0:0:0:0:
301,99,81576,6,0,P|228:92|141:28,1,170,2|8,0:0|0:0,0:0:0:0:
134,190,82084,2,0,P|117:230|81:270,1,85,2|0,0:0|0:0,0:0:0:0:
15,169,82424,1,0,0:0:0:0:
157,115,82593,2,0,P|218:141|262:145,1,85,8|0,0:0|0:0,0:0:0:0:
243,314,82932,6,0,P|245:271|258:231,1,85,2|0,0:0|0:0,0:0:0:0:
428,209,83272,2,0,P|386:202|343:205,1,85,8|2,0:0|0:0,0:0:0:0:
326,35,83611,2,0,P|327:77|320:119,1,85
157,115,83950,2,0,P|218:141|262:145,1,85,8|0,0:0|0:0,0:0:0:0:
91,235,84289,6,0,P|91:198|75:143,2,85,2|0|8,0:0|0:0|0:0,0:0:0:0:
12,324,84798,1,2,0:0:0:0:
91,235,84968,1,0,0:0:0:0:
128,347,85137,1,0,0:0:0:0:
227,229,85307,2,0,L|302:144,1,85,8|0,0:0|0:0,0:0:0:0:
428,117,85646,6,0,L|371:180,1,85,8|0,0:0|0:0,0:0:0:0:
346,331,85985,2,0,L|402:267,2,85,8|0|8,0:0|0:0|0:0,0:0:0:0:
196,363,86494,1,2,0:0:0:0:
196,363,86664,1,2,0:0:0:0:
439,102,87003,6,0,B|381:167|381:167|296:189|296:189|227:259,1,255.000009727478,6|10,0:0|0:0,0:0:0:0:
356,78,87512,2,0,B|401:29|401:29|472:10,1,127.500004863739,2|0,0:0|0:0,0:0:0:0:
491,163,87851,1,2,0:0:0:0:
356,78,88021,1,10,0:0:0:0:
344,304,88190,6,0,P|282:290|238:245,1,127.500004863739,0|2,0:0|0:0,0:0:0:0:
356,78,88529,1,0,0:0:0:0:
416,218,88699,1,10,0:0:0:0:
459,13,88869,1,2,0:0:0:0:
282,31,89038,1,0,0:0:0:0:
503,93,89208,1,2,0:0:0:0:
274,122,89378,1,10,0:0:0:0:
482,217,89547,6,0,B|502:157|502:157|502:92,1,127.500004863739,0|2,0:0|0:0,0:0:0:0:
354,132,89886,1,0,0:0:0:0:
482,217,90056,1,10,0:0:0:0:
354,132,90226,1,2,0:0:0:0:
400,277,90395,1,0,0:0:0:0:
343,55,90565,2,0,B|399:32|399:32|465:32,2,127.500004863739,2|10|0,0:0|0:0|0:0,0:0:0:0:
212,244,91074,5,2,0:0:0:0:
239,67,91243,1,2,0:0:0:0:
178,327,91413,1,10,0:0:0:0:
252,53,91582,1,2,0:0:0:0:
296,275,91753,1,2,0:0:0:0:
265,39,91922,1,2,0:0:0:0:
263,360,92091,1,10,0:0:0:0:
278,27,92261,1,2,0:0:0:0:
304,292,92430,6,0,B|370:308|370:308|428:292,1,127.500004863739,6|0,0:0|0:0,0:0:0:0:
256,125,92770,1,10,0:0:0:0:
216,275,92939,2,0,B|151:291|151:291|93:275,1,127.500004863739,2|0,0:0|0:0,0:0:0:0:
115,71,93278,1,2,0:0:0:0:
256,125,93448,1,10,0:0:0:0:
92,274,93618,6,0,B|118:334|118:334|166:377,1,127.500004863739,0|2,0:0|0:0,0:0:0:0:
333,259,93957,1,0,0:0:0:0:
256,125,94127,1,10,0:0:0:0:
92,274,94296,2,0,B|57:219|57:219|51:138,1,127.500004863739,2|0,0:0|0:0,0:0:0:0:
256,125,94635,1,2,0:0:0:0:
216,275,94805,1,10,0:0:0:0:
398,134,94975,6,0,B|375:71|375:71|324:28,1,127.500004863739,0|2,0:0|0:0,0:0:0:0:
89,71,95314,1,0,0:0:0:0:
256,125,95483,1,10,0:0:0:0:
123,202,95653,1,2,0:0:0:0:
290,256,95822,1,0,0:0:0:0:
90,299,95992,2,0,P|39:260|23:183,1,127.500004863739,2|10,0:0|0:0,0:0:0:0:
290,256,96331,6,0,B|324:311|324:311|324:375,1,127.500004863739,0|2,0:0|0:0,0:0:0:0:
123,202,96671,1,0,0:0:0:0:
291,141,96841,1,10,0:0:0:0:
152,76,97010,1,2,0:0:0:0:
323,27,97179,1,0,0:0:0:0:
152,76,97349,2,0,B|94:105|94:105|52:168,2,127.500004863739,2|10|0,0:0|0:0|0:0,0:0:0:0:
292,241,97858,6,0,B|215:275|215:275|129:264|129:264|54:305,1,255.000009727478,6|2,0:0|0:0,0:0:0:0:
253,141,98367,2,0,B|329:106|329:106|415:117|415:117|490:76,1,255.000009727478,6|2,0:0|0:0,0:0:0:0:
222,66,98875,1,10,0:0:0:0:
315,187,99045,1,0,0:0:0:0:
147,123,99215,5,2,0:0:0:0:
261,258,99384,1,0,0:0:0:0:
362,51,99554,1,10,0:0:0:0:
132,38,99724,1,2,0:0:0:0:
166,264,99893,1,0,0:0:0:0:
364,154,100063,1,2,0:0:0:0:
220,10,100232,1,10,0:0:0:0:
108,196,100402,1,0,0:0:0:0:
364,154,100572,6,0,B|295:103|295:103|209:97|209:97|145:41,1,255.000009727478,6|2,0:0|0:0,0:0:0:0:
280,198,101080,2,0,B|348:248|348:248|434:254|434:254|498:310,1,255.000009727478,6|2,0:0|0:0,0:0:0:0:
263,294,101589,2,0,B|209:254|209:254|129:234,1,127.500004863739,6|0,0:0|0:0,0:0:0:0:
364,154,101928,5,2,0:0:0:0:
263,294,102098,1,2,0:0:0:0:
298,92,102268,1,10,0:0:0:0:
176,315,102437,1,2,0:0:0:0:
364,154,102607,1,2,0:0:0:0:
140,104,102776,1,2,0:0:0:0:
176,315,102946,2,0,B|227:362|227:362|288:378,1,127.500004863739,10|2,0:0|0:0,0:0:0:0:
429,209,103285,6,0,B|368:229|368:229|318:275,1,127.500004863739,6|0,0:0|0:0,0:0:0:0:
454,347,103624,1,10,0:0:0:0:
231,249,103794,2,0,B|192:202|192:202|178:130,1,127.500004863739,2|0,0:0|0:0,0:0:0:0:
383,143,104133,1,2,0:0:0:0:
242,81,104303,1,10,0:0:0:0:
321,271,104473,6,0,P|396:284|472:254,1,127.500004863739,0|2,0:0|0:0,0:0:0:0:
406,69,104812,1,0,0:0:0:0:
510,180,104981,1,10,0:0:0:0:
305,182,105151,2,0,B|244:216|244:216|202:282,1,127.500004863739,2|0,0:0|0:0,0:0:0:0:
405,334,105490,1,2,0:0:0:0:
256,371,105660,1,10,0:0:0:0:
397,225,105829,6,0,B|425:161|425:161|419:82,1,127.500004863739,0|2,0:0|0:0,0:0:0:0:
149,183,106169,1,0,0:0:0:0:
290,37,106338,1,10,0:0:0:0:
259,213,106508,1,2,0:0:0:0:
159,21,106677,1,0,0:0:0:0:
339,141,106847,2,0,B|388:104|388:104|410:41,1,127.500004863739,2|10,0:0|0:0,0:0:0:0:
474,244,107186,6,0,P|414:296|316:307,1,170,2|2,0:0|0:0,0:0:0:0:
259,213,107695,1,10,0:0:0:0:
240,194,107865,1,2,0:0:0:0:
139,207,108034,1,2,0:0:0:0:
120,188,108204,1,2,0:0:0:0:
118,86,108373,1,10,0:0:0:0:
99,67,108543,1,2,0:0:0:0:
27,212,108713,6,0,P|53:292|129:332,1,170,2|8,0:0|0:0,0:0:0:0:
212,251,109221,1,2,0:0:0:0:
319,199,109391,2,0,P|362:210|424:247,1,85,2|2,0:0|0:0,0:0:0:0:
431,342,109730,1,8,0:0:0:0:
312,358,109900,1,2,0:0:0:0:
193,342,110070,6,0,P|150:321|111:283,1,85,2|2,0:0|0:0,0:0:0:0:
104,178,110409,1,8,0:0:0:0:
194,101,110578,2,0,L|194:69,15,21.25,2|0|0|0|2|0|0|0|0|0|0|0|8|0|0|0,0:0|0:0|0:0|0:0|0:0|0:0|0:0|0:0|0:0|0:0|0:0|0:0|0:0|0:0|0:0|0:0,0:0:0:0:
220,155,111257,6,0,P|305:171|384:112,1,170,2|2,0:0|0:0,0:0:0:0:
279,53,111766,1,8,0:0:0:0:
220,155,111935,2,0,P|204:249|269:329,1,170,2|2,0:0|0:0,0:0:0:0:
357,333,112444,1,8,0:0:0:0:
319,220,112614,1,2,0:0:0:0:
219,154,112783,6,0,P|178:145|136:145,1,85,2|2,0:0|0:0,0:0:0:0:
306,237,113122,1,8,0:0:0:0:
187,227,113292,2,0,P|145:236|107:255,1,85,2|2,0:0|0:0,0:0:0:0:
303,260,113631,1,2,0:0:0:0:
193,306,113801,2,0,P|160:332|134:366,1,85,8|2,0:0|0:0,0:0:0:0:
421,209,114140,6,0,L|329:165,1,85,2|2,0:0|0:0,0:0:0:0:
235,123,114479,1,8,0:0:0:0:
332,53,114649,1,2,0:0:0:0:
344,172,114819,6,0,L|268:208,1,85,2|2,0:0|0:0,0:0:0:0:
160,261,115158,1,8,0:0:0:0:
259,327,115327,1,2,0:0:0:0:
267,208,115497,6,0,L|191:172,1,85,2|2,0:0|0:0,0:0:0:0:
84,114,115836,1,8,0:0:0:0:
186,53,116006,1,2,0:0:0:0:
190,171,116175,6,0,L|114:207,1,85,2|2,0:0|0:0,0:0:0:0:
2,259,116515,1,8,0:0:0:0:
99,326,116684,1,2,0:0:0:0:
190,171,116854,6,0,L|114:207,1,85,2|2,0:0|0:0,0:0:0:0:
104,89,117193,1,8,0:0:0:0:
219,58,117363,1,2,0:0:0:0:
266,207,117532,6,0,L|190:171,1,85,2|2,0:0|0:0,0:0:0:0:
178,290,117871,1,8,0:0:0:0:
292,324,118041,1,2,0:0:0:0:
342,170,118211,6,0,L|266:206,1,85,2|2,0:0|0:0,0:0:0:0:
257,87,118550,1,8,0:0:0:0:
371,55,118719,1,2,0:0:0:0:
418,206,118889,6,0,L|342:170,1,85,2|2,0:0|0:0,0:0:0:0:
333,288,119228,1,8,0:0:0:0:
447,322,119398,1,2,0:0:0:0:
219,254,119567,6,0,L|165:319,1,85,2|2,0:0|0:0,0:0:0:0:
2,334,119907,2,0,L|56:269,1,85,8|2,0:0|0:0,0:0:0:0:
189,140,120246,1,2,0:0:0:0:
71,150,120416,1,2,0:0:0:0:
219,254,120585,2,0,L|315:318,1,85,8|2,0:0|0:0,0:0:0:0:
389,137,120924,6,0,L|319:185,1,85,2|2,0:0|0:0,0:0:0:0:
373,18,121264,1,8,0:0:0:0:
389,137,121433,1,2,0:0:0:0:
389,137,121603,1,2,0:0:0:0:
483,355,121942,2,0,L|398:300,1,85,8|2,0:0|0:0,0:0:0:0:
311,244,122281,5,2,0:0:0:0:
29,355,122620,2,0,L|114:300,1,85,8|2,0:0|0:0,0:0:0:0:
201,244,122959,1,2,0:0:0:0:
201,244,123129,1,2,0:0:0:0:
29,335,123299,2,0,L|114:280,1,85,8|2,0:0|0:0,0:0:0:0:
201,224,123638,5,2,0:0:0:0:
29,315,123808,1,2,0:0:0:0:
201,204,123977,1,8,0:0:0:0:
29,295,124147,1,2,0:0:0:0:
201,184,124316,2,0,L|286:129,1,85,2|2,0:0|0:0,0:0:0:0:
436,58,124656,1,8,0:0:0:0:
388,166,124825,1,2,0:0:0:0:
201,164,124995,6,0,L|123:129,1,85,2|2,0:0|0:0,0:0:0:0:
195,283,125334,1,10,0:0:0:0:
201,164,125504,1,2,0:0:0:0:
302,332,125673,2,0,L|379:366,1,85,2|2,0:0|0:0,0:0:0:0:
312,212,126013,1,10,0:0:0:0:
302,332,126182,1,2,0:0:0:0:
201,164,126352,6,0,L|123:129,1,85,2|2,0:0|0:0,0:0:0:0:
302,332,126691,1,10,0:0:0:0:
312,212,126861,1,2,0:0:0:0:
183,326,127030,1,2,0:0:0:0:
250,110,127369,1,10,0:0:0:0:
312,212,127539,1,2,0:0:0:0:
355,54,127709,6,0,L|268:17,1,85,2|2,0:0|0:0,0:0:0:0:
312,212,128048,1,10,0:0:0:0:
250,110,128217,1,2,0:0:0:0:
206,267,128387,1,2,0:0:0:0:
141,166,128557,1,2,0:0:0:0:
333,217,128726,1,10,0:0:0:0:
255,90,128895,1,2,0:0:0:0:
200,286,129065,5,2,0:0:0:0:
119,160,129235,1,2,0:0:0:0:
354,223,129405,1,10,0:0:0:0:
261,70,129574,1,2,0:0:0:0:
195,306,129744,1,2,0:0:0:0:
372,230,129914,1,2,0:0:0:0:
299,373,130083,1,10,0:0:0:0:
256,192,130422,5,2,0:0:0:0:
256,192,131779,5,2,0:0:0:0:
256,192,133136,1,2,0:0:0:0:
391,118,134493,5,8,0:0:0:0:
440,208,134832,1,8,0:0:0:0:
439,208,135002,2,0,P|399:219|357:215,1,85,2|2,0:0|0:0,0:0:0:0:
256,192,135510,1,8,0:0:0:0:
72,208,135850,6,0,P|120:220|172:208,1,85,8|2,0:0|0:0,0:0:0:0:
326,106,136359,1,8,0:0:0:0:
326,105,136528,2,0,P|285:117|256:147,1,85,8|2,0:0|0:0,0:0:0:0:
186,275,137037,1,8,0:0:0:0:
186,275,137207,6,0,P|226:263|256:234,1,85,8|2,0:0|0:0,0:0:0:0:
186,105,137715,1,8,0:0:0:0:
186,105,137885,2,0,P|226:117|256:147,1,85,8|2,0:0|0:0,0:0:0:0:
325,276,138394,1,8,0:0:0:0:
325,276,138563,6,0,P|285:264|256:235,1,85,8|2,0:0|0:0,0:0:0:0:
256,106,139072,1,8,0:0:0:0:
256,106,139242,1,8,0:0:0:0:
256,192,139411,12,0,140598,0:0:0:0:
151,40,141277,6,0,B|211:93|211:93|243:179|243:179|320:244,1,255.000009727478,6|10,0:0|0:0,0:0:0:0:
499,164,141786,2,0,B|448:120|448:120|377:100,1,127.500004863739,2|0,0:0|0:0,0:0:0:0:
306,232,142125,1,2,0:0:0:0:
430,321,142295,1,10,0:0:0:0:
201,322,142464,6,0,P|171:262|180:183,1,127.500004863739,0|2,0:0|0:0,0:0:0:0:
390,103,142804,1,0,0:0:0:0:
306,232,142973,1,10,0:0:0:0:
317,53,143143,1,2,0:0:0:0:
393,241,143312,1,0,0:0:0:0:
476,82,143482,1,2,0:0:0:0:
470,286,143652,1,10,0:0:0:0:
271,127,143821,6,0,B|215:107|215:107|147:108,1,127.500004863739,0|2,0:0|0:0,0:0:0:0:
68,239,144160,1,0,0:0:0:0:
32,89,144330,1,10,0:0:0:0:
144,193,144500,1,2,0:0:0:0:
108,44,144669,1,0,0:0:0:0:
145,283,144839,2,0,B|97:324|97:324|10:342,2,127.500004863739,2|10|0,0:0|0:0|0:0,0:0:0:0:
229,69,145348,5,2,0:0:0:0:
268,241,145517,1,2,0:0:0:0:
336,33,145687,1,10,0:0:0:0:
159,210,145857,1,2,0:0:0:0:
353,165,146026,1,2,0:0:0:0:
116,84,146196,1,2,0:0:0:0:
287,323,146366,1,10,0:0:0:0:
229,69,146535,1,2,0:0:0:0:
163,341,146705,6,0,B|227:345|227:345|287:322,1,127.500004863739,6|0,0:0|0:0,0:0:0:0:
451,201,147044,1,10,0:0:0:0:
301,169,147213,2,0,B|254:128|254:128|224:59,1,127.500004863739,2|0,0:0|0:0,0:0:0:0:
432,87,147553,1,2,0:0:0:0:
296,17,147722,1,10,0:0:0:0:
381,230,147892,6,0,B|334:274|334:274|266:288,1,127.500004863739,0|2,0:0|0:0,0:0:0:0:
127,142,148231,1,0,0:0:0:0:
188,282,148401,1,10,0:0:0:0:
234,58,148570,2,0,B|301:45|301:45|368:61,1,127.500004863739,2|0,0:0|0:0,0:0:0:0:
465,232,148909,1,2,0:0:0:0:
442,80,149079,1,10,0:0:0:0:
311,272,149249,6,0,B|251:291|251:291|180:281,1,127.500004863739,0|2,0:0|0:0,0:0:0:0:
324,81,149588,1,0,0:0:0:0:
429,223,149757,1,10,0:0:0:0:
277,202,149927,1,2,0:0:0:0:
382,344,150096,1,0,0:0:0:0:
187,281,150266,2,0,P|162:219|176:142,1,127.500004863739,2|10,0:0|0:0,0:0:0:0:
429,223,150605,6,0,B|457:279|457:279|457:350,1,127.500004863739,0|2,0:0|0:0,0:0:0:0:
485,75,150945,1,0,0:0:0:0:
429,223,151114,1,10,0:0:0:0:
383,65,151284,1,2,0:0:0:0:
327,213,151453,1,0,0:0:0:0:
266,27,151623,2,0,B|331:32|331:32|383:65,2,127.500004863739,2|10|0,0:0|0:0|0:0,0:0:0:0:
55,32,152132,6,0,P|46:155|137:238,1,255.000009727478,6|2,0:0|0:0,0:0:0:0:
391,137,152641,2,0,P|290:65|173:102,1,255.000009727478,6|2,0:0|0:0,0:0:0:0:
128,373,153150,2,0,P|241:325|268:205,1,255.000009727478,6|2,0:0|0:0,0:0:0:0:
109,24,153658,5,0,0:0:0:0:
49,267,153828,1,10,0:0:0:0:
286,197,153998,1,2,0:0:0:0:
91,14,154167,1,0,0:0:0:0:
49,287,154337,1,2,0:0:0:0:
301,186,154507,1,10,0:0:0:0:
71,19,154676,1,0,0:0:0:0:
68,296,154846,6,0,P|172:224|214:106,1,255.000009727478,6|2,0:0|0:0,0:0:0:0:
440,296,155354,2,0,P|336:224|295:106,1,255.000009727478,6|2,0:0|0:0,0:0:0:0:
255,287,155863,2,0,B|231:215|255:167|279:119|256:35,1,255.000009727478,6|2,0:0|0:0,0:0:0:0:
2,245,156372,5,2,0:0:0:0:
86,36,156542,1,10,0:0:0:0:
172,245,156711,1,2,0:0:0:0:
257,36,156881,1,2,0:0:0:0:
341,245,157051,1,2,0:0:0:0:
429,36,157220,1,10,0:0:0:0:
511,247,157390,1,2,0:0:0:0:
339,36,157559,5,6,0:0:0:0:
235,241,157729,1,0,0:0:0:0:
265,7,157899,1,10,0:0:0:0:
313,244,158068,1,2,0:0:0:0:
189,27,158238,1,0,0:0:0:0:
377,197,158407,1,2,0:0:0:0:
140,88,158577,1,10,0:0:0:0:
362,334,158747,5,0,0:0:0:0:
134,293,158916,1,2,0:0:0:0:
383,253,159086,1,0,0:0:0:0:
136,207,159255,1,10,0:0:0:0:
426,179,159425,1,2,0:0:0:0:
118,124,159595,1,0,0:0:0:0:
396,103,159764,1,2,0:0:0:0:
153,49,159934,1,10,0:0:0:0:
422,29,160103,1,0,0:0:0:0:
118,124,160273,5,0,0:0:0:0:
104,163,160357,1,0,0:0:0:0:
109,205,160442,1,0,0:0:0:0:
133,240,160527,1,0,0:0:0:0:
169,261,160613,5,0,0:0:0:0:
182,221,160697,1,0,0:0:0:0:
177,180,160782,1,0,0:0:0:0:
153,144,160867,1,0,0:0:0:0:
117,123,160952,5,0,0:0:0:0:
158,112,161035,1,0,0:0:0:0:
199,102,161120,1,0,0:0:0:0:
241,91,161205,1,0,0:0:0:0:
282,80,161291,5,0,0:0:0:0:
423,284,161630,6,0,P|374:322|286:334,1,127.500004863739,6|0,0:0|0:0,0:0:0:0:
78,296,161969,2,2,P|128:257|190:242,1,127.500004863739,10|2,0:0|0:0,0:0:0:0:
407,250,162308,2,0,P|358:288|270:300,1,127.500004863739,0|2,0:0|0:0,0:0:0:0:
62,262,162648,2,0,P|112:223|174:208,1,127.500004863739,10|0,0:0|0:0,0:0:0:0:
412,164,162987,6,0,B|446:111|446:111|446:33,1,127.500004863739,6|0,0:0|0:0,0:0:0:0:
293,64,163326,1,10,0:0:0:0:
295,302,163496,2,0,B|229:316|229:316|163:293,1,127.500004863739,2|0,0:0|0:0,0:0:0:0:
76,115,163835,1,2,0:0:0:0:
62,266,164004,1,10,0:0:0:0:
223,151,164174,6,0,B|290:155|290:155|352:191,1,127.500004863739,0|2,0:0|0:0,0:0:0:0:
172,296,164513,1,0,0:0:0:0:
223,151,164683,1,10,0:0:0:0:
329,324,164852,2,0,B|395:311|395:311|448:262,1,127.500004863739,2|0,0:0|0:0,0:0:0:0:
381,72,165192,1,2,0:0:0:0:
492,175,165361,1,10,0:0:0:0:
289,200,165531,6,0,B|234:232|234:232|206:290,1,127.500004863739,0|2,0:0|0:0,0:0:0:0:
481,347,165870,1,0,0:0:0:0:
384,166,166040,1,10,0:0:0:0:
329,324,166209,1,2,0:0:0:0:
492,175,166379,1,0,0:0:0:0:
289,200,166548,2,0,B|228:188|228:188|174:141,1,127.500004863739,2|10,0:0|0:0,0:0:0:0:
377,65,166888,6,0,P|455:103|492:209,1,170
