osu file format v14

[General]
AudioFilename: Nightcore (Cady Groves)-This Little Girl www.mp3c.cc .mp3
AudioLeadIn: 0
PreviewTime: 43466
Countdown: 0
SampleSet: Soft
StackLeniency: 0.8
Mode: 0
LetterboxInBreaks: 0
WidescreenStoryboard: 0

[Editor]
Bookmarks: 160214
DistanceSpacing: 1.3
BeatDivisor: 8
GridSize: 4
TimelineZoom: 1

[Metadata]
Title:This Little Girl (Speed Up Ver.)
TitleUnicode:This Little Girl (Speed Up Ver.)
Artist:Cady Groves
ArtistUnicode:Cady Groves
Creator:agusch
Version:Insane
Source:
Tags:NightcoreReality RCA Records
BeatmapID:871634
BeatmapSetID:307131

[Difficulty]
HPDrainRate:6
CircleSize:3.8
OverallDifficulty:7
ApproachRate:9
SliderMultiplier:1.20000000596046
SliderTickRate:1

[Events]
//Background and Video events
0,0,"anime-girls-carrying-guns-anime-hd-wallpaper-2560x1440-8483.jpg",0,0
//Break Periods
2,16647,20596
//Storyboard Layer 0 (Background)
//Storyboard Layer 1 (Fail)
//Storyboard Layer 2 (Pass)
//Storyboard Layer 3 (Foreground)
//Storyboard Sound Samples

[TimingPoints]
165,339.21302578019,4,2,3,50,1,0
165,-133.333333333333,4,2,3,50,0,0
504,-133.333333333333,4,2,4,5,0,0
589,-133.333333333333,4,2,3,50,0,0
1182,-133.333333333333,4,2,4,5,0,0
1267,-133.333333333333,4,2,3,50,0,0
1861,-133.333333333333,4,2,4,5,0,0
1945,-133.333333333333,4,2,3,50,0,0
3896,-133.333333333333,4,2,4,5,0,0
3981,-133.333333333333,4,2,3,50,0,0
4574,-133.333333333333,4,2,4,5,0,0
4659,-133.333333333333,4,2,3,50,0,0
21196,-80,4,2,1,70,0,0
32729,-80,4,3,1,80,0,0
41888,-80,4,2,1,80,0,0
43584,-62.5,4,2,1,100,0,1
47654,-62.5,4,2,2,100,0,1
49011,-62.5,4,2,1,100,0,1
58509,-62.5,4,2,2,100,0,1
59866,-62.5,4,2,1,100,0,1
63767,-80,4,2,1,70,0,0
76148,-80,4,3,1,80,0,0
85307,-80,4,2,1,80,0,0
87003,-62.5,4,2,1,100,0,1
91074,-62.5,4,2,2,100,0,1
92430,-62.5,4,2,1,100,0,1
101928,-62.5,4,2,2,100,0,1
103285,-62.5,4,2,1,100,0,1
107186,-80,4,2,1,70,0,0
110578,-80,4,2,1,30,0,0
110663,-80,4,2,1,35,0,0
110748,-80,4,2,1,40,0,0
110833,-80,4,2,1,45,0,0
110918,-80,4,2,1,50,0,0
111002,-80,4,2,1,55,0,0
111087,-80,4,2,1,60,0,0
111172,-80,4,2,1,65,0,0
111257,-80,4,2,1,70,0,0
130422,-133.333333333333,4,2,0,35,0,0
141277,-62.5,4,2,1,100,0,1
145348,-62.5,4,2,2,100,0,1
146705,-62.5,4,2,1,100,0,1
156202,-62.5,4,2,2,100,0,1
157559,-62.5,4,2,1,100,0,1
160273,-62.5,4,1,1,50,0,0
161630,-62.5,4,2,1,100,0,1
166888,-80,4,2,0,70,0,0

[Colours]
Combo1 : 12,1,148
Combo2 : 192,192,192
Combo3 : 170,4,17
Combo4 : 70,1,163

[HitObjects]
124,212,165,6,0,P|172:220|212:212,1,90.0000038802622,8|0,0:0|0:0,0:0:0:0:
388,167,843,2,0,P|343:158|299:167,1,90.0000038802622,8|0,0:0|0:0,0:0:0:0:
123,120,1521,2,0,P|167:128|212:120,1,90.0000038802622,8|0,0:0|0:0,0:0:0:0:
282,50,2200,1,8,0:0:0:0:
305,77,2539,1,2,0:0:0:0:
388,167,2878,5,8,0:0:0:0:
283,333,3557,2,0,P|326:346|371:339,1,90.0000038802622,8|0,0:0|0:0,0:0:0:0:
198,282,4235,2,0,P|184:327|192:373,1,90.0000038802622,8|0,0:0|0:0,0:0:0:0:
283,333,4913,1,8,0:0:0:0:
333,249,5083,1,0,0:0:0:0:
333,249,5253,2,0,L|294:225,1,45.0000019401311,2|0,0:0|0:0,0:0:0:0:
370,339,5592,6,0,P|407:314|426:274,1,90.0000038802622,8|0,0:0|0:0,0:0:0:0:
338,115,6270,2,0,L|290:71,1,45.0000019401311
283,176,6610,2,0,L|316:206,1,45.0000019401311,2|0,0:0|0:0,0:0:0:0:
432,92,6949,2,0,L|363:29,1,90.0000038802622,8|0,0:0|0:0,0:0:0:0:
224,97,7627,2,0,L|195:144,1,45.0000019401311
284,180,7966,2,0,L|313:227,1,45.0000019401311,2|0,0:0|0:0,0:0:0:0:
269,341,8306,6,0,L|224:264,1,90.0000038802622,8|0,0:0|0:0,0:0:0:0:
360,330,8984,1,0,0:0:0:0:
269,341,9154,1,0,0:0:0:0:
269,341,9323,2,0,L|213:341,1,45.0000019401311,2|0,0:0|0:0,0:0:0:0:
128,313,9662,2,0,P|100:273|98:214,1,90.0000038802622,8|0,0:0|0:0,0:0:0:0:
128,313,10341,1,0,0:0:0:0:
256,174,10680,1,2,0:0:0:0:
214,88,10850,1,0,0:0:0:0:
170,213,11019,6,0,P|201:251|252:269,1,90.0000038802622,8|0,0:0|0:0,0:0:0:0:
256,174,11528,1,0,0:0:0:0:
214,88,11698,2,0,P|171:62|117:63,1,90.0000038802622,0|2,0:0|0:0,0:0:0:0:
147,153,12207,1,0,0:0:0:0:
237,267,12376,2,0,L|291:267,1,45.0000019401311,8|0,0:0|0:0,0:0:0:0:
371,183,12715,2,0,L|326:183,1,45.0000019401311
237,99,13055,2,0,L|282:99,1,45.0000019401311
371,15,13394,2,0,L|326:15,1,45.0000019401311,2|0,0:0|0:0,0:0:0:0:
156,61,13733,6,0,P|148:104|162:147,1,90.0000038802622,8|0,0:0|0:0,0:0:0:0:
249,183,14242,1,0,0:0:0:0:
333,225,14411,2,0,L|333:279,1,45.0000019401311
238,278,14751,1,2,0:0:0:0:
249,183,14920,1,0,0:0:0:0:
144,287,15090,1,8,0:0:0:0:
237,277,15259,2,0,P|266:307|276:365,1,90.0000038802622
182,356,15768,1,0,0:0:0:0:
107,222,16108,1,2,0:0:0:0:
260,236,16447,5,8,0:0:0:0:
399,112,21196,5,2,0:0:0:0:
290,125,21365,1,0,0:0:0:0:
291,231,21535,2,0,P|316:257|351:271,1,75.0000003725287,8|0,0:0|0:0,0:0:0:0:
290,125,21874,6,0,P|222:99|152:121,1,150.000000745057,2|8,0:0|0:0,0:0:0:0:
112,218,22383,1,2,0:0:0:0:
112,218,22553,2,0,P|77:194|56:161,1,75.0000003725287,2|0,0:0|0:0,0:0:0:0:
152,121,22892,1,8,0:0:0:0:
112,218,23061,1,0,0:0:0:0:
256,122,23231,2,0,B|292:145|314:172|314:172|337:167|368:170|391:185,1,150.000000745057,2|8,0:0|0:0,0:0:0:0:
336,274,23740,1,2,0:0:0:0:
236,309,23909,2,0,P|198:311|164:297,1,75.0000003725287,2|0,0:0|0:0,0:0:0:0:
81,189,24249,2,0,P|118:183|154:193,1,75.0000003725287,8|0,0:0|0:0,0:0:0:0:
336,274,24588,6,0,P|311:204|342:131,1,150.000000745057,2|8,0:0|0:0,0:0:0:0:
415,206,25097,1,2,0:0:0:0:
337,136,25266,2,0,P|315:105|304:69,1,75.0000003725287,2|0,0:0|0:0,0:0:0:0:
441,137,25605,2,0,P|435:173|415:204,1,75.0000003725287,8|0,0:0|0:0,0:0:0:0:
223,190,25945,2,0,P|212:263|250:326,1,150.000000745057,2|8,0:0|0:0,0:0:0:0:
316,243,26454,1,2,0:0:0:0:
119,191,26623,2,0,P|90:218|76:272,1,75.0000003725287,2|0,0:0|0:0,0:0:0:0:
250,325,26962,1,8,0:0:0:0:
147,330,27132,1,0,0:0:0:0:
316,243,27302,6,0,P|315:162|254:104,1,150.000000745057,2|8,0:0|0:0,0:0:0:0:
220,204,27810,1,2,0:0:0:0:
420,256,27980,2,0,P|427:179|406:107,1,150.000000745057,2|8,0:0|0:0,0:0:0:0:
323,46,28489,1,0,0:0:0:0:
220,204,28658,2,0,P|189:183|167:152,1,75.0000003725287,2|0,0:0|0:0,0:0:0:0:
325,206,28998,2,0,P|318:243|298:275,1,75.0000003725287,8|2,0:0|0:0,0:0:0:0:
275,113,29337,2,0,P|307:102|351:104,1,75.0000003725287,2|0,0:0|0:0,0:0:0:0:
494,167,29676,2,0,P|458:178|421:178,1,75.0000003725287,8|0,0:0|0:0,0:0:0:0:
275,113,30015,6,0,B|256:150|258:185|258:185|225:205|205:243,1,150.000000745057,2|8,0:0|0:0,0:0:0:0:
264,327,30524,1,2,0:0:0:0:
368,327,30694,2,0,P|403:301|420:271,1,75.0000003725287,2|0,0:0|0:0,0:0:0:0:
378,142,31033,1,8,0:0:0:0:
322,231,31202,1,0,0:0:0:0:
245,84,31372,1,2,0:0:0:0:
244,83,31542,2,0,P|208:147|131:169,1,150.000000745057,2|2,0:0|0:0,0:0:0:0:
78,28,32051,2,0,P|113:39|142:64,1,75.0000003725287,2|0,0:0|0:0,0:0:0:0:
181,227,32390,2,0,P|152:202|137:169,1,75.0000003725287,2|0,0:0|0:0,0:0:0:0:
317,157,32729,6,0,P|392:175|463:132,1,150.000000745057,2|8,0:0|0:0,0:0:0:0:
378,69,33238,1,0,0:0:0:0:
224,38,33407,2,0,L|151:58,1,75.0000003725287
317,157,33747,2,0,L|243:141,1,75.0000003725287,8|0,0:0|0:0,0:0:0:0:
410,238,34086,2,0,L|338:259,1,75.0000003725287,2|0,0:0|0:0,0:0:0:0:
504,356,34425,2,0,L|431:341,1,75.0000003725287,8|0,0:0|0:0,0:0:0:0:
187,342,34764,2,0,P|256:368|325:343,1,150.000000745057,0|8,0:0|0:0,0:0:0:0:
254,264,35273,1,0,0:0:0:0:
131,149,35443,6,0,L|148:223,1,75.0000003725287,2|0,0:0|0:0,0:0:0:0:
214,85,35782,1,8,0:0:0:0:
270,190,35951,1,0,0:0:0:0:
320,48,36121,1,0,0:0:0:0:
373,155,36291,1,0,0:0:0:0:
428,16,36460,1,8,0:0:0:0:
483,122,36630,1,0,0:0:0:0:
320,48,36800,2,0,L|244:12,1,75.0000003725287,2|0,0:0|0:0,0:0:0:0:
135,49,37139,1,8,0:0:0:0:
265,122,37308,1,0,0:0:0:0:
150,159,37478,1,0,0:0:0:0:
281,229,37648,1,0,0:0:0:0:
153,273,37817,2,0,L|82:297,1,75.0000003725287,8|0,0:0|0:0,0:0:0:0:
265,121,38156,6,0,P|336:136|382:194,1,150.000000745057,2|8,0:0|0:0,0:0:0:0:
281,229,38665,1,0,0:0:0:0:
160,118,38835,2,0,P|168:80|196:42,1,75.0000003725287
281,229,39174,1,8,0:0:0:0:
320,132,39344,1,0,0:0:0:0:
335,319,39513,2,0,B|315:330|287:337|262:332|262:332|239:357|192:366,1,150.000000745057,2|8,0:0|0:0,0:0:0:0:
118,294,40022,1,0,0:0:0:0:
281,229,40192,1,0,0:0:0:0:
179,201,40361,1,0,0:0:0:0:
360,161,40531,2,0,P|378:193|384:239,1,75.0000003725287,8|0,0:0|0:0,0:0:0:0:
179,201,40870,6,0,P|135:141|64:124,1,150.000000745057,2|8,0:0|0:0,0:0:0:0:
79,228,41379,1,0,0:0:0:0:
152,301,41548,2,0,P|190:304|225:293,1,75.0000003725287
334,125,41888,1,8,0:0:0:0:
253,192,42057,1,0,0:0:0:0:
326,267,42227,2,0,P|328:308|311:354,1,75.0000003725287,8|0,0:0|0:0,0:0:0:0:
253,192,42566,1,8,0:0:0:0:
326,267,42736,1,0,0:0:0:0:
334,125,42905,2,0,P|281:91|213:96,1,75.0000003725287,8|0,0:0|0:0,0:0:0:0:
326,267,43245,1,8,0:0:0:0:
94,291,43584,6,0,B|154:269|154:269|201:215|201:215|265:185,1,192.000000953674,6|10,0:0|0:0,0:0:0:0:
370,149,44093,1,0,0:0:0:0:
253,60,44262,2,0,L|166:101,1,96.0000004768368,2|2,0:0|0:0,0:0:0:0:
47,65,44601,1,10,0:0:0:0:
167,101,44771,1,0,0:0:0:0:
73,222,44941,6,0,P|91:272|121:303,1,96.0000004768368,6|0,0:0|0:0,0:0:0:0:
197,203,45280,1,10,0:0:0:0:
272,346,45449,1,0,0:0:0:0:
352,203,45619,2,0,B|352:178|352:178|364:139|364:139|364:108,1,96.0000004768368,2|2,0:0|0:0,0:0:0:0:
243,17,45958,1,10,0:0:0:0:
243,141,46128,1,0,0:0:0:0:
46,120,46297,6,0,B|78:109|78:109|114:109|114:109|139:105,1,96.0000004768368,6|0,0:0|0:0,0:0:0:0:
243,141,46637,1,10,0:0:0:0:
129,192,46806,1,0,0:0:0:0:
230,222,46976,1,2,0:0:0:0:
119,279,47146,1,2,0:0:0:0:
243,141,47315,2,0,L|354:141,1,96.0000004768368,10|0,0:0|0:0,0:0:0:0:
464,272,47654,5,6,0:0:0:0:
412,179,47824,1,0,0:0:0:0:
362,293,47994,1,10,0:0:0:0:
493,195,48163,1,0,0:0:0:0:
339,141,48333,1,2,0:0:0:0:
493,85,48502,1,2,0:0:0:0:
339,31,48672,2,0,P|284:22|230:32,1,96.0000004768368,10|0,0:0|0:0,0:0:0:0:
120,149,49011,6,0,P|167:157|214:149,2,96.0000004768368,6|0|10,0:0|0:0|0:0,0:0:0:0:
167,34,49520,1,0,0:0:0:0:
214,148,49690,2,0,L|266:274,1,96.0000004768368,2|2,0:0|0:0,0:0:0:0:
368,278,50029,1,10,0:0:0:0:
251,337,50198,1,0,0:0:0:0:
404,159,50368,6,0,L|364:62,1,96.0000004768368,6|0,0:0|0:0,0:0:0:0:
214,148,50707,1,10,0:0:0:0:
322,208,50877,1,0,0:0:0:0:
119,229,51046,2,0,B|144:241|144:241|173:270|173:270|196:283,1,96.0000004768368,2|2,0:0|0:0,0:0:0:0:
319,306,51386,1,10,0:0:0:0:
196,283,51555,1,0,0:0:0:0:
423,238,51725,6,0,P|419:193|398:145,1,96.0000004768368,6|0,0:0|0:0,0:0:0:0:
277,66,52065,1,10,0:0:0:0:
420,61,52234,1,0,0:0:0:0:
308,149,52404,1,2,0:0:0:0:
348,13,52573,1,2,0:0:0:0:
399,146,52743,2,0,P|420:188|454:222,1,96.0000004768368,10|0,0:0|0:0,0:0:0:0:
287,270,53082,5,6,0:0:0:0:
308,149,53251,1,0,0:0:0:0:
380,284,53421,1,10,0:0:0:0:
239,199,53591,1,0,0:0:0:0:
368,100,53760,1,2,0:0:0:0:
380,284,53930,2,0,P|423:317|480:322,2,96.0000004768368,2|10|0,0:0|0:0|0:0,0:0:0:0:
200,88,54439,6,0,P|122:133|110:233,1,192.000000953674,6|2,0:0|0:0,0:0:0:0:
299,333,54947,2,0,P|221:288|209:188,1,192.000000953674,6|2,0:0|0:0,0:0:0:0:
401,85,55456,2,0,P|322:133|310:225,1,192.000000953674,6|2,0:0|0:0,0:0:0:0:
401,85,55965,5,0,0:0:0:0:
199,87,56135,2,0,P|158:64|128:27,1,96.0000004768368,10|0,0:0|0:0,0:0:0:0:
205,191,56474,2,0,P|204:239|222:284,1,96.0000004768368,2|2,0:0|0:0,0:0:0:0:
295,133,56813,2,0,P|336:108|383:100,1,96.0000004768368,10|0,0:0|0:0,0:0:0:0:
221,283,57152,6,0,P|147:224|128:132,1,192.000000953674,6|2,0:0|0:0,0:0:0:0:
267,24,57661,2,0,P|217:104|128:132,1,192.000000953674,6|2,0:0|0:0,0:0:0:0:
388,152,58170,2,0,P|351:65|267:24,1,192.000000953674,6|2,0:0|0:0,0:0:0:0:
253,193,58679,5,0,0:0:0:0:
388,152,58848,1,10,0:0:0:0:
270,112,59018,1,0,0:0:0:0:
392,234,59188,1,2,0:0:0:0:
224,275,59357,1,2,0:0:0:0:
433,319,59527,2,0,B|419:272|419:272|391:233,1,96.0000004768368,10|0,0:0|0:0,0:0:0:0:
136,313,59866,6,0,P|167:348|211:367,2,96.0000004768368,6|0|10,0:0|0:0|0:0,0:0:0:0:
118,189,60375,1,0,0:0:0:0:
227,47,60544,2,0,B|360:48,1,96.0000004768368,2|2,0:0|0:0,0:0:0:0:
224,275,60884,1,10,0:0:0:0:
294,160,61053,1,0,0:0:0:0:
224,275,61223,6,0,L|336:275,1,96.0000004768368,6|0,0:0|0:0,0:0:0:0:
418,198,61562,1,10,0:0:0:0:
225,198,61732,1,0,0:0:0:0:
418,198,61901,2,0,P|410:144|384:103,1,96.0000004768368,2|2,0:0|0:0,0:0:0:0:
305,15,62240,1,10,0:0:0:0:
428,35,62410,1,0,0:0:0:0:
225,198,62580,6,0,B|247:176|247:176|270:144|270:144|304:123,1,96.0000004768368,6|0,0:0|0:0,0:0:0:0:
321,251,62919,1,10,0:0:0:0:
206,299,63089,1,0,0:0:0:0:
420,250,63258,2,0,P|405:196|354:155,1,96.0000004768368,2|2,0:0|0:0,0:0:0:0:
253,63,63597,1,10,0:0:0:0:
253,63,63767,6,0,B|235:107|253:137|266:164|256:211,1,150.000000745057
417,109,64785,5,2,0:0:0:0:
387,209,64954,2,0,P|424:213|459:203,1,75.0000003725287,2|0,0:0|0:0,0:0:0:0:
315,130,65293,6,0,P|283:183|318:289,1,150.000000745057,2|8,0:0|0:0,0:0:0:0:
387,209,65802,1,2,0:0:0:0:
315,130,65972,2,0,L|258:62,1,75.0000003725287,2|0,0:0|0:0,0:0:0:0:
97,61,66311,1,8,0:0:0:0:
177,129,66481,1,0,0:0:0:0:
33,225,66650,1,2,0:0:0:0:
33,225,66820,2,0,P|59:292|127:318,1,150.000000745057,2|2,0:0|0:0,0:0:0:0:
295,303,67329,2,0,L|225:278,1,75.0000003725287,2|0,0:0|0:0,0:0:0:0:
389,263,67668,1,8,0:0:0:0:
378,368,67837,1,0,0:0:0:0:
483,214,68007,6,0,B|439:154|439:154|400:160|366:137,1,150.000000745057,2|8,0:0|0:0,0:0:0:0:
424,49,68516,1,2,0:0:0:0:
301,201,68686,2,0,P|263:202|227:194,1,75.0000003725287,2|0,0:0|0:0,0:0:0:0:
141,132,69025,1,8,0:0:0:0:
125,236,69194,1,0,0:0:0:0:
301,79,69364,2,0,B|279:64|249:61|227:71|227:71|204:41|157:27,1,150.000000745057,2|8,0:0|0:0,0:0:0:0:
141,132,69873,1,2,0:0:0:0:
227,193,70042,2,0,P|216:229|192:258,1,75.0000003725287,2|0,0:0|0:0,0:0:0:0:
26,282,70382,1,8,0:0:0:0:
99,207,70551,1,0,0:0:0:0:
175,336,70721,6,0,P|243:360|309:328,1,150.000000745057,2|8,0:0|0:0,0:0:0:0:
382,205,71230,1,2,0:0:0:0:
192,258,71399,2,0,P|236:317|309:328,1,150.000000745057,2|8,0:0|0:0,0:0:0:0:
290,224,71908,1,0,0:0:0:0:
132,216,72078,2,0,P|157:244|192:258,1,75.0000003725287,2|0,0:0|0:0,0:0:0:0:
277,120,72417,2,0,P|241:129|213:155,1,75.0000003725287,8|2,0:0|0:0,0:0:0:0:
359,184,72756,2,0,P|376:150|379:113,1,75.0000003725287,2|0,0:0|0:0,0:0:0:0:
277,120,73095,1,8,0:0:0:0:
359,184,73265,1,0,0:0:0:0:
312,23,73435,6,0,P|239:25|177:93,1,150.000000745057,2|8,0:0|0:0,0:0:0:0:
204,178,73943,1,2,0:0:0:0:
225,281,74113,2,0,L|167:329,1,75.0000003725287,2|0,0:0|0:0,0:0:0:0:
65,355,74452,1,8,0:0:0:0:
167,329,74622,1,0,0:0:0:0:
35,254,74791,2,0,P|29:212|49:161,1,75.0000003725287,2|0,0:0|0:0,0:0:0:0:
121,118,75131,1,8,0:0:0:0:
138,221,75300,1,2,0:0:0:0:
225,109,75470,2,0,P|212:66|176:30,1,75.0000003725287,2|0,0:0|0:0,0:0:0:0:
137,220,75809,2,0,P|164:253|206:270,1,75.0000003725287,8|0,0:0|0:0,0:0:0:0:
379,134,76148,6,0,P|315:153|273:225,1,150.000000745057,2|8,0:0|0:0,0:0:0:0:
377,239,76657,1,0,0:0:0:0:
477,91,76827,2,0,L|451:3,1,75.0000003725287
305,118,77166,2,0,L|398:138,1,75.0000003725287,8|0,0:0|0:0,0:0:0:0:
201,237,77505,2,0,L|276:221,1,75.0000003725287,2|0,0:0|0:0,0:0:0:0:
426,314,77844,2,0,L|342:296,1,75.0000003725287,8|0,0:0|0:0,0:0:0:0:
201,237,78183,2,0,B|163:251|145:282|145:282|97:263|56:264,1,150.000000745057,0|8,0:0|0:0,0:0:0:0:
28,168,78692,1,0,0:0:0:0:
201,237,78862,6,0,L|277:268,1,75.0000003725287,2|0,0:0|0:0,0:0:0:0:
400,196,79201,1,8,0:0:0:0:
279,161,79371,1,0,0:0:0:0:
414,116,79540,1,0,0:0:0:0:
293,80,79710,1,0,0:0:0:0:
429,35,79880,1,8,0:0:0:0:
309,0,80049,1,0,0:0:0:0:
279,161,80219,2,0,P|252:187|218:203,1,75.0000003725287,2|0,0:0|0:0,0:0:0:0:
145,107,80558,1,8,0:0:0:0:
90,239,80728,1,0,0:0:0:0:
90,161,80897,1,0,0:0:0:0:
145,294,81067,1,0,0:0:0:0:
279,161,81236,2,0,P|316:152|352:161,1,75.0000003725287,8|0,0:0|0:0,0:0:0:0:
428,342,81576,6,0,P|397:276|438:201,1,150.000000745057,2|8,0:0|0:0,0:0:0:0:
506,140,82084,1,0,0:0:0:0:
401,101,82254,1,0,0:0:0:0:
427,209,82424,1,0,0:0:0:0:
474,60,82593,2,0,L|407:11,1,75.0000003725287,8|0,0:0|0:0,0:0:0:0:
353,172,82932,2,0,P|280:200|202:165,1,150.000000745057,2|8,0:0|0:0,0:0:0:0:
196,73,83441,1,0,0:0:0:0:
128,153,83611,2,0,L|144:236,1,75.0000003725287
247,349,83950,2,0,L|235:276,1,75.0000003725287,8|0,0:0|0:0,0:0:0:0:
127,152,84289,6,0,B|94:220|94:220|60:220|26:246,1,150.000000745057,2|8,0:0|0:0,0:0:0:0:
95,324,84798,1,0,0:0:0:0:
235,276,84968,2,0,P|259:258|283:205,1,75.0000003725287
217,62,85307,1,8,0:0:0:0:
303,121,85477,1,0,0:0:0:0:
191,165,85646,1,8,0:0:0:0:
280,219,85816,1,0,0:0:0:0:
117,202,85985,2,0,P|109:159|131:106,1,75.0000003725287,8|0,0:0|0:0,0:0:0:0:
235,276,86325,2,0,P|191:321|162:333,1,75.0000003725287,8|0,0:0|0:0,0:0:0:0:
38,215,86664,1,8,0:0:0:0:
303,121,87003,6,0,B|364:166|364:166|381:215|381:215|429:256,1,192.000000953674,6|10,0:0|0:0,0:0:0:0:
501,359,87512,1,0,0:0:0:0:
349,294,87681,2,0,B|314:265|314:265|289:202,1,96.0000004768368,2|2,0:0|0:0,0:0:0:0:
233,17,88021,1,10,0:0:0:0:
303,121,88190,1,0,0:0:0:0:
117,71,88360,6,0,B|71:51|71:51|28:0,2,96.0000004768368,6|0|10,0:0|0:0|0:0,0:0:0:0:
233,17,88869,1,0,0:0:0:0:
238,228,89038,2,0,B|222:250|222:250|190:269|190:269|168:292,1,96.0000004768368,2|2,0:0|0:0,0:0:0:0:
303,121,89378,1,10,0:0:0:0:
342,239,89547,1,0,0:0:0:0:
180,93,89717,6,0,P|198:49|232:16,1,96.0000004768368,6|0,2:0|2:0,2:0:0:0:
416,69,90056,1,10,0:0:0:0:
303,121,90226,1,0,0:0:0:0:
453,181,90395,1,2,0:0:0:0:
342,239,90565,1,2,0:0:0:0:
401,377,90734,2,0,B|437:344|437:344|450:299,1,96.0000004768368,10|0,0:0|0:0,0:0:0:0:
365,77,91074,5,6,0:0:0:0:
303,217,91243,1,0,0:0:0:0:
453,181,91413,1,10,0:0:0:0:
338,66,91582,1,0,0:0:0:0:
309,248,91752,1,2,0:0:0:0:
472,159,91922,1,2,0:0:0:0:
304,63,92091,1,10,0:0:0:0:
327,282,92261,1,0,0:0:0:0:
304,63,92430,6,0,L|220:14,2,96.0000004768368,6|0|10,0:0|0:0|0:0,0:0:0:0:
367,170,92939,1,0,0:0:0:0:
199,129,93109,2,0,B|155:107|155:107|113:64,1,96.0000004768368,2|2,0:0|0:0,0:0:0:0:
304,63,93448,1,10,0:0:0:0:
367,170,93618,1,0,0:0:0:0:
456,0,93787,6,0,B|409:-2|409:-2|362:11,1,96.0000004768368,6|0,0:0|0:0,0:0:0:0:
511,82,94127,1,10,0:0:0:0:
393,123,94296,1,0,0:0:0:0:
508,239,94466,2,0,L|420:294,1,96.0000004768368,2|2,0:0|0:0,0:0:0:0:
393,123,94805,1,10,0:0:0:0:
331,220,94975,1,0,0:0:0:0:
195,115,95144,6,0,L|120:54,1,96.0000004768368,6|0,0:0|0:0,0:0:0:0:
321,97,95483,1,10,0:0:0:0:
331,220,95653,1,0,0:0:0:0:
425,86,95823,1,2,0:0:0:0:
438,209,95992,1,2,0:0:0:0:
321,97,96162,2,0,L|246:30,1,96.0000004768368,10|0,0:0|0:0,0:0:0:0:
258,267,96501,6,0,P|293:299|342:307,1,96.0000004768368,6|0,0:0|0:0,0:0:0:0:
425,86,96840,1,10,0:0:0:0:
438,209,97010,1,0,0:0:0:0:
321,97,97179,1,2,0:0:0:0:
339,307,97349,2,0,B|362:324|362:324|400:335|400:335|437:357,2,96.0000004768368,2|10|0,0:0|0:0|0:0,0:0:0:0:
165,170,97858,6,0,P|83:175|10:252,1,192.000000953674,6|2,0:0|0:0,0:0:0:0:
265,171,98367,2,0,P|213:106|108:91,1,192.000000953674,6|2,0:0|0:0,0:0:0:0:
321,252,98875,2,0,P|344:173|296:78,1,192.000000953674,6|2,0:0|0:0,0:0:0:0:
109,90,99384,5,0,0:0:0:0:
265,171,99554,2,0,B|287:128|287:128|296:81,1,96.0000004768368,10|0,0:0|0:0,0:0:0:0:
288,257,99893,2,0,B|281:303|281:303|259:347,1,96.0000004768368,2|2,0:0|0:0,0:0:0:0:
377,169,100232,2,0,B|425:165|425:165|475:181,1,96.0000004768368,10|0,0:0|0:0,0:0:0:0:
179,198,100572,6,0,B|111:128|111:128|109:29,1,192.000000953674,6|2,0:0|0:0,0:0:0:0:
179,198,101080,2,0,B|153:290|153:290|68:342,1,192.000000953674,6|2,0:0|0:0,0:0:0:0:
179,198,101589,2,0,B|273:174|273:174|359:220,1,192.000000953674,6|6,0:0|0:0,0:0:0:0:
357,83,102098,5,0,0:0:0:0:
356,219,102268,1,10,0:0:0:0:
423,151,102437,1,0,0:0:0:0:
288,151,102607,1,2,0:0:0:0:
491,219,102776,1,2,0:0:0:0:
354,354,102946,1,10,0:0:0:0:
423,286,103116,1,0,0:0:0:0:
240,286,103285,6,0,B|193:286|193:286|137:262,2,96.0000004768368,6|0|10,0:0|0:0|0:0,0:0:0:0:
212,164,103794,1,0,0:0:0:0:
48,224,103964,2,0,P|42:272|54:317,1,96.0000004768368,2|2,0:0|0:0,0:0:0:0:
125,143,104303,1,10,0:0:0:0:
147,266,104473,1,0,0:0:0:0:
216,87,104642,6,0,B|267:87|267:87|316:107,1,96.0000004768368,6|0,0:0|0:0,0:0:0:0:
496,105,104981,1,10,0:0:0:0:
418,8,105151,1,0,0:0:0:0:
418,203,105321,2,0,P|401:253|348:291,1,96.0000004768368,2|2,0:0|0:0,0:0:0:0:
180,221,105660,1,10,0:0:0:0:
297,179,105829,1,0,0:0:0:0:
177,317,105999,6,0,B|125:317|125:317|56:284,1,96.0000004768368,6|0,0:0|0:0,0:0:0:0:
179,125,106338,2,0,L|180:221,1,96.0000004768368,10|0,0:0|0:0,0:0:0:0:
388,158,106677,2,0,B|339:158|339:158|297:179,1,96.0000004768368,2|2,0:0|0:0,0:0:0:0:
467,255,107017,1,10,0:0:0:0:
296,179,107186,6,0,P|308:106|396:63,1,150.000000745057,2|2,0:0|0:0,0:0:0:0:
461,91,107695,1,10,0:0:0:0:
388,158,107865,1,2,0:0:0:0:
500,168,108034,1,2,0:0:0:0:
388,158,108204,1,2,0:0:0:0:
472,252,108373,1,10,0:0:0:0:
388,158,108543,1,2,0:0:0:0:
398,299,108713,6,0,P|327:322|252:294,1,150.000000745057,6|2,0:0|0:0,0:0:0:0:
186,221,109221,1,2,0:0:0:0:
262,91,109391,2,0,L|331:62,1,75.0000003725287,2|2,0:0|0:0,0:0:0:0:
492,85,109730,2,0,L|423:114,1,75.0000003725287,2|2,0:0|0:0,0:0:0:0:
314,238,110070,6,0,L|385:212,1,75.0000003725287,2|2,0:0|0:0,0:0:0:0:
422,114,110409,1,2,0:0:0:0:
192,182,110578,2,0,L|192:200,14,18.7500000931322
192,224,111257,6,0,P|213:294|278:327,1,150.000000745057,2|2,0:0|0:0,0:0:0:0:
367,155,111766,1,0,0:0:0:0:
357,259,111935,1,2,0:0:0:0:
263,137,112105,2,0,L|217:77,1,75.0000003725287,2|2,0:0|0:0,0:0:0:0:
186,209,112444,2,0,L|235:272,1,75.0000003725287,2|2,0:0|0:0,0:0:0:0:
367,155,112783,6,0,L|271:19,1,150.000000745057,2|2,0:0|0:0,0:0:0:0:
181,8,113292,1,2,0:0:0:0:
293,152,113462,2,0,P|330:161|366:154,1,75.0000003725287,2|2,0:0|0:0,0:0:0:0:
410,58,113801,1,2,0:0:0:0:
410,58,113970,1,2,0:0:0:0:
434,205,114140,6,0,L|378:261,1,75.0000003725287,2|2,0:0|0:0,0:0:0:0:
225,231,114479,2,0,L|279:285,1,75.0000003725287,10|2,0:0|0:0,0:0:0:0:
366,154,114819,2,0,L|310:209,1,75.0000003725287,2|0,0:0|0:0,0:0:0:0:
166,101,115158,2,0,L|220:154,1,75.0000003725287,10|0,0:0|0:0,0:0:0:0:
279,285,115497,6,0,L|203:285,1,75.0000003725287,2|2,0:0|0:0,0:0:0:0:
55,209,115836,2,0,L|130:209,1,75.0000003725287,10|0,0:0|0:0,0:0:0:0:
295,154,116175,2,0,L|220:154,1,75.0000003725287,2|2,0:0|0:0,0:0:0:0:
53,100,116515,2,0,L|129:100,1,75.0000003725287,10|0,0:0|0:0,0:0:0:0:
271,207,116854,6,0,L|219:154,1,75.0000003725287,2|2,0:0|0:0,0:0:0:0:
322,299,117193,2,0,L|398:299,1,75.0000003725287,10|0,0:0|0:0,0:0:0:0:
217,299,117532,2,0,L|163:352,1,75.0000003725287,2|2,0:0|0:0,0:0:0:0:
271,207,117871,2,0,L|346:207,1,75.0000003725287,10|0,0:0|0:0,0:0:0:0:
397,299,118211,5,2,0:0:0:0:
471,224,118380,1,2,0:0:0:0:
471,119,118550,1,10,0:0:0:0:
396,44,118719,1,0,0:0:0:0:
290,44,118889,1,2,0:0:0:0:
216,117,119059,1,2,0:0:0:0:
216,221,119228,2,0,L|216:302,1,75.0000003725287,10|0,0:0|0:0,0:0:0:0:
216,117,119567,6,0,L|64:117,1,150.000000745057,2|8,0:0|0:0,0:0:0:0:
115,209,120076,1,2,0:0:0:0:
264,203,120246,2,0,L|327:139,1,75.0000003725287,2|2,0:0|0:0,0:0:0:0:
474,87,120585,2,0,L|422:141,1,75.0000003725287,8|2,0:0|0:0,0:0:0:0:
192,137,120924,6,0,L|300:29,1,150.000000745057,2|8,0:0|0:0,0:0:0:0:
421,141,121433,1,2,0:0:0:0:
192,137,121603,1,2,0:0:0:0:
421,141,121942,1,8,0:0:0:0:
192,137,122112,1,2,0:0:0:0:
421,141,122281,6,0,L|306:256,1,150.000000745057,2|8,0:0|0:0,0:0:0:0:
236,317,122790,1,2,0:0:0:0:
192,137,122960,2,0,L|269:59,1,75.0000003725287,2|2,0:0|0:0,0:0:0:0:
87,18,123299,2,0,L|140:72,1,75.0000003725287,8|2,0:0|0:0,0:0:0:0:
331,110,123638,6,0,L|278:163,1,75.0000003725287,2|2,0:0|0:0,0:0:0:0:
236,316,123977,2,0,L|289:263,1,75.0000003725287,8|2,0:0|0:0,0:0:0:0:
446,206,124316,2,0,L|394:260,1,75.0000003725287,2|2,0:0|0:0,0:0:0:0:
236,316,124656,1,8,0:0:0:0:
328,364,124825,1,2,0:0:0:0:
331,110,124995,6,0,L|206:233,1,150.000000745057,2|8,0:0|0:0,0:0:0:0:
121,193,125504,1,2,0:0:0:0:
236,316,125673,2,0,L|289:262,1,75.0000003725287,2|2,0:0|0:0,0:0:0:0:
395,156,126013,2,0,L|447:102,1,75.0000003725287,8|2,0:0|0:0,0:0:0:0:
172,269,126352,6,0,L|224:215,1,75.0000003725287,2|2,0:0|0:0,0:0:0:0:
331,110,126691,2,0,L|383:56,1,75.0000003725287,8|2,0:0|0:0,0:0:0:0:
172,269,127030,1,2,0:0:0:0:
386,241,127369,2,0,L|438:294,1,75.0000003725287,8|2,0:0|0:0,0:0:0:0:
172,269,127709,6,0,L|65:162,1,150.000000745057,2|8,0:0|0:0,0:0:0:0:
217,96,128217,1,2,0:0:0:0:
159,154,128387,1,2,0:0:0:0:
315,104,128557,1,2,0:0:0:0:
257,162,128726,1,8,0:0:0:0:
413,112,128896,1,2,0:0:0:0:
355,170,129065,1,2,0:0:0:0:
510,119,129235,1,2,0:0:0:0:
452,177,129405,1,8,0:0:0:0:
254,21,129744,1,2,0:0:0:0:
254,195,130422,5,6,0:0:0:0:
256,192,131779,1,2,0:0:0:0:
256,192,133136,1,2,0:0:0:0:
256,4,134493,6,0,L|256:100,1,90.0000038802622,8|8,0:0|0:0,0:0:0:0:
256,94,135002,1,2,0:0:0:0:
256,192,135341,1,2,0:0:0:0:
256,192,135510,2,0,L|256:237,1,45.0000019401311,8|0,0:0|0:0,0:0:0:0:
304,318,135850,6,0,P|350:330|395:315,1,90.0000038802622,8|2,0:0|0:0,0:0:0:0:
348,232,136359,1,8,0:0:0:0:
348,232,136528,2,0,P|336:185|357:131,1,90.0000038802622,8|2,0:0|0:0,0:0:0:0:
400,63,137037,1,8,0:0:0:0:
400,63,137207,6,0,P|358:48|309:56,1,90.0000038802622,8|2,0:0|0:0,0:0:0:0:
233,112,137715,1,8,0:0:0:0:
233,112,137885,2,0,P|189:122|142:107,1,90.0000038802622,8|2,0:0|0:0,0:0:0:0:
156,208,138394,1,8,0:0:0:0:
156,208,138563,6,0,P|166:253|150:295,1,90.0000038802622,8|2,0:0|0:0,0:0:0:0:
256,192,139072,1,8,0:0:0:0:
256,192,139242,1,8,0:0:0:0:
256,192,139411,12,0,140599,0:0:0:0:
468,188,141277,6,0,B|422:210|422:210|398:243|398:243|344:256|344:256|260:324,1,192.000000953674,6|10,0:0|0:0,0:0:0:0:
186,308,141786,1,0,0:0:0:0:
230,120,141956,2,0,B|252:26,1,96.0000004768368,2|2,0:0|0:0,0:0:0:0:
247,243,142295,1,10,0:0:0:0:
320,142,142464,1,0,0:0:0:0:
349,314,142634,6,0,P|387:347|469:355,1,96.0000004768368,6|0,0:0|0:0,0:0:0:0:
444,235,142973,1,10,0:0:0:0:
349,314,143143,1,0,0:0:0:0:
320,142,143312,2,0,B|271:149|271:149|229:182,1,96.0000004768368,2|2,0:0|0:0,0:0:0:0:
349,314,143652,1,10,0:0:0:0:
169,274,143821,1,0,0:0:0:0:
329,218,143991,5,6,0:0:0:0:
207,359,144160,1,0,0:0:0:0:
329,218,144330,2,0,B|380:195|380:195|459:195,1,96.0000004768368,10|0,0:0|0:0,0:0:0:0:
460,353,144669,1,2,0:0:0:0:
420,195,144839,1,2,0:0:0:0:
349,314,145008,2,0,B|301:314|301:314|258:290,1,96.0000004768368,10|0,0:0|0:0,0:0:0:0:
135,188,145348,5,6,0:0:0:0:
282,118,145517,1,0,0:0:0:0:
99,112,145687,1,10,0:0:0:0:
247,43,145856,1,0,0:0:0:0:
135,188,146026,1,2,0:0:0:0:
317,192,146196,1,2,0:0:0:0:
208,153,146365,1,10,0:0:0:0:
391,158,146535,1,0,0:0:0:0:
222,267,146705,6,0,L|126:267,1,96.0000004768368,6|0,0:0|0:0,0:0:0:0:
317,192,147044,1,10,0:0:0:0:
222,267,147213,1,0,0:0:0:0:
107,113,147383,2,0,L|48:36,1,96.0000004768368,2|2,0:0|0:0,0:0:0:0:
332,51,147722,1,10,0:0:0:0:
231,125,147892,1,0,0:0:0:0:
398,265,148061,6,0,B|366:257|366:257|334:257|334:257|304:249,1,96.0000004768368,6|0,0:0|0:0,0:0:0:0:
109,228,148401,1,10,0:0:0:0:
198,316,148570,1,0,0:0:0:0:
231,125,148740,2,0,P|287:135|324:159,1,96.0000004768368,2|2,0:0|0:0,0:0:0:0:
109,228,149079,2,0,P|76:197|57:148,1,96.0000004768368,10|0,0:0|0:0,0:0:0:0:
253,34,149418,6,0,B|253:80|253:80|231:125,1,96.0000004768368,6|0,0:0|0:0,0:0:0:0:
109,228,149757,1,10,0:0:0:0:
284,226,149927,1,0,0:0:0:0:
57,150,150097,1,2,0:0:0:0:
231,125,150266,1,2,0:0:0:0:
149,299,150436,2,0,B|101:318|101:318|42:318,1,96.0000004768368,10|0,0:0|0:0,0:0:0:0:
284,226,150775,6,0,B|301:273|301:273|301:319,1,96.0000004768368,6|0,0:0|0:0,0:0:0:0:
169,176,151114,1,10,0:0:0:0:
149,299,151284,1,0,0:0:0:0:
57,150,151454,1,2,0:0:0:0:
56,318,151623,1,2,0:0:0:0:
57,150,151793,2,0,B|90:111|90:111|137:91,1,96.0000004768368,10|0,0:0|0:0,0:0:0:0:
369,318,152132,6,0,P|292:371|200:356,1,192.000000953674,6|2,0:0|0:0,0:0:0:0:
276,118,152641,2,0,P|360:157|393:244,1,192.000000953674,6|2,0:0|0:0,0:0:0:0:
149,299,153150,2,0,P|140:205|200:133,1,192.000000953674,6|2,0:0|0:0,0:0:0:0:
333,112,153658,5,0,0:0:0:0:
393,244,153828,2,0,B|360:284|360:284|308:310,1,96.0000004768368,10|0,0:0|0:0,0:0:0:0:
200,133,154167,2,0,B|245:150|245:150|279:184,1,96.0000004768368,2|2,0:0|0:0,0:0:0:0:
162,341,154506,2,0,B|157:296|157:296|172:248,1,96.0000004768368,10|0,0:0|0:0,0:0:0:0:
378,38,154846,6,0,P|354:129|277:184,1,192.000000953674,6|2,0:0|0:0,0:0:0:0:
69,45,155354,2,0,P|158:18|244:55,1,192.000000953674,6|2,0:0|0:0,0:0:0:0:
228,307,155863,2,0,P|159:242|148:150,1,192.000000953674,6|2,0:0|0:0,0:0:0:0:
245,56,156372,5,0,0:0:0:0:
333,269,156542,1,10,0:0:0:0:
333,144,156711,1,0,0:0:0:0:
245,356,156881,1,2,0:0:0:0:
156,142,157051,1,2,0:0:0:0:
156,267,157220,1,10,0:0:0:0:
245,56,157390,1,0,0:0:0:0:
100,210,157559,5,6,0:0:0:0:
246,139,157729,1,0,0:0:0:0:
156,267,157899,1,10,0:0:0:0:
331,151,158068,1,0,0:0:0:0:
237,284,158238,1,2,0:0:0:0:
414,170,158407,1,2,0:0:0:0:
316,301,158577,1,10,0:0:0:0:
499,194,158747,1,0,0:0:0:0:
290,219,158916,5,6,0:0:0:0:
475,117,159086,1,0,0:0:0:0:
266,142,159255,1,10,0:0:0:0:
451,39,159425,1,0,0:0:0:0:
240,64,159595,1,2,0:0:0:0:
451,39,159764,1,2,0:0:0:0:
266,142,159934,1,10,0:0:0:0:
475,117,160103,1,0,0:0:0:0:
262,277,160273,5,0,0:0:0:0:
223,270,160358,1,0,0:0:0:0:
195,243,160443,1,0,0:0:0:0:
185,207,160527,1,0,0:0:0:0:
198,170,160612,1,0,0:0:0:0:
229,147,160697,1,0,0:0:0:0:
266,142,160782,1,0,0:0:0:0:
299,123,160867,1,0,0:0:0:0:
310,87,160951,1,0,0:0:0:0:
297,52,161036,1,0,0:0:0:0:
261,36,161121,1,0,0:0:0:0:
224,48,161206,1,0,0:0:0:0:
209,84,161291,5,8,0:0:0:0:
358,277,161630,6,0,L|262:277,1,96.0000004768368,6|0,0:0|0:0,0:0:0:0:
52,203,161969,2,0,L|148:203,1,96.0000004768368,10|0,0:0|0:0,0:0:0:0:
355,127,162308,2,0,L|259:127,1,96.0000004768368,2|2,0:0|0:0,0:0:0:0:
461,208,162648,2,0,B|481:164|481:164|481:116,1,96.0000004768368,10|0,0:0|0:0,0:0:0:0:
287,31,162987,6,0,B|263:32|263:32|215:47|215:47|182:48,2,96.0000004768368,6|0|10,0:0|0:0|0:0,0:0:0:0:
355,127,163496,1,0,0:0:0:0:
184,193,163665,2,0,B|133:193|133:193|69:168,1,96.0000004768368,2|2,0:0|0:0,0:0:0:0:
115,5,164004,1,10,0:0:0:0:
192,103,164174,1,0,0:0:0:0:
355,127,164344,6,0,B|355:74|355:74|376:36,1,96.0000004768368,6|0,0:0|0:0,0:0:0:0:
452,205,164683,1,10,0:0:0:0:
452,79,164852,1,0,0:0:0:0:
345,268,165022,2,0,P|298:280|241:259,1,96.0000004768368,2|2,0:0|0:0,0:0:0:0:
173,121,165361,1,10,0:0:0:0:
102,223,165531,1,0,0:0:0:0:
296,63,165700,6,0,B|344:62|344:62|388:81,1,96.0000004768368,6|0,0:0|0:0,0:0:0:0:
438,252,166040,2,0,B|391:268|391:268|337:268,1,96.0000004768368,10|0,0:0|0:0,0:0:0:0:
102,223,166379,2,0,B|147:203|147:203|200:203,1,96.0000004768368,2|2,0:0|0:0,0:0:0:0:
344,268,166718,1,10,0:0:0:0:
193,203,166888,6,0,P|244:133|321:103,1,150.000000745057
