osu file format v14

[General]
AudioFilename: Nightcore (Cady Groves)-This Little Girl www.mp3c.cc .mp3
AudioLeadIn: 0
PreviewTime: 43466
Countdown: 0
SampleSet: Soft
StackLeniency: 0.8
Mode: 0
LetterboxInBreaks: 0
WidescreenStoryboard: 0

[Editor]
DistanceSpacing: 1.3
BeatDivisor: 4
GridSize: 32
TimelineZoom: 1

[Metadata]
Title:This Little Girl (Speed Up Ver.)
TitleUnicode:This Little Girl (Speed Up Ver.)
Artist:Cady Groves
ArtistUnicode:Cady Groves
Creator:agusch
Version:Hard
Source:
Tags:NightcoreReality RCA Records
BeatmapID:712667
BeatmapSetID:307131

[Difficulty]
HPDrainRate:5
CircleSize:3.4
OverallDifficulty:6
ApproachRate:8
SliderMultiplier:1
SliderTickRate:1

[Events]
//Background and Video events
0,0,"anime-girls-carrying-guns-anime-hd-wallpaper-2560x1440-8483.jpg",0,0
//Break Periods
2,16647,20446
2,108913,118478
2,130622,133743
//Storyboard Layer 0 (Background)
//Storyboard Layer 1 (Fail)
//Storyboard Layer 2 (Pass)
//Storyboard Layer 3 (Foreground)
//Storyboard Sound Samples

[TimingPoints]
165,339.21302578019,4,2,3,50,1,0
165,-125,4,2,3,50,0,0
504,-125,4,2,4,50,0,0
589,-125,4,2,3,50,0,0
1182,-125,4,2,4,50,0,0
1267,-125,4,2,3,50,0,0
1861,-125,4,2,4,50,0,0
1945,-125,4,2,3,50,0,0
3217,-125,4,2,4,50,0,0
3302,-125,4,2,3,50,0,0
3896,-125,4,2,4,50,0,0
3981,-125,4,2,3,50,0,0
4574,-125,4,2,4,50,0,0
4659,-125,4,2,3,50,0,0
21196,-80,4,2,1,70,0,0
32729,-80,4,3,1,80,0,0
41888,-80,4,2,1,80,0,0
43584,-66.6666666666667,4,2,1,100,0,1
47654,-62.5,4,2,2,100,0,1
49011,-62.5,4,2,1,100,0,1
58509,-62.5,4,2,2,100,0,1
59866,-62.5,4,2,1,100,0,1
63767,-80,4,2,1,70,0,0
76148,-80,4,3,1,80,0,0
85307,-80,4,2,1,80,0,0
87003,-62.5,4,2,1,100,0,1
91074,-62.5,4,2,2,100,0,1
92430,-62.5,4,2,1,100,0,1
101928,-62.5,4,2,2,100,0,1
103285,-62.5,4,2,1,100,0,1
107186,-80,4,2,1,70,0,0
130422,-100,4,2,0,35,0,0
141277,-62.5,4,2,1,100,0,1
145348,-62.5,4,2,2,100,0,1
146705,-62.5,4,2,1,100,0,1
156202,-62.5,4,2,2,100,0,1
157559,-62.5,4,2,1,100,0,1
160273,-62.5,4,1,1,50,0,0
161630,-62.5,4,2,1,100,0,1
166888,-80,4,2,1,70,0,0

[Colours]
Combo1 : 12,1,148
Combo2 : 192,192,192
Combo3 : 170,4,17
Combo4 : 70,1,163

[HitObjects]
425,190,165,6,0,P|386:183|347:188,1,80,8|0,0:0|0:0,0:0:0:0:
295,62,843,2,0,P|256:69|217:61,1,80,8|0,0:0|0:0,0:0:0:0:
177,191,1521,2,0,P|137:183|98:188,1,80,8|0,0:0|0:0,0:0:0:0:
254,198,2200,1,8,0:0:0:0:
254,234,2539,1,2,0:0:0:0:
254,262,2878,6,0,P|293:252|339:265,1,80,8|0,0:0|0:0,0:0:0:0:
451,366,3557,2,0,P|442:327|449:288,1,80,8|0,0:0|0:0,0:0:0:0:
501,137,4235,2,0,P|510:176|503:215,1,80,8|0,0:0|0:0,0:0:0:0:
348,173,4913,1,8,0:0:0:0:
285,223,5083,1,0,0:0:0:0:
285,223,5253,2,0,L|237:257,1,40,2|0,0:0|0:0,0:0:0:0:
190,194,5592,6,0,L|274:130,1,80,8|0,0:0|0:0,0:0:0:0:
376,42,6270,1,0,0:0:0:0:
433,97,6440,1,0,0:0:0:0:
433,97,6610,2,0,L|487:143,1,40,2|0,0:0|0:0,0:0:0:0:
447,201,6949,2,0,P|438:246|465:302,1,80,8|0,0:0|0:0,0:0:0:0:
323,176,7627,1,0,0:0:0:0:
263,122,7797,1,0,0:0:0:0:
263,122,7966,2,0,L|217:85,1,40,2|0,0:0|0:0,0:0:0:0:
191,167,8306,6,0,L|267:232,1,80,8|0,0:0|0:0,0:0:0:0:
376,319,8984,1,0,0:0:0:0:
376,238,9154,1,0,0:0:0:0:
376,238,9323,2,0,L|376:187,1,40,2|0,0:0|0:0,0:0:0:0:
330,131,9662,2,0,P|289:138|232:117,1,80,8|0,0:0|0:0,0:0:0:0:
252,129,10341,1,0,0:0:0:0:
255,288,10680,2,0,L|255:341,1,40,2|0,0:0|0:0,0:0:0:0:
332,307,11019,6,0,P|376:297|426:320,1,80,8|0,0:0|0:0,0:0:0:0:
483,336,11528,1,0,0:0:0:0:
471,256,11698,2,0,P|462:215|473:177,1,80,0|2,0:0|0:0,0:0:0:0:
422,115,12207,1,0,0:0:0:0:
372,177,12376,2,0,L|345:212,1,40,8|0,0:0|0:0,0:0:0:0:
280,165,12715,2,0,L|303:132,1,40
238,85,13055,2,0,L|211:120,1,40
147,72,13394,2,0,L|170:39,1,40,2|0,0:0|0:0,0:0:0:0:
94,12,13733,6,0,L|36:97,1,80,8|0,0:0|0:0,0:0:0:0:
104,135,14242,1,0,0:0:0:0:
138,206,14411,2,0,P|148:246|121:308,1,80,0|2,0:0|0:0,0:0:0:0:
82,339,14920,1,0,0:0:0:0:
159,360,15090,2,0,L|251:360,1,80,8|0,0:0|0:0,0:0:0:0:
311,217,15768,1,0,0:0:0:0:
283,200,16108,1,2,0:0:0:0:
255,184,16447,5,8,0:0:0:0:
133,142,21196,5,2,0:0:0:0:
176,73,21365,1,0,0:0:0:0:
215,144,21535,2,0,P|234:166|265:180,1,62.5,8|0,0:0|0:0,0:0:0:0:
283,100,21874,6,0,P|337:142|336:217,1,125,2|8,0:0|0:0,0:0:0:0:
289,255,22383,1,2,0:0:0:0:
352,306,22553,2,0,L|418:361,1,62.5,2|0,0:0|0:0,0:0:0:0:
455,286,22892,2,0,L|396:236,1,62.5,8|0,0:0|0:0,0:0:0:0:
344,194,23231,5,2,0:0:0:0:
344,194,23401,2,0,B|296:155|296:155|306:125|294:92,1,125,2|2,2:0|2:0,2:0:0:0:
221,127,23909,2,0,P|193:142|160:142,1,62.5,2|0,0:0|0:0,0:0:0:0:
171,61,24249,1,8,0:0:0:0:
245,29,24418,1,0,0:0:0:0:
294,93,24588,6,0,P|345:142|410:137,1,125,2|8,0:0|0:0,0:0:0:0:
371,65,25097,1,2,0:0:0:0:
305,12,25266,2,0,L|229:33,1,62.5,2|0,0:0|0:0,0:0:0:0:
163,28,25605,2,0,L|87:7,1,62.5,8|0,0:0|0:0,0:0:0:0:
109,93,25945,6,0,P|148:151|121:225,1,125,2|8,0:0|0:0,0:0:0:0:
14,226,26454,1,2,0:0:0:0:
66,164,26623,1,2,0:0:0:0:
224,197,26962,2,0,P|253:176|275:122,1,62.5,8|0,0:0|0:0,0:0:0:0:
139,202,27302,6,0,B|140:226|149:243|163:258|163:258|124:335,1,125,2|8,0:0|0:0,0:0:0:0:
224,197,27810,1,2,0:0:0:0:
309,313,27980,2,0,B|281:258|281:258|295:243|304:226|305:202,1,125,2|8,0:0|0:0,0:0:0:0:
285,122,28489,1,0,0:0:0:0:
364,135,28658,6,0,L|433:148,1,62.5,2|0,0:0|0:0,0:0:0:0:
408,66,28998,2,0,L|477:79,1,62.5,8|2,0:0|0:0,0:0:0:0:
267,42,29337,2,0,L|205:31,1,62.5,2|0,0:0|0:0,0:0:0:0:
285,122,29676,2,0,L|215:109,1,62.5,8|0,0:0|0:0,0:0:0:0:
305,202,30015,6,0,L|177:179,1,125,2|8,0:0|0:0,0:0:0:0:
101,168,30524,1,2,0:0:0:0:
63,95,30694,2,0,P|37:116|21:161,1,62.5,2|0,0:0|0:0,0:0:0:0:
40,221,31033,1,8,0:0:0:0:
101,168,31202,1,0,0:0:0:0:
99,276,31372,5,2,0:0:0:0:
99,276,31542,2,0,P|154:312|234:292,1,125,2|2,0:0|0:0,0:0:0:0:
265,246,32051,2,0,L|283:186,1,62.5,2|0,0:0|0:0,0:0:0:0:
356,150,32390,2,0,L|374:90,1,62.5,2|0,0:0|0:0,0:0:0:0:
282,186,32729,6,0,P|332:229|410:212,1,125,2|8,0:0|0:0,0:0:0:0:
356,150,33238,1,0,0:0:0:0:
294,97,33407,2,0,P|255:70|243:49,1,62.5
206,134,33747,2,0,P|167:161|155:182,1,62.5,8|0,0:0|0:0,0:0:0:0:
131,85,34086,6,0,P|92:58|80:37,1,62.5,2|0,0:0|0:0,0:0:0:0:
47,126,34425,2,0,P|8:153|-4:174,1,62.5,8|0,0:0|0:0,0:0:0:0:
72,202,34764,2,0,B|97:224|104:254|104:254|179:268,1,125,0|8,0:0|0:0,0:0:0:0:
218,203,35273,1,0,0:0:0:0:
297,184,35443,6,0,P|328:188|363:203,1,62.5,2|0,0:0|0:0,0:0:0:0:
406,263,35782,2,0,P|425:238|439:202,1,62.5,8|0,0:0|0:0,0:0:0:0:
406,134,36121,1,0,0:0:0:0:
356,199,36291,1,0,0:0:0:0:
406,263,36460,2,0,L|445:315,1,62.5,8|0,0:0|0:0,0:0:0:0:
366,342,36800,6,0,L|316:277,2,62.5,2|0|8,0:0|0:0|0:0,0:0:0:0:
292,375,37308,2,0,L|254:325,1,62.5
204,260,37648,1,0,0:0:0:0:
152,197,37817,2,0,L|114:147,1,62.5,8|0,0:0|0:0,0:0:0:0:
185,107,38156,6,0,P|252:128|311:94,1,125,2|8,0:0|0:0,0:0:0:0:
242,48,38665,1,0,0:0:0:0:
162,27,38835,2,0,P|134:42|114:66,1,62.5
58,122,39174,2,0,P|83:139|113:146,1,62.5,8|0,0:0|0:0,0:0:0:0:
192,167,39513,6,0,P|193:136|185:107,2,62.5,2|0|8,0:0|0:0|0:0,0:0:0:0:
125,228,40022,1,0,0:0:0:0:
66,284,40192,2,0,L|-1:340,1,62.5
86,367,40531,2,0,L|146:318,1,62.5,8|0,0:0|0:0,0:0:0:0:
197,276,40870,6,0,B|215:265|238:261|257:264|257:264|301:219,1,125,2|8,0:0|0:0,0:0:0:0:
377,193,41379,1,0,0:0:0:0:
356,271,41548,2,0,L|292:337,1,62.5
376,192,41888,2,0,P|404:207|424:230,1,62.5,8|0,0:0|0:0,0:0:0:0:
313,139,42227,6,0,P|337:119|367:110,2,62.5,8|0|8,0:0|0:0|0:0,0:0:0:0:
376,192,42736,1,0,0:0:0:0:
442,145,42905,2,0,P|447:90|393:33,1,125,8|8,0:0|0:0,0:0:0:0:
235,39,43584,6,0,L|375:115,1,150.000005722046,6|10,0:0|0:0,0:0:0:0:
277,152,44093,1,0,0:0:0:0:
193,102,44262,2,0,L|115:60,1,75.0000028610231,2|2,0:0|0:0,0:0:0:0:
110,162,44601,2,0,L|176:197,1,75.0000028610231,10|0,0:0|0:0,0:0:0:0:
259,249,44941,6,0,P|321:241|373:166,1,150.000005722046,6|10,0:0|0:0,0:0:0:0:
277,152,45449,1,0,0:0:0:0:
193,102,45619,2,0,P|171:66|166:24,1,75.0000028610231,2|2,0:0|0:0,0:0:0:0:
263,33,45958,2,0,P|301:18|344:21,1,75.0000028610231,10|0,0:0|0:0,0:0:0:0:
277,152,46297,6,0,L|120:233,1,150.000005722046,6|10,0:0|0:0,0:0:0:0:
54,260,46806,1,0,0:0:0:0:
60,162,46976,2,0,L|64:53,1,75.0000028610231,2|2,0:0|0:0,0:0:0:0:
148,41,47315,2,0,L|145:115,1,75.0000028610231,10|0,0:0|0:0,0:0:0:0:
143,220,47654,6,0,P|159:261|197:299,1,80,6|0,0:0|0:0,0:0:0:0:
249,207,47994,2,0,P|282:235|334:251,1,80,10|0,0:0|0:0,0:0:0:0:
334,146,48333,1,2,0:0:0:0:
334,146,48502,1,2,0:0:0:0:
421,202,48672,2,0,P|463:211|517:201,1,80,10|0,0:0|0:0,0:0:0:0:
315,248,49011,6,0,L|223:279,2,80,6|0|10,0:0|0:0|0:0,0:0:0:0:
334,146,49520,1,0,0:0:0:0:
243,93,49690,2,0,L|160:122,1,80,2|2,0:0|0:0,0:0:0:0:
149,222,50029,1,10,0:0:0:0:
47,199,50198,1,0,0:0:0:0:
77,298,50368,6,0,L|104:373,1,80,6|0,0:0|0:0,0:0:0:0:
192,317,50707,1,10,0:0:0:0:
149,222,50876,1,0,0:0:0:0:
251,242,51046,2,0,L|326:214,1,80,2|2,0:0|0:0,0:0:0:0:
362,115,51386,1,10,0:0:0:0:
262,143,51555,1,0,0:0:0:0:
349,11,51725,6,0,P|417:26|466:115,1,160,6|10,0:0|0:0,0:0:0:0:
362,115,52234,1,0,0:0:0:0:
262,143,52403,2,0,L|183:217,1,80,2|2,0:0|0:0,0:0:0:0:
245,293,52743,2,0,L|303:238,1,80,10|0,0:0|0:0,0:0:0:0:
160,116,53082,6,0,L|19:249,1,160,6|10,0:0|0:0,0:0:0:0:
26,328,53591,1,0,0:0:0:0:
123,292,53760,2,0,P|162:293|199:308,1,80,2|2,0:0|0:0,0:0:0:0:
275,380,54099,2,0,P|299:340|301:292,1,80,10|0,0:0|0:0,0:0:0:0:
169,216,54439,6,0,P|209:149|284:130,1,160,6|2,0:0|0:0,0:0:0:0:
271,233,54947,2,0,P|358:203|387:128,1,160,6|2,0:0|0:0,0:0:0:0:
399,44,55456,2,0,P|324:63|284:130,1,160,6|2,0:0|0:0,0:0:0:0:
385,145,55965,5,0,0:0:0:0:
399,44,56135,2,0,L|332:2,1,80,10|0,0:0|0:0,0:0:0:0:
241,53,56474,2,0,L|174:11,1,80,2|2,0:0|0:0,0:0:0:0:
83,63,56813,2,0,L|16:21,1,80,10|0,0:0|0:0,0:0:0:0:
64,165,57152,6,0,L|222:265,1,160,6|2,0:0|0:0,0:0:0:0:
294,290,57661,2,0,P|250:209|275:134,1,160,6|2,0:0|0:0,0:0:0:0:
352,204,58170,2,0,L|184:255,1,160,6|2,0:0|0:0,0:0:0:0:
102,210,58679,5,0,0:0:0:0:
149,118,58848,2,0,L|186:37,1,80,10|0,0:0|0:0,0:0:0:0:
287,10,59188,2,0,L|253:82,1,80,2|2,0:0|0:0,0:0:0:0:
297,176,59527,2,0,L|334:95,1,80,10|0,0:0|0:0,0:0:0:0:
396,183,59866,6,0,P|392:266|474:330,1,160,6|10,0:0|0:0,0:0:0:0:
489,227,60375,1,0,0:0:0:0:
480,123,60544,2,0,P|449:93|411:81,1,80,2|2,0:0|0:0,0:0:0:0:
316,119,60884,2,0,P|278:105|250:77,1,80,10|0,0:0|0:0,0:0:0:0:
148,55,61223,6,0,L|182:228,1,160,6|10,0:0|0:0,0:0:0:0:
200,314,61732,1,0,0:0:0:0:
287,257,61901,2,0,L|367:200,1,80,2|2,0:0|0:0,0:0:0:0:
360,106,62240,1,10,0:0:0:0:
270,158,62410,1,0,0:0:0:0:
178,211,62580,6,0,P|87:175|65:93,1,160,6|10,0:0|0:0,0:0:0:0:
167,105,63089,1,0,0:0:0:0:
267,80,63258,2,0,L|378:54,1,80,2|2,0:0|0:0,0:0:0:0:
342,165,63597,1,10,0:0:0:0:
342,165,63767,6,0,P|324:225|361:301,1,125
230,111,64785,5,2,0:0:0:0:
230,111,64954,2,0,L|213:185,1,62.5,2|0,0:0|0:0,0:0:0:0:
234,251,65293,6,0,P|291:290|355:274,1,125,2|8,0:0|0:0,0:0:0:0:
386,212,65802,1,2,0:0:0:0:
330,153,65972,2,0,P|311:178|304:208,1,62.5,2|0,0:0|0:0,0:0:0:0:
343,281,66311,1,8,0:0:0:0:
386,212,66481,1,0,0:0:0:0:
406,331,66650,5,2,0:0:0:0:
406,331,66820,2,0,P|357:361|287:338,1,125,2|2,0:0|0:0,0:0:0:0:
249,277,67329,2,0,P|230:251|205:234,1,62.5,2|0,0:0|0:0,0:0:0:0:
131,268,67668,2,0,P|149:293|176:310,1,62.5,8|0,0:0|0:0,0:0:0:0:
288,201,68007,6,0,B|265:178|239:162|212:158|212:158|250:106,1,125,2|8,0:0|0:0,0:0:0:0:
245,48,68516,1,2,0:0:0:0:
170,80,68686,2,0,L|131:129,1,62.5,2|0,0:0|0:0,0:0:0:0:
50,122,69025,1,8,0:0:0:0:
94,54,69194,1,0,0:0:0:0:
170,80,69364,6,0,P|218:125|293:114,1,125,2|8,0:0|0:0,0:0:0:0:
323,26,69873,1,2,0:0:0:0:
245,48,70042,1,2,0:0:0:0:
407,61,70382,2,0,L|407:-1,1,62.5,8|0,0:0|0:0,0:0:0:0:
353,122,70721,6,0,B|377:141|401:147|434:138|434:138|430:193,1,125,2|8,0:0|0:0,0:0:0:0:
407,61,71230,1,2,0:0:0:0:
327,45,71399,2,0,B|298:56|281:74|273:108|273:108|227:77,1,125,2|8,0:0|0:0,0:0:0:0:
162,67,71908,1,0,0:0:0:0:
184,145,72078,6,0,L|250:190,1,62.5,2|0,0:0|0:0,0:0:0:0:
204,255,72417,2,0,L|270:300,1,62.5,8|2,0:0|0:0,0:0:0:0:
317,237,72756,2,0,L|383:282,1,62.5,2|0,0:0|0:0,0:0:0:0:
417,206,73095,2,0,L|468:241,1,62.5,8|0,0:0|0:0,0:0:0:0:
414,124,73435,6,0,L|304:46,1,125,2|8,0:0|0:0,0:0:0:0:
231,50,73943,1,2,0:0:0:0:
270,121,74113,2,0,L|338:171,1,62.5,2|0,0:0|0:0,0:0:0:0:
370,221,74452,1,8,0:0:0:0:
319,284,74622,1,0,0:0:0:0:
380,337,74791,6,0,L|448:387,1,62.5,2|0,0:0|0:0,0:0:0:0:
470,302,75131,1,8,0:0:0:0:
451,223,75300,1,2,0:0:0:0:
380,337,75470,2,0,P|355:356|325:364,1,62.5,2|0,0:0|0:0,0:0:0:0:
263,311,75809,2,0,P|287:291|317:283,1,62.5,8|0,0:0|0:0,0:0:0:0:
451,223,76148,6,0,P|424:139|376:113,1,125,2|8,0:0|0:0,0:0:0:0:
321,149,76657,1,0,0:0:0:0:
248,185,76827,2,0,P|196:174|176:158,1,62.5
132,227,77166,2,0,P|148:277|144:302,1,62.5,8|0,0:0|0:0,0:0:0:0:
225,311,77505,6,0,P|260:271|284:262,1,62.5,2|0,0:0|0:0,0:0:0:0:
343,295,77844,2,0,P|326:321|300:338,1,62.5,8|0,0:0|0:0,0:0:0:0:
267,267,78183,2,0,B|281:234|309:215|341:214|341:214|358:174,1,125,0|8,0:0|0:0,0:0:0:0:
400,122,78692,1,0,0:0:0:0:
432,196,78862,6,0,L|409:254,2,62.5,2|0|8,0:0|0:0|0:0,0:0:0:0:
501,152,79371,1,0,0:0:0:0:
503,232,79540,2,0,L|474:307,1,62.5
410,333,79880,2,0,P|378:326|348:303,1,62.5,8|0,0:0|0:0,0:0:0:0:
331,231,80219,6,0,P|300:207|272:200,2,62.5,2|0|8,0:0|0:0|0:0,0:0:0:0:
265,279,80728,2,0,P|234:272|208:255,1,62.5
200,174,81067,1,0,0:0:0:0:
135,223,81236,2,0,P|128:253|133:283,1,62.5,8|0,0:0|0:0,0:0:0:0:
55,310,81576,6,0,P|47:252|69:169,1,125,2|8,0:0|0:0,0:0:0:0:
124,138,82084,1,0,0:0:0:0:
200,174,82254,2,0,P|238:160|256:143,1,62.5
247,64,82593,2,0,P|209:78|191:95,1,62.5,8|0,0:0|0:0,0:0:0:0:
200,174,82932,5,2,0:0:0:0:
161,245,83102,1,0,0:0:0:0:
230,286,83272,2,0,L|319:265,1,62.5,8|0,0:0|0:0,0:0:0:0:
284,195,83611,2,0,P|264:171|251:143,1,62.5
247,64,83950,2,0,P|209:78|191:95,1,62.5,8|0,0:0|0:0,0:0:0:0:
252,144,84289,6,0,P|312:113|326:53,1,125,2|8,0:0|0:0,0:0:0:0:
247,64,84798,1,0,0:0:0:0:
165,67,84968,2,0,P|136:47|120:21,1,62.5
69,86,85307,2,0,L|93:160,1,62.5,8|0,0:0|0:0,0:0:0:0:
147,200,85646,6,0,L|171:274,2,62.5,8|0|8,0:0|0:0|0:0,0:0:0:0:
206,143,86155,1,0,0:0:0:0:
232,219,86325,2,0,L|276:354,1,125,8|8,0:0|0:0,0:0:0:0:
309,133,87003,6,0,L|363:297,1,160,6|8,0:0|0:0,0:0:0:0:
454,326,87512,1,0,0:0:0:0:
442,222,87681,2,0,L|414:137,1,80,2|2,0:0|0:0,0:0:0:0:
309,133,88021,2,0,L|281:48,1,80,8|0,0:0|0:0,0:0:0:0:
216,136,88360,6,0,P|153:182|73:169,1,160,6|8,0:0|0:0,0:0:0:0:
128,81,88869,1,0,0:0:0:0:
216,136,89038,2,0,L|244:216,1,80,2|2,0:0|0:0,0:0:0:0:
342,242,89378,1,8,0:0:0:0:
308,143,89547,1,0,0:0:0:0:
254,297,89717,6,0,P|306:340|397:331,1,160,6|8,0:0|0:0,0:0:0:0:
446,242,90226,1,0,0:0:0:0:
371,169,90395,2,0,P|350:203|342:242,1,80,2|2,0:0|0:0,0:0:0:0:
242,211,90734,2,0,P|233:172|212:138,1,80,8|0,0:0|0:0,0:0:0:0:
137,211,91074,6,0,L|76:284,1,80,6|0,0:0|0:0,0:0:0:0:
62,170,91413,2,0,L|113:108,1,80,8|0,0:0|0:0,0:0:0:0:
212,138,91752,1,2,0:0:0:0:
212,138,91922,1,2,0:0:0:0:
241,237,92091,2,0,L|189:298,1,80,8|0,0:0|0:0,0:0:0:0:
212,138,92430,6,0,P|253:133|314:167,1,80,6|0,0:0|0:0,0:0:0:0:
344,233,92770,1,8,0:0:0:0:
393,141,92939,1,0,0:0:0:0:
447,229,93109,2,0,P|438:274|405:317,1,80,2|2,0:0|0:0,0:0:0:0:
344,233,93448,1,8,0:0:0:0:
322,334,93618,1,0,0:0:0:0:
245,264,93787,6,0,P|241:221|265:170,1,80,6|0,0:0|0:0,0:0:0:0:
340,129,94127,1,8,0:0:0:0:
247,82,94296,1,0,0:0:0:0:
334,25,94466,2,0,P|383:34|419:63,1,80,2|2,0:0|0:0,0:0:0:0:
442,148,94805,1,8,0:0:0:0:
340,129,94975,1,0,0:0:0:0:
457,250,95144,6,0,L|297:312,1,160,6|8,0:0|0:0,0:0:0:0:
300,203,95653,1,0,0:0:0:0:
199,229,95823,2,0,P|152:210|122:175,1,80,2|2,0:0|0:0,0:0:0:0:
148,87,96162,2,0,P|194:105|224:140,1,80,8|0,0:0|0:0,0:0:0:0:
348,134,96501,6,0,P|309:63|244:10,1,160,6|8,0:0|0:0,0:0:0:0:
144,11,97010,1,0,0:0:0:0:
66,79,97179,2,0,L|-3:149,1,80,2|2,0:0|0:0,0:0:0:0:
16,240,97519,2,0,L|74:183,1,80,8|0,0:0|0:0,0:0:0:0:
215,126,97858,6,0,P|304:112|388:158,1,160,6|2,0:0|0:0,0:0:0:0:
405,235,98367,2,0,P|372:319|290:368,1,160,6|2,0:0|0:0,0:0:0:0:
215,345,98875,2,0,P|158:274|156:179,1,160,6|2,0:0|0:0,0:0:0:0:
215,126,99384,5,0,0:0:0:0:
318,117,99554,2,0,P|367:108|420:75,1,80,8|0,0:0|0:0,0:0:0:0:
367,195,99893,2,0,P|416:186|469:153,1,80,2|2,0:0|0:0,0:0:0:0:
419,273,100232,2,0,P|458:268|494:252,1,80,8|0,0:0|0:0,0:0:0:0:
327,325,100572,6,0,P|245:343|166:268,1,160,6|2,0:0|0:0,0:0:0:0:
266,241,101080,2,0,L|312:82,1,160,6|2,0:0|0:0,0:0:0:0:
226,26,101589,2,0,L|181:179,1,160,6|2,0:0|0:0,0:0:0:0:
266,241,102098,5,0,0:0:0:0:
360,284,102268,2,0,P|421:293|455:286,1,80,8|0,0:0|0:0,0:0:0:0:
444,186,102607,2,0,P|404:188|365:179,1,80,2|2,0:0|0:0,0:0:0:0:
373,75,102946,2,0,P|434:84|468:77,1,80,8|0,0:0|0:0,0:0:0:0:
444,186,103285,6,0,L|326:304,1,160,6|8,0:0|0:0,0:0:0:0:
227,312,103794,1,0,0:0:0:0:
228,207,103964,2,0,P|209:166|179:134,1,80,2|2,0:0|0:0,0:0:0:0:
82,145,104303,2,0,P|100:80|141:51,1,80,8|0,0:0|0:0,0:0:0:0:
209,50,104642,6,0,P|291:86|380:53,1,160,6|8,0:0|0:0,0:0:0:0:
452,30,105151,1,0,0:0:0:0:
424,130,105321,2,0,L|397:206,1,80,2|2,0:0|0:0,0:0:0:0:
303,250,105660,1,8,0:0:0:0:
364,333,105829,1,0,0:0:0:0:
260,347,105999,6,0,P|209:297|211:198,1,160,6|8,0:0|0:0,0:0:0:0:
285,146,106508,1,0,0:0:0:0:
187,109,106677,2,0,P|160:76|153:30,1,80,2|2,0:0|0:0,0:0:0:0:
256,31,107017,1,8,0:0:0:0:
256,31,107186,6,0,P|320:51|381:32,1,125,2|2,0:0|0:0,0:0:0:0:
424,100,107695,2,0,L|399:167,1,62.5,10|2,0:0|0:0,0:0:0:0:
322,139,108034,2,0,L|297:206,1,62.5,2|2,0:0|0:0,0:0:0:0:
373,232,108373,2,0,L|348:299,1,62.5,10|2,0:0|0:0,0:0:0:0:
269,281,108713,1,6,0:0:0:0:
55,240,119228,6,0,L|127:240,1,62.5,10|0,0:0|0:0,0:0:0:0:
198,240,119567,2,0,B|260:240|260:240|332:209,1,125,2|8,0:0|0:0,0:0:0:0:
380,163,120076,1,2,0:0:0:0:
304,133,120246,2,0,L|224:169,1,62.5,2|2,0:0|0:0,0:0:0:0:
213,84,120585,2,0,L|269:58,1,62.5,8|2,0:0|0:0,0:0:0:0:
340,18,120924,5,2,0:0:0:0:
177,12,121264,1,8,0:0:0:0:
130,78,121433,1,2,0:0:0:0:
130,78,121603,1,2,0:0:0:0:
128,240,121942,2,0,L|191:272,1,62.5,8|2,0:0|0:0,0:0:0:0:
265,268,122281,6,0,L|376:210,1,125,2|8,0:0|0:0,0:0:0:0:
443,165,122790,1,2,0:0:0:0:
370,127,122960,2,0,L|314:98,1,62.5,2|2,0:0|0:0,0:0:0:0:
238,67,123299,1,8,0:0:0:0:
238,67,123468,1,2,0:0:0:0:
205,141,123638,6,0,L|149:112,1,62.5,2|2,0:0|0:0,0:0:0:0:
77,74,123977,1,8,0:0:0:0:
77,74,124147,1,2,0:0:0:0:
56,152,124316,2,0,L|0:123,1,62.5,2|2,0:0|0:0,0:0:0:0:
128,189,124656,1,8,0:0:0:0:
149,112,124825,1,2,0:0:0:0:
204,171,124995,6,0,L|334:240,1,125,2|8,0:0|0:0,0:0:0:0:
357,160,125504,2,0,L|301:131,2,62.5,2|2|2,0:0|0:0|0:0,0:0:0:0:
429,196,126013,1,8,0:0:0:0:
472,127,126182,6,0,L|416:98,2,62.5,2|2|2,0:0|0:0|0:0,0:0:0:0:
479,45,126691,1,8,0:0:0:0:
402,18,126861,1,2,0:0:0:0:
402,18,127030,1,2,0:0:0:0:
258,94,127369,2,0,L|202:122,1,62.5,8|2,0:0|0:0,0:0:0:0:
249,189,127709,6,0,L|119:258,1,125,2|8,0:0|0:0,0:0:0:0:
97,317,128217,1,2,0:0:0:0:
178,321,128387,2,0,L|233:292,1,62.5,2|2,0:0|0:0,0:0:0:0:
279,360,128726,2,0,L|334:331,1,62.5,8|2,0:0|0:0,0:0:0:0:
312,253,129065,6,0,L|367:224,1,62.5,2|2,0:0|0:0,0:0:0:0:
413,292,129405,2,0,L|468:263,1,62.5,8|2,0:0|0:0,0:0:0:0:
455,183,129744,1,2,0:0:0:0:
256,192,130422,5,6,0:0:0:0:
275,333,134493,5,8,0:0:0:0:
355,303,134832,2,0,L|365:254,1,50,8|2,0:0|0:0,0:0:0:0:
441,238,135341,2,0,L|451:189,1,50,2|8,0:0|0:0,0:0:0:0:
395,50,135850,6,0,L|296:31,1,100,8|2,0:0|0:0,0:0:0:0:
276,103,136359,1,8,0:0:0:0:
276,103,136528,2,0,L|374:121,1,100,8|2,0:0|0:0,0:0:0:0:
357,194,137037,1,8,0:0:0:0:
357,194,137207,6,0,L|258:175,1,100,8|2,0:0|0:0,0:0:0:0:
243,249,137715,1,8,0:0:0:0:
243,249,137884,2,0,L|341:267,1,100,8|2,0:0|0:0,0:0:0:0:
324,341,138394,1,8,0:0:0:0:
324,341,138564,6,0,L|225:322,1,100,8|2,0:0|0:0,0:0:0:0:
152,306,139072,1,8,0:0:0:0:
152,306,139242,1,8,0:0:0:0:
256,192,139411,12,0,140599,0:0:0:0:
128,52,141277,6,0,L|174:212,1,160,6|10,0:0|0:0,0:0:0:0:
258,264,141786,1,0,0:0:0:0:
356,230,141956,2,0,P|383:172|377:132,1,80,2|2,0:0|0:0,0:0:0:0:
306,85,142295,2,0,P|284:118|278:158,1,80,10|0,0:0|0:0,0:0:0:0:
177,128,142634,6,0,P|119:91|24:119,1,160,6|10,0:0|0:0,0:0:0:0:
96,193,143143,1,0,0:0:0:0:
155,278,143312,2,0,L|254:310,1,80,2|2,0:0|0:0,0:0:0:0:
306,230,143652,1,10,0:0:0:0:
380,301,143821,1,0,0:0:0:0:
405,199,143991,6,0,P|383:159|349:134,1,80,6|0,0:0|0:0,0:0:0:0:
256,109,144330,2,0,P|278:69|312:44,1,80,10|0,0:0|0:0,0:0:0:0:
408,47,144669,2,0,P|438:72|456:108,1,80,2|2,0:0|0:0,0:0:0:0:
356,137,145008,1,10,0:0:0:0:
431,209,145178,1,0,0:0:0:0:
332,241,145348,6,0,P|301:278|285:329,1,80,6|0,0:0|0:0,0:0:0:0:
223,225,145687,2,0,P|192:262|176:313,1,80,10|0,0:0|0:0,0:0:0:0:
120,205,146026,1,2,0:0:0:0:
120,205,146196,1,2,0:0:0:0:
192,130,146365,2,0,P|223:93|239:42,1,80,10|0,0:0|0:0,0:0:0:0:
223,225,146705,6,0,L|277:301,2,80,6|0|10,0:0|0:0|0:0,0:0:0:0:
120,205,147213,1,0,0:0:0:0:
83,302,147383,2,0,L|129:366,1,80,2|2,0:0|0:0,0:0:0:0:
233,362,147722,1,10,0:0:0:0:
167,280,147892,1,0,0:0:0:0:
269,290,148061,6,0,L|370:268,1,80,6|0,0:0|0:0,0:0:0:0:
408,187,148401,1,10,0:0:0:0:
304,176,148570,1,0,0:0:0:0:
364,91,148740,2,0,L|410:26,1,80,2|2,0:0|0:0,0:0:0:0:
475,107,149079,1,10,0:0:0:0:
408,187,149249,1,0,0:0:0:0:
261,82,149418,6,0,P|182:54|105:100,1,160,6|10,0:0|0:0,0:0:0:0:
191,157,149927,1,0,0:0:0:0:
254,239,150097,2,0,P|267:309|248:347,1,80,2|2,0:0|0:0,0:0:0:0:
163,292,150436,1,10,0:0:0:0:
98,210,150605,1,0,0:0:0:0:
254,239,150775,6,0,L|443:282,1,160,6|10,0:0|0:0,0:0:0:0:
479,196,151284,1,0,0:0:0:0:
376,176,151454,2,0,L|298:158,1,80,2|2,0:0|0:0,0:0:0:0:
380,94,151793,2,0,L|302:76,1,80,10|0,0:0|0:0,0:0:0:0:
163,173,152132,6,0,P|197:239|154:334,1,160,6|2,0:0|0:0,0:0:0:0:
266,361,152641,2,0,P|306:298|409:288,1,160,6|2,0:0|0:0,0:0:0:0:
376,176,153150,2,0,P|301:172|241:87,1,160,6|2,0:0|0:0,0:0:0:0:
343,76,153658,5,0,0:0:0:0:
444,98,153828,2,0,P|472:137|477:190,1,80,10|0,0:0|0:0,0:0:0:0:
376,176,154167,2,0,P|333:198|306:244,1,80,2|2,0:0|0:0,0:0:0:0:
313,327,154506,1,10,0:0:0:0:
404,275,154676,1,0,0:0:0:0:
224,272,154846,6,0,P|161:231|151:128,1,160,6|2,0:0|0:0,0:0:0:0:
245,170,155354,2,0,L|334:27,1,160,6|2,0:0|0:0,0:0:0:0:
384,131,155863,2,0,P|364:206|403:274,1,160,6|2,0:0|0:0,0:0:0:0:
490,332,156372,1,0,0:0:0:0:
389,359,156542,2,0,L|299:381,1,80,10|0,0:0|0:0,0:0:0:0:
235,306,156881,2,0,L|312:287,1,80,2|2,0:0|0:0,0:0:0:0:
233,219,157220,2,0,L|143:241,1,80,8|0,0:0|0:0,0:0:0:0:
192,140,157559,6,0,P|245:119|286:27,1,160,6|10,0:0|0:0,0:0:0:0:
181,34,158068,1,0,0:0:0:0:
97,95,158238,2,0,P|86:136|102:193,1,80,2|2,0:0|0:0,0:0:0:0:
192,140,158577,2,0,P|233:131|289:150,1,80,10|0,0:0|0:0,0:0:0:0:
335,219,158916,5,6,0:0:0:0:
335,219,159086,1,0,0:0:0:0:
232,232,159255,1,10,0:0:0:0:
232,232,159425,1,0,0:0:0:0:
129,248,159595,1,2,0:0:0:0:
129,248,159765,1,2,0:0:0:0:
26,264,159934,1,10,0:0:0:0:
26,264,160104,1,0,0:0:0:0:
66,168,160273,6,0,L|92:105,3,40
133,127,160612,2,0,L|159:64,3,40
199,78,160951,2,0,L|225:15,3,40
265,30,161291,5,0,0:0:0:0:
430,155,161630,6,0,L|353:216,1,80,6|0,0:0|0:0,0:0:0:0:
292,132,161969,2,0,L|255:223,1,80,10|0,0:0|0:0,0:0:0:0:
161,180,162308,2,0,L|175:277,1,80,2|2,0:0|0:0,0:0:0:0:
72,291,162648,2,0,L|133:367,1,80,10|0,0:0|0:0,0:0:0:0:
225,346,162987,6,0,P|269:299|387:303,1,160,6|10,0:0|0:0,0:0:0:0:
450,341,163496,1,0,0:0:0:0:
436,238,163665,2,0,L|426:134,1,80,2|2,0:0|0:0,0:0:0:0:
324,155,164004,2,0,L|314:51,1,80,10|0,0:0|0:0,0:0:0:0:
223,123,164344,6,0,L|240:298,1,160,6|10,0:0|0:0,0:0:0:0:
156,345,164852,1,0,0:0:0:0:
59,305,165022,2,0,P|34:273|23:235,1,80,2|2,0:0|0:0,0:0:0:0:
64,141,165361,1,10,0:0:0:0:
126,225,165531,1,0,0:0:0:0:
163,128,165700,6,0,P|203:93|319:98,1,160,6|10,0:0|0:0,0:0:0:0:
370,172,166209,1,0,0:0:0:0:
278,221,166379,2,0,P|251:263|246:321,1,80,2|2,0:0|0:0,0:0:0:0:
348,300,166718,1,10,0:0:0:0:
347,299,166888,6,0,P|400:273|472:276,1,125
