osu file format v14

[General]
AudioFilename: Cady Groves - This Little Girl (Speed Up Ver.).mp3
AudioLeadIn: 0
PreviewTime: 43562
Countdown: 0
SampleSet: None
StackLeniency: 0.5
Mode: 0
LetterboxInBreaks: 0
WidescreenStoryboard: 1

[Editor]
Bookmarks: 16425,21853,32707,54417,65271,76126,97835,119544,130399,152108
DistanceSpacing: 1.1
BeatDivisor: 4
GridSize: 4
TimelineZoom: 2

[Metadata]
Title:This Little Girl (Speed Up Ver.)
TitleUnicode:This Little Girl (Speed Up Ver.)
Artist:Cady Groves
ArtistUnicode:Cady Groves
Creator:Bonsai
Version:Mk's Easy
Source:
Tags:Every BOUYAAA is capable of murder MkGuh phaZ NightcoreReality
BeatmapID:898407
BeatmapSetID:413625

[Difficulty]
HPDrainRate:1.5
CircleSize:2.5
OverallDifficulty:2
ApproachRate:3
SliderMultiplier:0.8
SliderTickRate:1

[Events]
//Background and Video events
0,0,"obligatory weeaboo-BG.jpg",0,0
//Break Periods
2,16626,19735
2,108892,118106
2,130601,139730
//Storyboard Layer 0 (Background)
//Storyboard Layer 1 (Fail)
//Storyboard Layer 2 (Pass)
//Storyboard Layer 3 (Foreground)
//Storyboard Sound Samples

[TimingPoints]
144,339.21302578019,4,3,0,44,1,0
5062,-100,4,3,0,44,0,0
10998,-100,4,3,0,55,0,0
16086,-100,4,3,0,55,0,0
16425,-100,4,3,0,67,0,0
26856,-100,4,3,0,5,0,0
26941,-100,4,3,0,67,0,0
27450,-100,4,3,0,33,0,0
27620,-100,4,3,0,67,0,0
37542,-100,4,3,0,5,0,0
37627,-100,4,3,0,67,0,0
43563,-100,4,3,0,67,0,1
48397,-100,4,3,0,5,0,1
48482,-100,4,3,0,67,0,1
53824,-100,4,3,0,5,0,1
53909,-100,4,3,0,67,0,1
59251,-100,4,3,0,5,0,1
59336,-100,4,3,0,67,0,1
63322,-100,4,3,0,5,0,1
63407,-100,4,3,0,67,0,1
63746,-100,4,3,0,67,0,0
64085,-100,4,3,0,40,0,0
64764,-100,4,3,0,67,0,0
80961,-100,4,3,0,5,0,0
81046,-100,4,3,0,67,0,0
86982,-100,4,3,0,67,0,1
90459,-100,4,3,0,5,0,1
90544,-100,4,3,0,67,0,1
91816,-100,4,3,0,5,0,1
91901,-100,4,3,0,67,0,1
97243,-100,4,3,0,5,0,1
97328,-100,4,3,0,67,0,1
102671,-100,4,3,0,5,0,1
102755,-100,4,3,0,67,0,1
106741,-100,4,3,0,5,0,1
106826,-100,4,3,0,67,0,1
108098,-100,4,3,0,5,0,1
108183,-100,4,3,0,67,0,1
108692,-100,4,3,0,67,0,0
130401,-100,4,2,0,44,0,0
131758,-100,4,2,0,5,0,0
131928,-100,4,2,0,44,0,0
132097,-100,4,2,0,5,0,0
132267,-100,4,2,0,44,0,0
132437,-100,4,2,0,5,0,0
132606,-100,4,2,0,44,0,0
132776,-100,4,2,0,5,0,0
132945,-100,4,2,0,44,0,0
133624,-100,4,2,0,22,0,0
134472,-100,4,2,0,44,0,0
135829,-100,4,3,0,44,0,0
139221,-100,4,3,0,22,0,0
139390,-100,4,3,0,44,0,0
141256,-100,4,3,0,67,0,1
146090,-100,4,3,0,5,0,1
146175,-100,4,3,0,67,0,1
156945,-100,4,3,0,5,0,1
157030,-100,4,3,0,67,0,1
160252,-100,4,3,0,67,0,0
161609,-100,4,3,0,67,0,1
166443,-100,4,3,0,5,0,1
166527,-100,4,3,0,67,0,1
166867,-100,4,3,0,67,0,0
167036,-100,4,3,0,40,0,0

[Colours]
Combo1 : 149,0,149
Combo2 : 159,0,0
Combo3 : 0,0,170

[HitObjects]
48,336,5571,6,0,P|108:344|184:268,1,160,0|0,0:0|0:0,0:0:0:0:
124,216,6589,1,0,0:0:0:0:
144,132,6928,2,0,B|224:120|224:160|304:144,1,160,0|0,0:0|0:0,0:0:0:0:
384,112,7945,1,0,0:0:0:0:
440,180,8285,6,0,B|400:280|400:280|352:316,1,160,0|0,0:0|0:0,0:0:0:0:
272,336,9302,1,0,0:0:0:0:
216,268,9641,2,0,P|180:244|68:276,1,160,0|0,0:0|0:0,0:0:0:0:
16,200,10659,1,0,0:0:0:0:
48,116,10998,6,0,P|56:80|48:32,2,80,2|0|2,0:0|0:0|0:0,0:0:0:0:
16,200,12016,1,0,0:0:0:0:
73,269,12355,2,0,L|245:245,1,160,2|2,0:0|0:0,0:0:0:0:
320,252,13373,1,2,0:0:0:0:
336,340,13712,6,0,P|384:312|396:204,1,160,2|2,0:0|0:0,0:0:0:0:
332,164,14730,1,0,0:0:0:0:
362,81,15069,2,0,P|406:74|453:85,2,80,2|0|2,0:0|0:0|0:0,0:0:0:0:
275,97,16087,1,2,0:0:0:0:
204,44,16426,5,6,0:0:0:0:
48,60,21175,6,0,P|88:68|140:56,1,80,10|10,0:0|0:0,0:0:0:0:
208,32,21853,2,0,B|224:76|200:116|200:116|220:204,1,160,4|6,0:0|0:0,0:0:0:0:
216,276,22871,1,8,0:0:0:0:
300,304,23210,2,0,L|468:328,1,160,6|6,0:0|0:0,0:0:0:0:
488,244,24228,1,10,0:0:0:0:
440,172,24567,6,0,P|436:112|444:44,2,120,6|4|8,0:0|0:0|0:0,0:0:0:0:
488,244,25924,2,0,P|428:260|356:192,1,160,6|6,0:0|0:0,0:0:0:0:
316,124,26941,1,10,0:0:0:0:
232,144,27281,6,0,L|144:156,2,80,6|0|6,0:0|0:0|0:0,0:0:0:0:
283,215,28298,1,8,0:0:0:0:
330,289,28637,2,0,P|292:303|242:290,2,80,6|0|6,0:0|0:2|0:0,0:0:0:0:
410,252,29655,1,10,0:0:0:0:
405,164,29994,6,0,B|402:111|402:111|373:92|362:42,2,120,6|4|8,0:0|0:0|0:0,0:0:0:0:
489,189,31351,2,0,P|438:246|361:240,1,160,6|4,0:0|0:0,0:0:0:0:
319,162,32369,1,8,0:0:0:0:
231,153,32708,6,0,P|190:159|156:181,1,80,4|2,0:0|0:0,0:0:0:0:
150,268,33386,2,0,P|190:261|224:239,1,80,0|2,0:0|0:0,0:0:0:0:
273,313,34065,2,0,P|221:345|160:356,2,120,4|4|10,0:0|0:0|0:0,0:0:0:0:
323,240,35422,6,0,L|311:68,1,160,4|0,0:0|0:0,0:0:0:0:
235,36,36439,1,2,0:0:0:0:
160,84,36779,2,0,P|100:100|44:84,2,120,4|4|10,0:0|0:0|0:0,0:0:0:0:
228,140,38135,6,0,P|304:116|384:144,1,160,4|0,0:0|0:0,0:0:0:0:
416,220,39153,2,0,L|400:352,2,120,2|0|0,0:0|0:0|0:0,0:0:0:0:
378,139,40510,1,10,0:0:0:0:
292,116,40849,6,0,P|252:124|212:116,1,80,4|2,0:0|0:0,0:0:0:0:
144,60,41527,2,0,P|104:52|65:60,2,80,0|2|0,0:0|0:0|0:0,0:0:0:0:
57,340,43563,6,0,P|96:273|69:200,1,160,6|4,0:0|0:0,0:0:0:0:
21,127,44580,1,0,0:0:0:0:
64,48,44920,2,0,L|152:28,1,80,4|8,0:0|0:0,0:0:0:0:
187,105,45598,2,0,L|99:125,1,80,4|8,0:0|0:0,0:0:0:0:
69,200,46276,6,0,P|70:283|93:364,1,160,4|4,0:0|0:0,0:0:0:0:
176,372,47294,1,10,0:0:0:0:
252,328,47633,2,0,B|320:308|320:308|372:316,2,120,4|6|10,0:0|0:0|0:0,0:0:0:0:
176,372,48990,6,0,P|168:304|240:240,1,160,6|4,0:0|0:0,0:0:0:0:
281,172,50008,1,8,0:0:0:0:
236,96,50347,2,0,B|196:88|196:88|156:96,2,80,4|8|4,0:0|0:0|0:0,0:0:0:0:
316,59,51365,1,8,0:0:0:0:
390,105,51704,6,0,L|404:277,1,160,4|4,0:0|0:0,0:0:0:0:
362,342,52722,1,10,0:0:0:0:
276,323,53061,2,0,L|21:280,1,240,4|8,0:0|0:0,0:0:0:0:
76,203,54418,6,0,P|89:147|75:85,2,120,6|6|10,0:0|0:0|0:0,0:0:0:0:
39,283,55774,2,0,P|91:299|132:291,1,80,4|10,0:0|0:0,0:0:0:0:
198,266,56453,1,6,0:0:0:0:
273,310,56792,1,10,0:0:0:0:
276,222,57131,6,0,B|316:169|384:163,2,120,6|6|10,0:0|0:0|0:0,0:0:0:0:
198,266,58488,2,0,P|174:295|133:319,1,80,6|8,0:0|0:0,0:0:0:0:
56,282,59167,2,0,P|80:253|121:229,1,80,4|10,0:0|0:0,0:0:0:0:
136,145,59845,6,0,L|307:102,1,160,6|4,0:0|0:0,0:0:0:0:
376,83,60863,1,8,0:0:0:0:
462,67,61202,2,0,B|468:94|462:124|435:149|435:149|451:186|487:202,1,160,4|4,0:0|0:0,0:0:0:0:
489,289,62219,1,8,0:0:0:0:
423,348,62559,6,0,P|385:353|344:349,1,80,4|8,0:0|0:0,0:0:0:0:
269,302,63237,2,0,P|229:297|189:302,1,80,4|10,0:0|0:0,0:0:0:0:
111,342,63916,1,0,0:0:0:0:
411,349,65272,6,0,B|419:265|419:265|399:177,1,160,6|6,0:0|0:0,0:0:0:0:
363,112,66290,1,8,0:0:0:0:
279,89,66629,2,0,P|191:99|111:65,1,160,6|6,0:0|0:0,0:0:0:0:
49,119,67647,1,10,0:0:0:0:
78,201,67986,6,0,B|80:248|80:248|69:278|69:278|74:329,2,120,6|0|8,0:0|0:0|0:0,0:0:0:0:
24,131,69343,2,0,P|84:115|164:175,1,160,6|6,0:0|0:0,0:0:0:0:
194,248,70360,1,10,0:0:0:0:
151,325,70700,6,0,P|193:333|244:321,2,80,4|0|6,0:0|0:0|0:0,0:0:0:0:
74,281,71717,1,8,0:0:0:0:
44,197,72057,2,0,L|56:106,1,80,6|0,0:0|0:0,0:0:0:0:
142,120,72735,2,0,L|154:29,1,80,6|10,0:0|0:0,0:0:0:0:
238,58,73414,6,0,P|278:53|365:130,1,160,6|6,0:0|0:0,0:0:0:0:
400,204,74431,1,8,0:0:0:0:
357,281,74770,2,0,P|296:294|239:281,2,120,6|4|10,0:0|0:0|0:0,0:0:0:0:
400,204,76127,6,0,P|440:212|480:204,1,80,4|2,0:0|0:0,0:0:0:0:
437,126,76805,2,0,P|397:118|357:126,1,80,0|2,0:0|0:0,0:0:0:0:
277,160,77484,2,0,P|213:173|161:158,2,120,4|4|10,0:0|0:0|0:0,0:0:0:0:
358,125,78841,6,0,B|372:168|352:206|352:206|370:297,1,160,4|0,0:0|0:0,0:0:0:0:
301,339,79858,1,10,0:0:0:0:
215,318,80198,2,0,B|155:309|155:309|96:318,2,120,4|4|10,0:0|0:0|0:0,0:0:0:0:
301,339,81555,6,0,B|309:300|289:269|289:269|293:223|346:188,1,160,4|0,0:0|0:0,0:0:0:0:
416,168,82572,2,0,P|360:116|276:132,2,160,10|2|10,0:0|0:0|0:0,0:0:0:0:
333,197,84268,6,0,L|284:268,1,80,4|2,0:0|0:0,0:0:0:0:
230,330,84947,1,0,0:0:0:0:
160,275,85286,1,10,0:0:0:0:
93,217,85625,2,0,P|74:293|130:359,2,160,4|4|6,0:0|0:0|0:0,0:0:0:0:
149,149,87321,6,0,B|205:164|243:131|313:144,1,160,10|8,0:0|0:0,0:0:0:0:
382,189,88339,2,0,P|379:236|383:273,1,80,4|8,0:0|0:0,0:0:0:0:
470,269,89017,2,0,P|473:222|469:185,1,80,4|8,0:0|0:0,0:0:0:0:
449,102,89696,6,0,B|413:112|391:143|391:143|300:89,1,160,4|4,0:0|0:0,0:0:0:0:
256,32,90713,1,10,0:0:0:0:
198,100,91053,2,0,B|123:145|123:145|101:115|65:104,1,160,4|4,0:0|0:0,0:0:0:0:
47,190,92070,1,10,0:0:0:0:
36,277,92409,6,0,P|66:347|118:365,2,120,6|6|8,0:0|0:0|0:0,0:0:0:0:
124,279,93766,2,0,L|220:268,1,80,4|8,0:0|0:0,0:0:0:0:
286,239,94445,2,0,L|365:248,1,80,4|8,0:0|0:0,0:0:0:0:
453,254,95123,6,0,B|466:175|466:175|448:92,1,160,4|4,0:0|0:0,0:0:0:0:
375,48,96141,1,10,0:0:0:0:
336,127,96480,2,0,P|273:186|160:112,1,240,4|8,0:0|0:0,0:0:0:0:
74,104,97837,6,0,L|60:229,2,120,6|6|10,0:0|0:0|0:0,0:0:0:0:
122,31,99194,2,0,P|201:46|287:24,1,160,4|6,0:0|0:0,0:0:0:0:
364,16,100211,1,10,0:0:0:0:
450,32,100551,6,0,P|511:104|502:154,2,120,6|6|10,0:0|0:0|0:0,0:0:0:0:
424,116,101907,2,0,P|390:137|352:150,1,80,6|8,0:0|0:0,0:0:0:0:
266,169,102586,2,0,P|228:181|194:202,1,80,4|10,0:0|0:0,0:0:0:0:
194,290,103264,6,0,P|118:248|179:116,1,240,6|8,0:0|0:0,0:0:0:0:
240,87,104621,2,0,L|319:65,2,80,4|8|4,0:0|0:0|0:0,0:0:0:0:
158,122,105639,1,8,0:0:0:0:
75,93,105978,6,0,B|26:156|26:156|52:237,1,160,6|4,0:0|0:0,0:0:0:0:
86,313,106996,1,10,0:0:0:0:
173,303,107335,2,0,B|258:325|250:283|336:300,1,160,4|4,0:0|0:0,0:0:0:0:
416,320,108352,1,8,0:0:0:0:
466,246,108692,5,4,0:0:0:0:
92,336,119546,6,0,B|68:272|92:220|92:220|80:184|48:152|48:152|116:144|156:88,1,320,6|6,0:0|0:0,0:0:0:0:
232,60,121243,1,10,0:0:0:0:
316,32,121582,2,0,L|392:56,1,80,6|10,0:0|0:0,0:0:0:0:
456,116,122260,6,0,P|456:212|336:288,1,240,6|10,0:0|0:0,0:0:0:0:
272,240,123617,2,0,B|152:280|164:192|40:220,1,240,6|10,0:0|0:0,0:0:0:0:
8,136,124974,6,0,P|104:80|224:120,1,240,6|10,0:0|0:0,0:0:0:0:
308,132,126331,2,0,L|400:144,2,80,6|10|6,0:0|0:0|0:0,0:0:0:0:
252,200,127348,1,10,0:0:0:0:
180,252,127688,6,0,B|224:300|288:280|288:280|324:320|324:320|392:284|466:323,1,320,6|6,0:0|0:0,0:0:0:0:
505,244,129384,1,10,0:0:0:0:
465,165,129723,2,0,L|429:91,2,80,6|10|0,0:0|0:0|0:0,0:0:0:0:
417,338,141256,6,0,P|389:280|387:184,1,160,4|4,0:0|0:0,0:0:0:0:
420,104,142274,1,8,0:0:0:0:
360,40,142613,2,0,L|268:56,1,80,4|8,0:0|0:0,0:0:0:0:
208,104,143291,2,0,L|116:120,1,80,6|10,0:0|0:0,0:0:0:0:
52,76,143970,6,0,P|48:152|112:204,1,160,4|4,0:0|0:0,0:0:0:0:
176,260,144987,1,10,0:0:0:0:
248,312,145327,2,0,P|264:264|256:220,1,80,4|10,0:0|0:0,0:0:0:0:
236,152,146005,2,0,P|284:152|324:176,1,80,4|10,0:0|0:0,0:0:0:0:
396,140,146684,6,0,L|424:20,2,120,6|6|8,0:0|0:0|0:0,0:0:0:0:
312,165,148040,2,0,L|284:285,2,120,4|6|10,0:0|0:0|0:0,0:0:0:0:
268,88,149397,6,0,P|180:68|120:192,1,240,4|10,0:0|0:0,0:0:0:0:
56,248,150754,2,0,B|108:288|164:264|184:244|184:244|216:288|272:296,1,240,4|10,0:0|0:0,0:0:0:0:
356,288,152111,6,0,P|380:224|388:124,1,160,6|4,0:0|0:0,0:0:0:0:
320,76,153129,2,0,P|296:140|288:240,1,160,10|10,0:0|0:0,0:0:0:0:
232,300,154146,2,0,L|152:324,1,80,6|10,0:0|0:0,0:0:0:0:
68,312,154825,6,0,B|72:272|40:244|40:244|20:200|40:152,1,160,6|4,0:0|0:0,0:0:0:0:
48,76,155842,2,0,B|100:88|116:132|116:132|148:100|192:100,1,160,10|8,0:0|0:0,0:0:0:0:
252,56,156860,2,0,P|288:36|336:36,1,80,4|10,0:0|0:0,0:0:0:0:
408,72,157538,6,0,L|392:236,1,160,6|4,0:0|0:0,0:0:0:0:
384,320,158556,1,8,0:0:0:0:
296,336,158895,2,0,B|216:320|216:320|128:328,1,160,4|4,0:0|0:0,0:0:0:0:
60,288,159913,1,8,0:0:0:0:
24,208,160252,5,4,0:0:0:0:
228,32,161270,1,10,0:0:0:0:
316,36,161609,6,0,B|304:112|224:124|224:124|276:148|280:208,1,240,4|10,0:0|0:0,0:0:0:0:
232,276,162966,2,0,P|296:288|347:262,2,120,6|6|8,0:0|0:0|0:0,0:0:0:0:
154,233,164323,2,0,P|90:221|42:249,2,120,4|6|10,0:0|0:0|0:0,0:0:0:0:
229,188,165679,6,0,P|256:159|269:121,1,80,4|10,0:0|0:0,0:0:0:0:
278,34,166358,2,0,P|331:57|357:110,1,120,4|0,0:0|0:0,0:0:0:0:
