osu file format v14

[General]
AudioFilename: Cady Groves - This Little Girl (Speed Up Ver.).mp3
AudioLeadIn: 0
PreviewTime: 43562
Countdown: 0
SampleSet: None
StackLeniency: 0.5
Mode: 0
LetterboxInBreaks: 0
WidescreenStoryboard: 1

[Editor]
Bookmarks: 16425,21853,32707,54417,65271,76126,97835,119544,130399,152108
DistanceSpacing: 1
BeatDivisor: 2
GridSize: 16
TimelineZoom: 2

[Metadata]
Title:This Little Girl (Speed Up Ver.)
TitleUnicode:This Little Girl (Speed Up Ver.)
Artist:Cady Groves
ArtistUnicode:Cady Groves
Creator:Bonsai
Version:BOUYAAA's Normal
Source:
Tags:Every BOUYAAA is capable of murder MkGuh phaZ NightcoreReality
BeatmapID:970140
BeatmapSetID:413625

[Difficulty]
HPDrainRate:3
CircleSize:3
OverallDifficulty:4
ApproachRate:5
SliderMultiplier:1
SliderTickRate:1

[Events]
//Background and Video events
0,0,"obligatory weeaboo-BG.jpg",0,0
//Break Periods
2,108892,118007
2,130601,133272
//Storyboard Layer 0 (Background)
//Storyboard Layer 1 (Fail)
//Storyboard Layer 2 (Pass)
//Storyboard Layer 3 (Foreground)
//Storyboard Sound Samples

[TimingPoints]
144,339.21302578019,4,3,0,44,1,0
5062,-100,4,3,0,44,0,0
10998,-100,4,3,0,55,0,0
16425,-100,4,3,0,70,0,0
43563,-100,4,3,0,70,0,1
63746,-100,4,3,0,67,0,0
64085,-100,4,3,0,40,0,0
64764,-100,4,3,0,70,0,0
80961,-100,4,3,0,5,0,0
81046,-100,4,3,0,70,0,0
86982,-100,4,3,0,70,0,1
90459,-100,4,3,0,5,0,1
90544,-100,4,3,0,70,0,1
91816,-100,4,3,0,5,0,1
91901,-100,4,3,0,70,0,1
97243,-100,4,3,0,5,0,1
97328,-100,4,3,0,70,0,1
102671,-100,4,3,0,5,0,1
102755,-100,4,3,0,70,0,1
106741,-100,4,3,0,5,0,1
106826,-100,4,3,0,70,0,1
108098,-100,4,3,0,5,0,1
108183,-100,4,3,0,70,0,1
108692,-100,4,3,0,70,0,0
130401,-100,4,2,0,44,0,0
135829,-100,4,3,0,44,0,0
140069,-100,4,3,0,5,0,0
141256,-100,4,3,0,70,0,1
146090,-100,4,3,0,5,0,1
146175,-100,4,3,0,70,0,1
148804,-100,4,3,0,5,0,1
148888,-100,4,3,0,70,0,1
151517,-100,4,3,0,5,0,1
151602,-100,4,3,0,70,0,1
156945,-100,4,3,0,5,0,1
157030,-100,4,3,0,70,0,1
160252,-100,4,3,0,75,0,0
161609,-100,4,3,0,70,0,1
166443,-100,4,3,0,5,0,1
166527,-100,4,3,0,70,0,1
166867,-100,4,3,0,70,0,0
167206,-100,4,3,0,40,0,0

[Colours]
Combo1 : 122,183,203
Combo2 : 196,139,233
Combo3 : 78,156,252
Combo4 : 253,102,241

[HitObjects]
251,134,5062,6,0,L|242:81,2,50,0|0|0,0:0|0:0|0:0,0:0:0:0:
285,170,5571,6,0,B|339:190|339:190|430:184|454:117,1,200,0|0,0:0|0:0,0:0:0:0:
268,41,6928,2,0,L|59:57,1,200,0|0,0:0|0:0,0:0:0:0:
20,143,7945,1,0,0:0:0:0:
113,178,8285,6,0,B|139:230|139:230|128:279|128:279|136:328|188:357,1,200,0|0,0:0|0:0,0:0:0:0:
377,329,9641,2,0,P|394:223|338:146,1,200
244,144,10659,1,0,0:0:0:0:
285,53,10998,6,0,L|385:43,1,100,2|0,0:0|0:0,0:0:0:0:
432,57,11507,1,0,0:0:0:0:
469,89,11677,2,0,B|496:136|496:136|490:190,1,100,2|0,0:0|0:0,0:0:0:0:
404,231,12355,2,0,L|393:291,2,50,2|0|0,0:0|0:0|0:0,0:0:0:0:
370,193,12864,1,0,0:0:0:0:
329,163,13034,2,0,L|213:177,1,100,2|2,0:0|0:0,0:0:0:0:
162,248,13712,6,0,B|149:299|149:299|161:356,1,100,2|0,0:0|0:0,0:0:0:0:
58,348,14390,2,0,L|38:241,1,100,2|0,0:0|0:0,0:0:0:0:
47,200,14899,1,0,0:0:0:0:
62,152,15069,2,0,P|101:88|219:78,1,200,2|2,0:0|0:0,0:0:0:0:
264,165,16087,1,2,0:0:0:0:
334,94,16426,6,0,L|402:84,1,50,6|0,0:0|0:0,0:0:0:0:
432,77,16765,1,0,0:2:0:0:
510,139,17104,2,0,P|519:200|498:251,1,100,2|0,0:0|0:2,0:0:0:0:
442,311,17783,2,0,L|333:307,1,100,2|0,0:0|0:2,0:0:0:0:
247,274,18461,1,0,0:0:0:0:
208,366,18800,1,0,0:0:0:0:
109,350,19139,6,0,L|101:283,1,50,2|0,0:0|0:0,0:0:0:0:
96,250,19479,1,0,0:2:0:0:
142,161,19818,2,0,L|158:48,1,100,2|0,0:0|0:2,0:0:0:0:
244,16,20496,1,2,0:0:0:0:
423,104,21175,1,10,0:0:0:0:
360,182,21514,1,10,0:0:0:0:
422,259,21853,6,0,P|460:329|464:361,2,100,4|0|6,0:0|0:0|0:0,0:0:0:0:
371,260,22701,1,0,0:0:0:0:
321,270,22871,2,0,L|254:283,1,50,8|0,0:0|0:0,0:0:0:0:
237,315,23210,2,0,P|173:338|126:322,1,100,6|0,0:0|0:0,0:0:0:0:
70,263,23888,1,6,0:0:0:0:
118,175,24228,1,10,0:0:0:0:
69,87,24567,6,0,B|109:48|109:48|195:30|243:94,1,200,6|6,0:0|0:0,0:0:0:0:
232,188,25584,2,0,L|295:200,1,50,8|0,0:0|0:0,0:0:0:0:
328,178,25924,2,0,P|358:127|359:69,1,100,6|0,0:0|0:2,0:0:0:0:
450,40,26602,2,0,L|466:152,1,100,6|10,0:0|0:0,0:0:0:0:
475,238,27281,6,0,P|467:287|429:335,1,100,6|0,0:0|0:2,0:0:0:0:
393,348,27789,1,4,0:0:0:0:
345,332,27959,2,0,L|222:319,1,100,6|8,0:0|0:0,0:0:0:0:
152,284,28637,2,0,P|141:305|135:339,2,50,6|0|0,0:0|0:0|0:2,0:0:0:0:
176,240,29146,1,4,0:0:0:0:
206,200,29316,2,0,L|192:78,1,100,6|10,0:0|0:0,0:0:0:0:
280,49,29994,6,0,P|302:17|316:9,2,50,6|0|0,0:0|0:0|0:2,0:0:0:0:
302,93,30503,2,0,L|416:105,1,100,4|0,0:0|0:0,0:0:0:0:
444,129,31012,1,8,0:0:0:0:
478,222,31351,2,0,P|472:312|457:334,1,100,6|0,0:0|0:0,0:0:0:0:
379,364,32030,1,6,0:0:0:0:
295,309,32369,1,10,0:0:0:0:
196,291,32708,6,0,B|138:303|138:303|111:328|111:328|38:344,2,150,4|0|2,0:0|0:0|0:0,0:0:0:0:
268,221,34065,2,0,P|268:167|239:120,1,100,4|0,0:0|0:0,0:0:0:0:
159,78,34743,2,0,L|52:75,1,100,0|10,0:0|0:0,0:0:0:0:
32,171,35422,6,0,L|131:173,1,100,4|2,0:0|0:0,0:0:0:0:
167,208,35930,2,0,L|327:190,1,150,0|2,0:0|0:0,0:0:0:0:
415,204,36779,2,0,P|455:261|453:313,1,100,4|2,0:0|0:0,0:0:0:0:
441,336,37287,2,0,P|388:367|331:357,1,100,0|10,0:0|0:0,0:0:0:0:
307,341,37796,1,10,0:0:0:0:
277,245,38135,6,0,L|284:127,1,100,4|2,0:0|0:0,0:0:0:0:
282,95,38644,2,0,P|234:48|148:54,1,150,0|2,0:0|0:0,0:0:0:0:
72,106,39492,2,0,B|55:155|55:155|55:215,1,100,4|0,0:0|0:0,0:0:0:0:
84,243,40001,2,0,L|200:237,1,100,0|10,0:0|0:0,0:0:0:0:
226,211,40510,1,10,0:0:0:0:
296,282,40849,6,0,P|375:306|406:296,1,100,4|2,0:0|0:0,0:0:0:0:
429,273,41358,2,0,L|463:120,1,150,0|2,0:0|0:0,0:0:0:0:
407,42,42206,2,0,P|340:42|301:61,1,100,0|0,0:0|0:0,0:0:0:0:
210,54,42884,2,0,L|193:-2,2,50,0|10|10,0:0|0:0|0:0,0:0:0:0:
195,153,43563,6,0,L|83:145,1,100,6|10,0:0|0:0,0:0:0:0:
53,173,44072,2,0,P|24:236|27:274,1,100,2|2,0:0|0:0,0:0:0:0:
54,305,44580,1,8,0:0:0:0:
92,337,44750,6,0,L|193:335,1,100,2|2,0:0|0:0,0:0:0:0:
286,303,45428,2,0,L|403:310,1,100,2|2,0:0|0:0,0:0:0:0:
432,289,45937,1,8,0:0:0:0:
466,252,46107,6,0,P|475:187|450:139,1,100,2|2,0:0|0:0,0:0:0:0:
384,94,46785,2,0,L|265:107,1,100,2|2,0:0|0:0,0:0:0:0:
238,124,47294,1,10,0:0:0:0:
195,97,47464,6,0,P|158:78|94:88,1,100,2|2,0:0|0:0,0:0:0:0:
41,163,48142,2,0,L|56:269,1,100,6|4,0:0|0:0,0:0:0:0:
67,309,48651,1,10,0:0:0:0:
155,356,48990,5,6,0:0:0:0:
189,320,49160,2,0,L|255:305,1,50,2|8,0:0|0:0,0:0:0:0:
285,324,49499,2,0,P|325:351|393:353,1,100,2|2,0:0|0:0,0:0:0:0:
456,297,50177,6,0,P|462:249|434:187,1,100,2|2,0:0|0:0,0:0:0:0:
400,180,50686,1,8,0:0:0:0:
351,168,50856,2,0,L|247:174,1,100,6|6,0:0|0:0,0:0:0:0:
156,207,51534,6,0,B|150:157|150:157|176:109,1,100,2|2,0:0|0:0,0:0:0:0:
260,63,52213,2,0,L|364:69,1,100,0|2,0:0|0:0,0:0:0:0:
406,49,52722,1,10,0:0:0:0:
450,71,52891,6,0,P|477:114|474:175,1,100,6|4,0:0|0:0,0:0:0:0:
407,233,53570,2,0,B|375:274|375:274|367:333,1,100,4|6,0:0|0:0,0:0:0:0:
376,370,54078,2,0,L|307:372,1,50,10|2,0:0|0:0,0:0:0:0:
286,340,54418,6,0,B|253:316|219:316|219:316|185:334,1,100,6|8,0:0|0:0,0:0:0:0:
165,369,54926,2,0,L|45:374,1,100,6|4,0:0|0:0,0:0:0:0:
18,355,55435,2,0,B|7:321|7:321|23:238,1,100,10|4,0:0|0:0,0:0:0:0:
67,169,56114,6,0,L|58:109,1,50,10|2,0:0|0:0,0:0:0:0:
49,70,56453,2,0,P|91:36|145:38,1,100,6|10,0:0|0:0,0:0:0:0:
172,68,56962,1,2,0:0:0:0:
214,94,57131,6,0,B|247:105|247:105|298:99|314:70,1,100,6|8,0:0|0:0,0:0:0:0:
334,39,57640,2,0,L|435:32,1,100,6|4,0:0|0:0,0:0:0:0:
477,56,58149,1,10,0:0:0:0:
433,146,58488,6,0,L|425:258,1,100,6|8,0:0|0:0,0:0:0:0:
449,289,58997,2,0,B|454:338|454:338|409:371,1,100,6|4,0:0|0:0,0:0:0:0:
363,365,59506,1,10,0:0:0:0:
274,318,59845,5,6,0:0:0:0:
225,306,60015,2,0,L|172:315,1,50,2|8,0:0|0:0,0:0:0:0:
142,352,60354,2,0,P|94:355|42:314,1,100,6|6,0:0|0:0,0:0:0:0:
25,231,61032,6,0,L|46:125,1,100,2|2,0:0|0:0,0:0:0:0:
80,97,61541,1,8,0:0:0:0:
118,64,61711,2,0,B|166:51|166:51|224:70,1,100,2|2,0:0|0:0,0:0:0:0:
285,136,62389,6,0,L|390:129,1,100,2|2,0:0|0:0,0:0:0:0:
462,66,63068,2,0,P|485:113|477:166,1,100,6|6,0:0|0:0,0:0:0:0:
455,202,63576,1,10,0:0:0:0:
427,243,63746,2,0,L|414:355,1,100,2|0,0:0|0:0,0:0:0:0:
231,263,64764,6,0,L|220:203,1,50,8|8,0:0|0:0,0:0:0:0:
132,169,65272,6,0,L|113:286,1,100,6|0,0:0|0:0,0:0:0:0:
123,317,65781,1,0,0:0:0:0:
159,351,65951,2,0,P|197:372|263:371,1,100,6|8,0:0|0:0,0:0:0:0:
328,309,66629,2,0,L|315:190,1,100,6|0,0:0|0:0,0:0:0:0:
361,119,67308,2,0,B|367:69|367:69|335:14,1,100,6|10,0:0|0:0,0:0:0:0:
292,19,67816,1,0,0:0:0:0:
250,47,67986,6,0,L|129:44,1,100,6|0,0:0|0:0,0:0:0:0:
60,88,68665,2,0,B|31:135|31:135|27:197,1,100,6|8,0:0|0:0,0:0:0:0:
61,216,69173,1,0,0:0:0:0:
96,251,69343,2,0,L|83:358,1,100,6|0,0:0|0:0,0:0:0:0:
181,369,70021,2,0,B|226:346|226:346|291:358,1,100,6|10,0:0|0:0,0:0:0:0:
372,375,70700,6,0,L|477:364,1,100,4|0,0:0|0:0,0:0:0:0:
488,266,71378,2,0,L|388:276,1,100,6|8,0:0|0:0,0:0:0:0:
342,187,72057,2,0,L|414:179,2,50,6|0|0,0:0|0:0|0:0,0:0:0:0:
292,179,72565,1,0,0:0:0:0:
251,208,72735,2,0,L|185:200,1,50,6|0,0:0|0:0,0:0:0:0:
155,221,73074,2,0,L|104:214,1,50,10|0,0:0|0:0,0:0:0:0:
64,185,73414,6,0,P|45:130|139:39,1,200,6|6,0:0|0:0,0:0:0:0:
223,82,74431,1,8,0:0:0:0:
311,35,74770,6,0,B|358:30|358:30|381:42|381:42|485:32|485:32|506:58,1,200,4|6,0:0|0:0,0:0:0:0:
483,148,75788,1,10,0:0:0:0:
394,194,76127,6,0,L|242:179,2,150,4|0|10,0:0|0:0|0:0,0:0:0:0:
461,267,77484,2,0,P|410:325|382:318,1,100,4|0,0:0|0:0,0:0:0:0:
354,296,77993,2,0,B|261:280|261:280|206:293,1,150,0|10,0:0|0:0,0:0:0:0:
122,346,78841,6,0,P|63:352|36:310,1,100,4|2,0:0|0:0,0:0:0:0:
37,274,79350,2,0,L|64:103,1,150,0|10,0:0|0:0,0:0:0:0:
143,69,80198,2,0,P|189:77|227:37,1,100,4|2,0:0|0:0,0:0:0:0:
264,11,80707,2,0,B|351:36|351:36|366:115,1,150,0|10,0:0|0:0,0:0:0:0:
301,174,81555,6,0,P|358:198|441:155,2,150,4|0|10,0:0|0:0|0:0,0:0:0:0:
201,177,82911,2,0,L|87:191,1,100,4|0,0:0|0:0,0:0:0:0:
61,219,83420,2,0,B|48:309|48:309|99:369,1,150,0|10,0:0|0:0,0:0:0:0:
182,325,84268,6,0,L|293:334,1,100,4|2,0:0|0:0,0:0:0:0:
327,353,84777,2,0,B|405:371|405:371|474:328,1,150,0|10,0:0|0:0,0:0:0:0:
452,234,85625,2,0,L|466:117,1,100,4|2,0:0|0:0,0:0:0:0:
396,60,86304,2,0,L|324:66,1,50,0|10,0:0|0:0,0:0:0:0:
296,70,86643,1,10,0:0:0:0:
248,157,86982,6,0,B|202:174|202:174|126:154,1,100,6|10,0:0|0:0,0:0:0:0:
120,122,87491,2,0,L|10:139,1,100,2|2,0:0|0:0,0:0:0:0:
13,236,88169,6,0,L|18:350,1,100,2|2,0:0|0:0,0:0:0:0:
48,375,88678,1,8,0:0:0:0:
98,377,88848,2,0,B|157:376|157:376|226:346,1,100,2|2,0:0|0:0,0:0:0:0:
280,308,89526,6,0,L|423:325,1,100,2|2,0:0|0:0,0:0:0:0:
468,273,90205,2,0,P|491:220|475:169,1,100,6|6,0:0|0:0,0:0:0:0:
448,143,90713,1,10,0:0:0:0:
411,108,90883,6,0,L|297:116,1,100,2|2,0:0|0:0,0:0:0:0:
232,53,91561,2,0,P|211:121|222:159,1,100,6|4,0:0|0:0,0:0:0:0:
246,187,92070,1,10,0:0:0:0:
230,285,92409,5,6,0:0:0:0:
184,307,92579,2,0,L|120:301,1,50,2|8,0:0|0:0,0:0:0:0:
86,286,92918,2,0,B|66:250|66:250|74:175,1,100,2|2,0:0|0:0,0:0:0:0:
21,104,93597,6,0,P|65:91|125:105,1,100,2|2,0:0|0:0,0:0:0:0:
154,134,94106,1,8,0:0:0:0:
199,153,94275,2,0,L|306:145,1,100,6|6,0:0|0:0,0:0:0:0:
379,86,94954,6,0,B|448:91|448:91|489:122,1,100,2|2,0:0|0:0,0:0:0:0:
504,204,95632,2,0,L|485:314,1,100,0|2,0:0|0:0,0:0:0:0:
449,336,96141,1,10,0:0:0:0:
399,344,96310,6,0,B|375:326|375:326|336:321|301:343,1,100,6|4,0:0|0:0,0:0:0:0:
214,376,96989,2,0,L|107:367,1,100,6|4,0:0|0:0,0:0:0:0:
74,337,97498,2,0,L|67:277,1,50,10|2,0:0|0:0,0:0:0:0:
40,245,97837,6,0,B|49:209|49:209|38:166|38:166|49:129,1,100,6|8,0:0|0:0,0:0:0:0:
43,98,98346,2,0,P|70:55|121:47,1,100,6|4,0:0|0:0,0:0:0:0:
160,67,98854,2,0,B|194:85|194:85|264:67,1,100,10|4,0:0|0:0,0:0:0:0:
347,35,99533,6,0,L|396:45,1,50,10|2,0:0|0:0,0:0:0:0:
436,74,99872,2,0,P|455:116|433:175,1,100,6|10,0:0|0:0,0:0:0:0:
398,192,100381,1,2,0:0:0:0:
354,217,100551,6,0,L|359:318,1,100,6|8,0:0|0:0,0:0:0:0:
328,356,101059,2,0,B|282:374|282:374|204:355,1,100,6|4,0:0|0:0,0:0:0:0:
193,330,101568,1,10,0:0:0:0:
95,350,101907,6,0,L|83:243,1,100,6|8,0:0|0:0,0:0:0:0:
52,211,102416,2,0,B|35:164|35:164|54:104,1,100,6|6,0:0|0:0,0:0:0:0:
89,84,102925,1,10,0:0:0:0:
175,34,103264,5,6,0:0:0:0:
213,65,103434,2,0,L|206:133,1,50,2|8,0:0|0:0,0:0:0:0:
228,160,103773,2,0,P|301:180|343:159,1,100,6|6,0:0|0:0,0:0:0:0:
400,111,104452,6,0,L|530:125,1,100,2|2,0:0|0:0,0:0:0:0:
511,220,105130,2,0,L|411:230,1,100,2|2,0:0|0:0,0:0:0:0:
376,266,105639,1,8,0:0:0:0:
340,300,105808,6,0,B|299:318|299:318|216:312,1,100,2|2,0:0|0:0,0:0:0:0:
159,259,106487,2,0,B|103:255|103:255|62:273,1,100,2|2,0:0|0:0,0:0:0:0:
24,303,106996,1,10,0:0:0:0:
3,257,107165,6,0,B|-5:224|-5:224|28:141,1,100,2|2,0:0|0:0,0:0:0:0:
101,104,107844,2,0,P|169:109|185:144,1,100,4|8,0:0|0:0,0:0:0:0:
179,180,108352,1,8,0:0:0:0:
278,169,108692,5,4,0:0:0:0:
304,323,119207,5,10,0:0:0:0:
402,304,119546,6,0,B|415:258|415:258|407:197,1,100,6|10,0:0|0:0,0:0:0:0:
335,137,120225,2,0,L|346:71,2,50,6|2|10,0:0|0:0|0:0,0:0:0:0:
299,172,120734,1,2,0:0:0:0:
257,199,120903,6,0,L|141:187,1,100,6|10,0:0|0:0,0:0:0:0:
86,118,121582,2,0,P|52:172|60:225,1,100,6|10,0:0|0:0,0:0:0:0:
69,253,122091,1,2,0:0:0:0:
97,293,122260,6,0,B|134:327|134:327|195:309,1,100,6|10,0:0|0:0,0:0:0:0:
276,279,122939,2,0,L|339:291,1,50,6|0,0:0|0:0,0:0:0:0:
374,298,123278,1,10,0:0:0:0:
466,260,123617,6,0,L|456:180,1,50,6|0,0:0|0:0,0:0:0:0:
475,162,123956,2,0,L|468:96,1,50,10|0,0:0|0:0,0:0:0:0:
436,75,124295,1,6,0:0:0:0:
341,41,124635,2,0,L|279:38,1,50,10|6,0:0|0:0,0:0:0:0:
246,62,124974,6,0,P|205:89|148:87,1,100,6|10,0:0|0:0,0:0:0:0:
57,62,125652,2,0,L|50:12,2,50,6|6|10,0:0|0:0|0:0,0:0:0:0:
50,111,126161,1,6,0:0:0:0:
41,160,126331,6,0,L|56:276,1,100,6|10,0:0|0:0,0:0:0:0:
127,326,127009,2,0,P|191:341|244:310,1,100,6|10,0:0|0:0,0:0:0:0:
257,294,127518,1,6,0:0:0:0:
269,245,127688,6,0,L|256:145,1,100,6|10,0:0|0:0,0:0:0:0:
247,46,128366,2,0,L|196:41,2,50,6|6|10,0:0|0:0|0:0,0:0:0:0:
294,30,128875,1,6,0:0:0:0:
340,11,129044,6,0,L|412:19,1,50,6|6,0:0|0:0,0:0:0:0:
434,38,129384,1,10,0:0:0:0:
501,111,129723,2,0,B|500:164|500:164|428:200,1,100,6|10,0:0|0:0,0:0:0:0:
358,173,130401,5,0,0:0:0:0:
150,189,134472,6,0,B|193:162|193:162|249:176,1,100,2|2,0:0|0:0,0:0:0:0:
268,215,134981,2,0,B|309:242|309:242|367:228,1,100,2|2,0:0|0:0,0:0:0:0:
391,192,135489,1,2,0:0:0:0:
438,103,135829,6,0,P|421:60|361:41,1,100,2|8,0:0|0:2,0:0:0:0:
330,64,136338,2,0,L|189:46,1,100,2|2,0:0|0:0,0:0:0:0:
185,30,136846,1,8,0:2:0:0:
87,52,137186,6,0,P|42:110|53:153,1,100,0|8,0:0|0:2,0:0:0:0:
80,165,137694,2,0,L|151:107,2,50,2|0|2,0:0|0:0|0:0,0:0:0:0:
65,213,138203,1,10,0:2:0:0:
79,311,138542,6,0,P|150:325|196:300,1,100,0|8,0:0|0:2,0:0:0:0:
205,277,139051,1,0,0:0:0:0:
253,265,139221,2,0,L|366:284,1,100,0|8,0:0|0:2,0:0:0:0:
389,314,139730,6,0,P|446:318|458:269,1,100,2|0,0:1|0:0,0:0:0:0:
329,30,141256,6,0,L|193:44,1,100,6|10,0:0|0:0,0:0:0:0:
193,74,141765,2,0,L|68:61,1,100,2|2,0:0|0:0,0:0:0:0:
10,119,142443,6,0,B|0:166|0:166|14:222,1,100,2|2,0:0|0:0,0:0:0:0:
54,243,142952,1,8,0:0:0:0:
100,261,143122,1,2,0:0:0:0:
197,237,143461,2,0,L|205:302,1,50,2|10,0:0|0:0,0:0:0:0:
232,327,143800,1,2,0:0:0:0:
269,360,143970,6,0,L|398:344,1,100,4|8,0:0|0:0,0:0:0:0:
409,318,144479,2,0,B|439:279|439:279|440:221,1,100,0|2,0:0|0:0,0:0:0:0:
408,189,144987,1,10,0:0:0:0:
439,93,145327,6,0,B|404:58|404:58|328:40,1,100,4|10,0:0|0:0,0:0:0:0:
312,71,145835,2,0,L|210:82,1,100,6|4,0:0|0:0,0:0:0:0:
164,66,146344,1,10,0:0:0:0:
63,60,146684,5,6,0:0:0:0:
44,106,146853,2,0,L|55:158,1,50,2|8,0:0|0:0,0:0:0:0:
91,189,147192,2,0,B|97:240|97:240|73:294,1,100,2|2,0:0|0:0,0:0:0:0:
24,369,147871,6,0,L|152:378,1,100,2|2,0:0|0:0,0:0:0:0:
209,325,148549,2,0,L|196:209,2,100,6|6|2,0:0|0:0|0:0,0:0:0:0:
250,352,149397,6,0,B|287:363|287:363|358:355,1,100,4|8,0:0|0:0,0:0:0:0:
389,328,149906,2,0,B|440:342|440:342|501:289,1,100,6|6,0:0|0:0,0:0:0:0:
499,266,150415,1,10,0:0:0:0:
500,216,150584,6,0,L|485:113,1,100,2|2,0:0|0:0,0:0:0:0:
417,43,151263,2,0,P|334:42|309:81,1,100,6|6,0:0|0:0,0:0:0:0:
303,93,151772,2,0,L|235:92,1,50,10|2,0:0|0:0,0:0:0:0:
209,68,152111,6,0,B|181:47|181:47|126:45|100:93,1,100,6|8,0:0|0:0,0:0:0:0:
89,106,152620,2,0,B|100:242,1,100,6|4,0:0|0:0,0:0:0:0:
85,254,153129,2,0,B|77:310|77:310|84:349|122:362,1,100,10|4,0:0|0:0,0:0:0:0:
196,338,153807,6,0,L|270:347,1,50,10|2,0:0|0:0,0:0:0:0:
291,323,154146,2,0,B|335:306|335:306|403:321,1,100,6|10,0:0|0:0,0:0:0:0:
433,335,154655,1,2,0:0:0:0:
482,324,154825,6,0,B|500:285|500:285|480:201,1,100,6|8,0:0|0:0,0:0:0:0:
443,204,155333,2,0,B|430:169|466:146|446:102,1,100,6|4,0:0|0:0,0:0:0:0:
414,68,155842,1,10,0:0:0:0:
317,93,156181,6,0,L|193:79,1,100,6|8,0:0|0:0,0:0:0:0:
181,47,156690,2,0,B|129:36|129:36|84:61,1,100,6|4,0:0|0:0,0:0:0:0:
60,100,157199,1,10,0:0:0:0:
61,199,157538,5,6,0:0:0:0:
43,246,157708,2,0,L|51:301,1,50,2|8,0:0|0:0,0:0:0:0:
85,330,158047,2,0,B|134:344|134:344|188:326,1,100,6|6,0:0|0:0,0:0:0:0:
255,262,158726,6,0,L|356:273,1,100,2|2,0:0|0:0,0:0:0:0:
425,343,159404,2,0,P|454:296|450:246,1,100,2|2,0:0|0:0,0:0:0:0:
427,209,159913,2,0,L|442:132,1,50,8|2,0:0|0:0,0:0:0:0:
463,117,160252,6,0,L|520:126,2,50,4|4|4,0:0|0:0|0:0,0:0:0:0:
366,91,160930,2,0,L|285:98,1,50,8|8,0:0|0:0,0:0:0:0:
269,114,161270,2,0,L|219:106,1,50,10|0,0:0|0:0,0:0:0:0:
180,74,161609,6,0,L|54:82,1,100,4|8,0:0|0:0,0:0:0:0:
18,158,162287,2,0,P|4:216|4:226,1,50,4|0,0:0|0:0,0:0:0:0:
24,252,162627,1,10,0:0:0:0:
95,321,162966,5,6,0:0:0:0:
139,299,163135,2,0,L|209:309,1,50,2|8,0:0|0:0,0:0:0:0:
231,331,163475,2,0,P|311:352|356:317,1,100,6|6,0:0|0:0,0:0:0:0:
402,286,164153,2,0,B|428:248|428:248|414:163,1,100,2|2,0:0|0:0,0:0:0:0:
364,110,164831,2,0,P|315:103|271:126,1,100,2|2,0:0|0:0,0:0:0:0:
226,215,165510,6,0,L|119:202,1,100,2|2,0:0|0:0,0:0:0:0:
88,171,166019,1,8,0:0:0:0:
70,124,166188,2,0,P|74:80|124:51,1,100,4|6,0:0|0:0,0:0:0:0:
161,75,166697,1,10,0:0:0:0:
210,65,166867,6,0,B|261:70|261:70|293:67|306:43,1,100
