osu file format v14

[General]
AudioFilename: Cady Groves - This Little Girl (Speed Up Ver.).mp3
AudioLeadIn: 0
PreviewTime: 43562
Countdown: 0
SampleSet: None
StackLeniency: 0.5
Mode: 0
LetterboxInBreaks: 0
WidescreenStoryboard: 1

[Editor]
Bookmarks: 16425,21853,32707,54417,54418,65271,76126,97835,119544,130399,152108
DistanceSpacing: 1.3
BeatDivisor: 4
GridSize: 8
TimelineZoom: 2.899999

[Metadata]
Title:This Little Girl (Speed Up Ver.)
TitleUnicode:This Little Girl (Speed Up Ver.)
Artist:Cady Groves
ArtistUnicode:Cady Groves
Creator:Bonsai
Version:Advanced
Source:
Tags:Every BOUYAAA is capable of murder MkGuh phaZ NightcoreReality
BeatmapID:1130958
BeatmapSetID:413625

[Difficulty]
HPDrainRate:4
CircleSize:3.6
OverallDifficulty:5.5
ApproachRate:6.6
SliderMultiplier:1.1
SliderTickRate:1

[Events]
//Background and Video events
0,0,"obligatory weeaboo-BG.jpg",0,0
//Break Periods
2,108892,118247
2,130601,134699
//Storyboard Layer 0 (Background)
//Storyboard Layer 1 (Fail)
//Storyboard Layer 2 (Pass)
//Storyboard Layer 3 (Foreground)
//Storyboard Sound Samples

[TimingPoints]
144,339.21302578019,4,3,0,44,1,0
5571,-133.333333333333,4,3,0,44,0,0
10998,-133.333333333333,4,3,0,55,0,0
16425,-113.636363636364,4,3,0,70,0,0
21853,-100,4,3,0,70,0,0
43563,-90.9090909090909,4,3,0,80,0,1
63746,-100,4,3,0,67,0,0
64085,-100,4,3,0,40,0,0
64764,-100,4,3,0,70,0,0
86982,-90.9090909090909,4,3,0,80,0,1
108692,-100,4,3,0,70,0,0
130401,-100,4,2,0,44,0,0
135829,-100,4,3,0,44,0,0
141256,-90.9090909090909,4,3,0,80,0,1
160252,-100,4,3,0,80,0,0
161609,-90.9090909090909,4,3,0,80,0,1
166867,-100,4,3,0,70,0,0
167206,-100,4,3,0,30,0,0

[Colours]
Combo1 : 149,0,149
Combo2 : 159,0,0
Combo3 : 0,0,170

[HitObjects]
294,74,5571,6,0,B|356:74|356:74|380:105|419:105|442:74,2,165.000006294251
294,74,7606,1,0,0:0:0:0:
250,191,7945,1,0,0:0:0:0:
206,308,8285,6,0,P|248:364|291:307,2,165.000006294251
206,308,10320,1,0,0:0:0:0:
329,308,10659,1,0,0:0:0:0:
265,198,10998,6,0,B|182:198|182:198|134:182,1,123.750004720688,2|0,0:0|0:0,0:0:0:0:
104,169,11677,2,0,B|104:128|104:128|131:49,1,123.750004720688,2|0,0:0|0:0,0:0:0:0:
149,12,12355,1,2,0:0:0:0:
149,12,13034,1,2,0:0:0:0:
106,128,13373,1,2,0:0:0:0:
225,161,13712,6,0,B|383:161,1,123.750004720688,2|0,0:0|0:0,0:0:0:0:
390,161,14390,2,0,B|402:218|402:218|391:281,1,123.750004720688,2|0,0:0|0:0,0:0:0:0:
382,323,15069,1,2,0:0:0:0:
196,327,15578,1,2,0:0:0:0:
196,327,15747,1,2,0:0:0:0:
220,205,16086,1,2,0:0:0:0:
99,177,16426,6,0,B|51:165|51:188|4:177,1,96.8000029541017,6|0,0:0|0:0,0:0:0:0:
27,103,16935,1,0,0:0:0:0:
52,30,17104,2,0,L|148:30,1,96.8000029541017,6|0,0:0|0:0,0:0:0:0:
174,103,17613,1,0,0:0:0:0:
199,176,17782,2,0,L|295:176,1,96.8000029541017,2|0,0:0|0:0,0:0:0:0:
373,176,18291,1,0,0:0:0:0:
450,176,18461,1,6,0:0:0:0:
399,322,18800,1,6,0:0:0:0:
244,322,19139,6,0,L|147:322,1,96.8000029541017,6|0,0:0|0:0,0:0:0:0:
114,251,19648,1,0,0:0:0:0:
88,176,19817,2,0,L|184:176,1,96.8000029541017,6|0,0:0|0:0,0:0:0:0:
262,176,20327,1,0,0:0:0:0:
288,101,20496,1,2,0:0:0:0:
288,101,21005,5,4,0:0:0:0:
210,101,21175,2,0,L|129:101,1,48.4000014770508,8|0,0:0|0:0,0:0:0:0:
135,176,21514,2,0,L|183:176,1,48.4000014770508,8|0,0:0|0:0,0:0:0:0:
157,251,21853,6,0,P|89:240|61:202,2,110,4|0|4,0:0|0:0|0:0,0:0:0:0:
234,251,22701,1,0,0:0:0:0:
287,306,22871,2,0,L|329:352,1,55,8|0,0:0|0:0,0:0:0:0:
401,346,23210,1,4,0:0:0:0:
478,346,23380,2,0,P|519:279|480:211,1,165,0|4,0:0|0:0,0:0:0:0:
411,243,24058,5,0,0:0:0:0:
341,210,24228,1,8,0:0:0:0:
272,243,24397,1,0,0:0:0:0:
207,200,24567,2,0,P|182:101|275:60,1,220,4|4,0:0|0:0,0:0:0:0:
345,93,25415,1,0,0:0:0:0:
421,93,25584,2,0,L|486:93,1,55,8|0,0:0|0:0,0:0:0:0:
476,170,25924,2,0,B|452:176|436:166|436:166|409:173|409:173|393:163|370:170,2,110,4|0|4,0:0|0:2|0:0,0:0:0:0:
476,334,26941,5,8,0:0:0:0:
398,334,27111,1,0,0:0:0:0:
320,334,27281,2,0,P|263:293|256:246,1,110,4|0,0:0|0:0,0:0:0:0:
190,101,27959,2,0,P|237:128|255:179,1,110,4|8,0:0|0:0,0:0:0:0:
144,321,28637,2,0,P|171:318|196:306,2,55,4|0|0,0:0|0:0|0:0,0:0:0:0:
66,321,29146,1,0,0:0:0:0:
66,243,29316,2,0,P|70:215|85:191,1,55,4|0,0:0|0:0,0:0:0:0:
132,132,29655,2,0,P|145:108|151:80,1,55,8|0,0:0|0:0,0:0:0:0:
112,14,29994,6,0,L|28:14,2,55,4|0|0,0:0|0:0|0:2,0:0:0:0:
189,14,30503,2,0,B|240:14|240:14|293:35,1,110,4|0,0:0|0:0,0:0:0:0:
369,65,31012,2,0,L|369:-2,2,55,8|0|4,0:0|0:0|0:0,0:0:0:0:
369,142,31521,2,0,B|368:193|368:193|347:246,1,110
316,318,32030,1,8,0:0:0:0:
447,218,32369,1,8,0:0:0:0:
286,180,32708,6,0,B|222:169|222:169|188:180|188:180|124:170,1,165,4|2,0:0|0:0,0:0:0:0:
124,170,33726,2,0,P|147:245|91:301,1,165,4|2,0:0|0:0,0:0:0:0:
72,226,34404,1,4,0:0:0:0:
177,114,34743,2,0,B|323:114|323:114|343:197,2,220,2|4|2,0:0|0:0|0:0,0:0:0:0:
13,277,36609,5,2,0:0:0:0:
67,332,36779,2,0,P|78:356|81:383,2,55,4|0|2,0:0|0:0|0:0,0:0:0:0:
86,257,37287,2,0,P|129:224|183:229,1,110,4|2,0:0|0:0,0:0:0:0:
150,298,37796,1,10,0:0:0:0:
220,161,38135,6,0,B|287:5,1,165,4|2,0:0|0:0,0:0:0:0:
512,9,39153,2,0,B|446:160,1,165,4|2,0:0|0:0,0:0:0:0:
416,231,39831,1,4,0:0:0:0:
278,161,40171,2,0,L|52:161,2,220,2|4|2,0:0|0:0|0:0,0:0:0:0:
282,242,41697,5,0,0:0:0:0:
282,242,41867,2,0,L|211:242,1,55,4|2,0:0|0:0,0:0:0:0:
149,242,42206,1,0,0:0:0:0:
485,249,43054,5,10,0:0:0:0:
485,249,43224,1,10,0:0:0:0:
328,187,43563,6,0,P|295:143|305:79,1,121.000003692627,6|10,0:0|0:0,0:0:0:0:
235,41,44072,2,0,P|176:32|128:65,1,121.000003692627,6|6,0:0|0:0,0:0:0:0:
92,135,44580,1,8,0:0:0:0:
128,224,44750,2,0,P|132:282|95:328,1,121.000003692627,6|10,0:0|0:0,0:0:0:0:
181,168,45428,2,0,P|238:154|289:183,1,121.000003692627,6|6,0:0|0:0,0:0:0:0:
323,254,45937,1,10,0:0:0:0:
366,319,46107,6,0,P|417:348|474:334,3,121.000003692627,6|10|4|6,0:0|0:0|0:0|0:0,0:0:0:0:
427,271,47294,2,0,L|373:199,1,60.5000018463135,10|2,0:0|0:0,0:0:0:0:
393,125,47633,2,0,P|411:106|445:93,2,60.5000018463135,4|2|8,0:0|0:0|0:0,0:0:0:0:
316,142,48142,2,0,P|257:131|222:84,1,121.000003692627,4|4,0:0|0:0,0:0:0:0:
222,6,48651,1,8,0:0:0:0:
37,6,48990,5,6,0:0:0:0:
37,84,49160,2,0,P|33:110|13:140,1,60.5000018463135,2|8,0:0|0:0,0:0:0:0:
51,208,49499,2,0,P|102:237|159:222,1,121.000003692627,6|10,0:0|0:0,0:0:0:0:
287,77,50177,1,6,0:0:0:0:
228,261,50517,1,10,0:0:0:0:
355,116,50856,1,6,0:0:0:0:
296,300,51195,2,0,P|295:326|310:359,1,60.5000018463135,6|8,0:0|0:0,0:0:0:0:
387,362,51534,6,0,B|512:374,2,121.000003692627,6|10|4,0:0|0:0|0:0,0:0:0:0:
187,362,52552,2,0,B|112:369,1,60.5000018463135,6|10,0:0|0:0,0:0:0:0:
48,374,52891,2,4,P|8:330|11:271,1,121.000003692627,6|10,0:0|0:0,0:0:0:0:
84,131,53570,2,0,B|204:142,1,121.000003692627,4|6,0:0|0:0,0:0:0:0:
255,202,54078,1,10,0:0:0:0:
305,262,54248,1,2,0:0:0:0:
376,195,54418,6,0,P|428:168|498:186,1,121.000003692627,6|8,0:0|0:0,0:0:0:0:
443,265,54926,2,0,P|439:323|389:375,1,121.000003692627,6|4,0:0|0:0,0:0:0:0:
348,287,55435,2,0,P|299:254|300:133,1,181.500005538941,10|4,0:0|0:0,0:0:0:0:
384,200,56114,1,10,0:0:0:0:
384,200,56283,1,2,0:0:0:0:
384,200,56453,2,0,L|239:237,1,121.000003692627,6|10,0:0|0:0,0:0:0:0:
190,251,56962,1,2,0:0:0:0:
131,174,57131,6,0,P|74:156|18:178,1,121.000003692627,6|8,0:0|0:0,0:0:0:0:
77,256,57640,2,0,P|133:273|189:251,1,121.000003692627,6|4,0:0|0:0,0:0:0:0:
232,163,58149,1,10,0:0:0:0:
232,163,58319,1,2,0:0:0:0:
310,163,58488,2,0,L|377:163,2,60.5000018463135,6|0|8,0:0|0:0|0:0,0:0:0:0:
310,84,58997,2,0,L|189:84,1,121.000003692627,4|4,0:0|0:0,0:0:0:0:
110,84,59506,1,10,0:0:0:0:
110,277,59845,5,6,0:0:0:0:
188,276,60015,2,0,P|217:282|242:299,1,60.5000018463135,2|8,0:0|0:0,0:0:0:0:
298,354,60354,2,0,P|321:299|298:244,1,121.000003692627,6|10,0:0|0:0,0:0:0:0:
111,197,61032,1,6,0:0:0:0:
302,166,61371,1,10,0:0:0:0:
113,119,61711,2,0,P|57:138|31:191,1,121.000003692627,6|6,0:0|0:0,0:0:0:0:
64,261,62219,1,10,0:0:0:0:
142,270,62389,6,0,B|198:248|198:248|257:257,3,121.000003692627,6|10|4|6,0:0|0:0|0:0|0:0,0:0:0:0:
340,273,63576,1,10,0:0:0:0:
340,273,63746,2,0,L|340:385,1,110,2|2,0:0|0:0,0:0:0:0:
340,383,64764,5,8,0:0:0:0:
340,378,64933,2,0,L|340:315,1,55,8|0,0:0|0:0,0:0:0:0:
340,245,65272,2,0,P|439:270|480:177,1,220,4|4,0:0|0:0,0:0:0:0:
430,119,66120,1,0,0:0:0:0:
352,119,66290,2,0,L|296:119,1,55,8|0,0:0|0:0,0:0:0:0:
219,119,66629,1,4,0:0:0:0:
169,178,66799,2,0,P|144:103|197:45,1,165,0|4,0:0|0:0,0:0:0:0:
274,45,67477,5,0,0:0:0:0:
297,119,67647,2,0,P|309:144|331:162,1,55,8|0,0:0|0:0,0:0:0:0:
393,204,67986,2,0,P|417:268|398:311,2,110,4|0|4,0:0|0:0|0:0,0:0:0:0:
324,239,68834,1,0,0:0:0:0:
252,267,69004,2,0,L|173:267,1,55,8|0,0:0|0:0,0:0:0:0:
124,241,69343,2,0,L|21:200,1,110,4|0,0:0|0:0,0:0:0:0:
21,123,69852,1,0,0:0:0:0:
44,49,70021,1,4,0:0:0:0:
209,49,70361,6,0,L|244:130,1,55,8|0,0:0|0:0,0:0:0:0:
263,169,70700,1,4,0:0:0:0:
427,169,71039,1,0,0:0:0:0:
344,26,71378,1,4,0:0:0:0:
263,169,71717,1,8,0:0:0:0:
344,300,72057,2,0,P|341:328|327:352,1,55,4|0,0:0|0:0,0:0:0:0:
268,303,72396,2,0,P|248:323|222:334,1,55
150,256,72735,2,0,P|177:263|204:259,1,55,4|0,0:0|0:0,0:0:0:0:
273,225,73074,5,8,0:0:0:0:
273,148,73244,1,0,0:0:0:0:
273,71,73414,2,0,P|299:66|326:73,2,55,4|0|0,0:0|0:0|0:0,0:0:0:0:
205,107,73922,2,0,B|123:139|123:139|47:139,1,165,4|8,0:0|0:0,0:0:0:0:
46,62,74601,1,0,0:0:0:0:
114,26,74770,2,0,B|168:4|168:4|219:4,1,110,4|0,0:0|0:0,0:0:0:0:
297,4,75279,2,0,L|354:4,2,55,0|4|0,0:0|0:0|0:0,0:0:0:0:
259,71,75788,5,8,0:0:0:0:
375,183,76127,2,0,P|393:233|374:283,1,110,4|2,0:0|0:0,0:0:0:0:
297,283,76636,2,0,L|185:283,1,110,4|2,0:0|0:0,0:0:0:0:
110,306,77145,2,0,L|110:96,1,165,2|4,0:0|0:0,0:0:0:0:
83,68,77823,1,2,0:0:0:0:
236,68,78162,2,0,B|382:68|382:68|382:155,2,220,4|4|2,0:0|0:0|0:0,0:0:0:0:
120,268,80028,5,2,0:0:0:0:
179,316,80198,2,0,P|203:327|230:330,2,55,4|0|2,0:0|0:0|0:0,0:0:0:0:
193,240,80707,2,0,P|236:207|290:212,1,110,4|2,0:0|0:0,0:0:0:0:
352,254,81215,1,10,0:0:0:0:
223,167,81555,6,0,L|86:74,1,165,4|2,0:0|0:0,0:0:0:0:
317,74,82572,2,0,L|498:197,1,220,4|4,0:0|0:0,0:0:0:0:
499,351,83590,1,2,0:0:0:0:
345,351,83929,2,0,L|208:258,1,165,2|4,0:0|0:0,0:0:0:0:
130,258,84608,2,0,L|12:258,1,110,2|4,0:0|0:0,0:0:0:0:
20,82,85286,5,2,0:0:0:0:
59,148,85456,1,0,0:0:0:0:
96,82,85625,2,0,P|124:77|151:82,1,55,4|0,0:0|0:0,0:0:0:0:
190,148,85964,1,2,0:0:0:0:
229,214,86134,1,4,0:0:0:0:
268,280,86304,2,0,P|295:284|322:279,1,55,4|10,0:0|0:0,0:0:0:0:
394,253,86643,1,10,0:0:0:0:
440,86,86982,6,0,P|391:119|380:176,1,121.000003692627,6|10,0:0|0:0,0:0:0:0:
305,203,87491,2,0,P|246:195|209:149,1,121.000003692627,6|14,0:0|0:0,0:0:0:0:
199,71,87999,1,8,0:0:0:0:
111,29,88169,2,0,P|51:30|10:72,1,121.000003692627,6|10,0:0|0:0,0:0:0:0:
92,246,88848,2,0,P|88:305|44:345,1,121.000003692627,6|6,0:0|0:0,0:0:0:0:
18,271,89356,1,10,0:0:0:0:
54,181,89526,6,0,L|193:196,3,121.000003692627,6|10|4|6,0:0|0:0|0:0|0:0,0:0:0:0:
253,193,90713,2,0,L|313:186,1,60.5000018463135,10|2,0:0|0:0,0:0:0:0:
361,249,91053,2,0,P|361:275|346:308,2,60.5000018463135,4|0|8,0:0|0:0|0:0,0:0:0:0:
391,177,91561,2,0,P|438:142|510:149,1,121.000003692627,4|4,0:0|0:0,0:0:0:0:
468,236,92070,1,8,0:0:0:0:
399,54,92409,5,6,0:0:0:0:
333,97,92579,2,0,P|304:105|274:101,1,60.5000018463135,2|8,0:0|0:0,0:0:0:0:
211,53,92918,2,0,P|160:24|103:39,1,121.000003692627,6|10,0:0|0:0,0:0:0:0:
128,231,93596,1,6,0:0:0:0:
274,101,93936,1,10,0:0:0:0:
84,139,94275,1,6,0:0:0:0:
255,227,94614,2,4,L|311:256,1,60.5000018463135,6|12,0:0|0:0,0:0:0:0:
266,321,94953,6,0,B|145:332,2,121.000003692627,6|10|4,0:0|0:0|0:0,0:0:0:0:
488,326,95971,2,0,B|427:320,1,60.5000018463135,6|10,0:0|0:0,0:0:0:0:
341,353,96310,2,0,P|343:294|303:250,1,121.000003692627,6|10,0:0|0:0,0:0:0:0:
116,241,96989,2,0,P|167:269|225:253,1,121.000003692627,6|10,0:0|0:0,0:0:0:0:
177,191,97497,1,10,0:0:0:0:
173,187,97667,1,2,0:0:0:0:
111,115,97837,6,0,P|59:88|-11:106,1,121.000003692627,6|8,0:0|0:0,0:0:0:0:
44,185,98345,2,0,P|48:243|98:295,1,121.000003692627,6|4,0:0|0:0,0:0:0:0:
139,207,98854,2,0,P|188:174|187:53,1,181.500005538941,10|4,0:0|0:0,0:0:0:0:
118,121,99533,1,10,0:0:0:0:
118,121,99702,1,2,0:0:0:0:
118,121,99872,2,0,L|264:156,1,121.000003692627,6|10,0:0|0:0,0:0:0:0:
311,169,100381,1,2,0:0:0:0:
369,92,100550,6,0,P|426:74|482:96,1,121.000003692627,6|8,0:0|0:0,0:0:0:0:
423,174,101059,2,0,P|367:191|311:169,1,121.000003692627,6|4,0:0|0:0,0:0:0:0:
268,81,101568,1,10,0:0:0:0:
233,9,101738,1,2,0:0:0:0:
154,9,101907,2,0,L|93:9,2,60.5000018463135,6|0|8,0:0|0:0|0:0,0:0:0:0:
189,81,102416,2,0,L|189:221,1,121.000003692627,4|4,0:0|0:0,0:0:0:0:
189,280,102925,1,10,0:0:0:0:
382,280,103264,5,6,0:0:0:0:
382,201,103434,2,0,P|388:171|405:146,1,60.5000018463135,2|8,0:0|0:0,0:0:0:0:
462,92,103773,2,0,P|484:146|461:201,1,121.000003692627,6|10,0:0|0:0,0:0:0:0:
298,305,104451,1,6,0:0:0:0:
405,146,104790,1,10,0:0:0:0:
241,249,105130,2,0,P|218:304|241:359,1,121.000003692627,6|6,0:0|0:0,0:0:0:0:
298,305,105639,1,10,0:0:0:0:
309,209,105808,6,0,B|248:215|248:215|193:190,3,121.000003692627,6|10|4|6,0:0|0:0|0:0|0:0,0:0:0:0:
121,159,106995,1,10,0:0:0:0:
93,65,107165,2,0,P|57:17|0:9,1,121.000003692627,6|10,0:0|0:0,0:0:0:0:
40,161,107844,2,0,L|74:302,1,121.000003692627,4|4,0:0|0:0,0:0:0:0:
87,354,108352,2,8,L|154:354,1,60.5000018463135,8|0,0:0|0:0,0:0:0:0:
225,354,108692,5,4,0:1:0:0:
144,221,119207,6,0,L|144:157,1,55,0|0,1:0|0:0,0:0:0:0:
148,91,119546,1,0,0:0:0:0:
148,91,119886,2,0,L|208:56,1,55,0|0,1:0|0:0,0:0:0:0:
263,27,120225,1,0,0:0:0:0:
296,46,120394,1,0,0:0:0:0:
328,66,120564,2,0,L|403:66,1,55,0|0,1:0|0:0,0:0:0:0:
460,66,120903,1,0,0:0:0:0:
460,220,121243,1,0,1:0:0:0:
306,224,121582,1,0,0:0:0:0:
306,224,121921,6,0,L|306:160,1,55,0|0,1:0|0:0,0:0:0:0:
310,94,122260,1,0,0:0:0:0:
310,94,122600,2,0,L|251:94,1,55,0|0,1:0|0:0,0:0:0:0:
177,94,122939,1,0,0:0:0:0:
177,247,123278,2,2,P|178:275|168:301,1,55,2|0,1:0|0:0,0:0:0:0:
103,260,123617,2,2,P|101:231|111:205,1,55,2|0,0:1|0:0,0:0:0:0:
177,170,123956,1,2,1:0:0:0:
215,170,124126,1,0,0:0:0:0:
253,170,124295,2,2,P|262:144|260:117,1,55,2|0,0:1|0:0,0:0:0:0:
239,42,124635,5,10,0:0:0:0:
162,42,124804,1,6,0:0:0:0:
84,42,124974,2,0,P|38:68|20:119,1,110,6|10,0:0|0:0,0:0:0:0:
20,197,125483,1,6,0:0:0:0:
90,227,125652,2,0,P|111:244|124:268,1,55,6|6,0:0|0:0,0:0:0:0:
147,342,125992,2,0,P|159:366|181:383,1,55,10|6,0:0|0:0,0:0:0:0:
257,383,126331,2,0,P|295:344|299:290,2,110,6|10|6,0:0|0:0|0:0,0:0:0:0:
222,213,127348,5,10,0:0:0:0:
299,213,127518,1,6,0:0:0:0:
376,213,127688,2,0,P|423:188|443:138,1,110,6|10,0:0|0:0,0:0:0:0:
334,29,128366,2,0,P|307:35|286:52,1,55,6|6,0:3|0:3,0:3:0:0:
235,111,128706,2,0,P|213:127|187:134,1,55,10|6,0:3|0:3,0:3:0:0:
110,134,129044,1,6,0:0:0:0:
110,212,129214,1,6,0:0:0:0:
110,290,129384,2,0,L|-7:290,2,110,10|6|8,0:0|0:0|0:0,0:0:0:0:
263,290,130401,5,4,0:0:0:0:
320,128,135659,5,2,0:2:0:0:
320,128,135829,1,2,0:2:0:0:
320,128,135998,2,0,P|346:82|397:64,2,110,2|2|2,0:2|0:2|0:2,0:2:0:0:
283,278,137016,2,0,P|256:323|205:341,3,110,2|2|2|2,0:2|0:2|0:2|0:2,0:2:0:0:
127,341,138203,1,0,0:2:0:0:
110,265,138373,2,0,P|83:219|32:201,2,110,2|2|0,0:2|0:2|0:2,0:2:0:0:
263,265,139390,6,0,L|318:265,1,55,2|2,0:0|0:0,0:0:0:0:
395,265,139730,1,2,0:1:0:0:
395,107,141256,6,0,L|253:107,1,121.000003692627,6|10,0:0|0:0,0:0:0:0:
195,107,141765,2,0,P|165:158|109:174,1,121.000003692627,6|10,0:0|0:0,0:0:0:0:
105,6,142443,2,0,P|132:17|153:39,1,60.5000018463135,6|0,0:0|0:0,0:0:0:0:
195,107,142783,2,0,P|215:128|243:140,1,60.5000018463135,10|0,0:0|0:0,0:0:0:0:
337,164,143122,2,2,P|306:215|252:238,1,121.000003692627,6|6,0:0|0:0,0:2:0:0:
157,218,143631,1,10,0:0:0:0:
63,193,143800,2,2,P|14:226|66:378,1,242.000007385254,6|4,0:0|0:0,0:2:0:0:
245,325,144818,6,0,L|303:311,1,60.5000018463135,6|10,0:0|0:0,0:0:0:0:
380,291,145157,1,2,0:0:0:0:
456,311,145327,2,0,P|468:338|469:368,2,60.5000018463135,4|0|8,0:0|0:0|0:0,0:0:0:0:
416,223,145835,2,0,P|404:164|428:110,1,121.000003692627,4|4,0:0|0:0,0:0:0:0:
490,58,146344,2,0,L|398:58,1,60.5000018463135,8|0,0:0|0:0,0:0:0:0:
331,58,146684,5,6,0:0:0:0:
263,98,146853,2,0,P|235:110|205:111,1,60.5000018463135,2|8,0:0|0:0,0:0:0:0:
127,106,147192,2,0,P|82:145|69:203,1,121.000003692627,6|10,0:0|0:0,0:0:0:0:
152,378,147871,1,6,0:0:0:0:
345,378,148210,1,10,0:0:0:0:
427,203,148549,2,2,P|414:144|369:105,1,121.000003692627,6|6,0:0|0:0,0:2:0:0:
275,130,149058,1,10,0:0:0:0:
180,151,149228,6,2,P|122:137|83:91,1,121.000003692627,6|6,0:0|0:0,0:2:0:0:
83,13,149736,1,10,0:0:0:0:
161,13,149906,2,0,L|289:13,1,121.000003692627,6|6,0:0|0:0,0:0:0:0:
360,13,150415,2,0,L|380:79,1,60.5000018463135,10|2,0:0|0:0,0:0:0:0:
403,145,150754,2,0,P|427:161|457:167,2,60.5000018463135,4|0|8,0:0|0:0|0:0,0:0:0:0:
324,145,151263,2,0,B|264:145|264:145|193:180,1,121.000003692627,4|6,0:0|0:0,0:0:0:0:
144,216,151772,1,10,0:0:0:0:
144,216,151941,1,2,0:0:0:0:
228,264,152111,6,0,P|280:291|350:273,1,121.000003692627,6|8,0:0|0:0,0:0:0:0:
295,194,152619,2,0,P|291:136|241:84,1,121.000003692627,6|4,0:0|0:0,0:0:0:0:
200,172,153128,2,0,P|151:205|152:326,1,181.500005538941,10|4,0:0|0:0,0:0:0:0:
235,271,153807,1,10,0:0:0:0:
235,271,153976,1,2,0:0:0:0:
235,271,154146,2,0,L|90:234,1,121.000003692627,6|10,0:0|0:0,0:0:0:0:
42,218,154655,1,2,0:0:0:0:
42,120,154825,6,2,B|49:59|77:69|84:9,1,121.000003692627,6|8,0:0|0:0,0:2:0:0:
181,8,155333,2,2,B|192:99|233:83|244:174,1,181.500005538941,6|10,0:0|0:0,0:2:0:0:
245,271,156012,1,2,0:0:0:0:
313,340,156181,1,6,0:0:0:0:
410,340,156351,2,0,P|466:323|460:155,1,242.000007385254,10|4,0:0|0:0,0:0:0:0:
414,241,157199,1,10,0:0:0:0:
263,140,157538,5,6,0:0:0:0:
263,140,157708,1,10,0:0:0:0:
112,241,158047,2,0,P|56:261|0:242,1,121.000003692627,6|10,0:0|0:0,0:0:0:0:
150,141,158726,1,6,0:0:0:0:
249,293,159065,1,10,0:0:0:0:
400,193,159404,2,0,P|455:172|512:191,1,121.000003692627,6|10,0:0|0:0,0:0:0:0:
256,192,160082,12,0,161609,1:0:0:0:
256,192,162627,5,10,0:0:0:0:
225,37,162966,1,6,0:0:0:0:
225,37,163135,2,0,P|253:30|283:36,1,60.5000018463135,2|8,0:0|0:0,0:0:0:0:
341,91,163475,2,0,P|380:135|438:147,1,121.000003692627,6|6,0:0|0:0,0:0:0:0:
512,121,163983,1,8,0:0:0:0:
512,218,164153,2,0,P|472:262|414:274,1,121.000003692627,6|10,0:0|0:0,0:0:0:0:
221,254,164831,2,0,P|162:266|123:310,1,121.000003692627,6|6,0:0|0:0,0:0:0:0:
87,381,165340,2,0,L|71:295,1,60.5000018463135,10|2,0:0|0:0,0:0:0:0:
59,244,165679,6,0,B|79:187|79:187|67:126,1,121.000003692627,4|8,0:0|0:0,0:0:0:0:
51,50,166188,1,4,0:0:0:0:
220,50,166527,1,6,0:0:0:0:
236,127,166697,1,10,0:0:0:0:
255,201,166867,2,0,L|370:201,1,110,2|2,0:0|0:0,0:0:0:0:
