osu file format v14

[General]
AudioFilename: audio.mp3
AudioLeadIn: 0
PreviewTime: 140346
Countdown: 0
SampleSet: Soft
StackLeniency: 0.7
Mode: 0
LetterboxInBreaks: 0
WidescreenStoryboard: 1

[Editor]
Bookmarks: 249,5515,16363,32691,43481,54329,65176,76024,86871,97719,108566,119414,130261,141108,151956,161108
DistanceSpacing: 1.3
BeatDivisor: 4
GridSize: 8
TimelineZoom: 4.199998

[Metadata]
Title:This Little Girl (Sped Up Ver.)
TitleUnicode:This Little Girl (Sped Up Ver.)
Artist:Cady Groves
ArtistUnicode:Cady Groves
Creator:AJT
Version:Collab Hard
Source:
Tags:english pop aranel nightcore speed every girl is capable of murder
BeatmapID:3428946
BeatmapSetID:1678029

[Difficulty]
HPDrainRate:4
CircleSize:4
OverallDifficulty:6
ApproachRate:7.5
SliderMultiplier:1.2
SliderTickRate:1

[Events]
//Background and Video events
0,0,"61c62677d8566.jpg",0,0
//Break Periods
2,130461,134860
2,138765,140283
//Storyboard Layer 0 (Background)
//Storyboard Layer 1 (Fail)
//Storyboard Layer 2 (Pass)
//Storyboard Layer 3 (Foreground)
//Storyboard Layer 4 (Overlay)
//Storyboard Sound Samples

[TimingPoints]
92,338.983050847458,4,2,1,30,1,0
134,-100,4,2,1,5,0,0
219,-100,4,2,1,30,0,0
812,-100,4,2,1,5,0,0
897,-100,4,2,1,30,0,0
1490,-100,4,2,1,5,0,0
1575,-100,4,2,1,30,0,0
2168,-100,4,2,1,5,0,0
2253,-100,4,2,1,30,0,0
2846,-100,4,2,1,5,0,0
2931,-100,4,2,1,30,0,0
3524,-100,4,2,1,5,0,0
3609,-100,4,2,1,30,0,0
4202,-100,4,2,1,5,0,0
4287,-100,4,2,1,30,0,0
4880,-100,4,2,1,5,0,0
4965,-100,4,2,1,40,0,0
5176,-111.111111111111,4,2,1,40,0,0
15727,-111.111111111111,4,2,1,5,0,0
15981,-111.111111111111,4,2,1,40,0,0
16066,-111.111111111111,4,2,1,5,0,0
16193,-111.111111111111,4,2,1,40,0,0
16659,-111.111111111111,4,2,1,45,0,0
21108,-111.111111111111,4,2,1,50,0,0
21786,-100,4,2,1,60,0,0
42125,-333.333333333333,4,2,1,70,0,0
43142,-76.9230769230769,4,2,1,70,0,0
43481,-76.9230769230769,4,2,1,85,0,1
63651,-100,4,2,1,70,0,0
64837,-100,4,2,1,70,0,0
65176,-100,4,2,1,70,0,0
75685,-100,4,2,1,70,0,0
76024,-100,4,2,1,70,0,0
81108,-100,4,2,1,70,0,0
81447,-100,4,2,1,70,0,0
86532,-100,4,2,1,70,0,0
86871,-76.9230769230769,4,2,1,85,0,1
108227,-100,4,2,1,70,0,0
108566,-100,4,2,1,70,0,0
111786,-100,4,2,1,70,0,0
130261,-100,4,2,1,70,0,0
135685,-133.333333333333,4,2,1,70,0,0
141108,-76.9230769230769,4,2,37,90,0,1
141193,-76.9230769230769,4,2,1,90,0,1
154668,-76.9230769230769,4,2,1,90,0,1
157549,-76.9230769230769,4,2,1,90,0,1
158566,-76.9230769230769,4,2,1,90,0,1
160092,-100,4,2,1,70,0,0
161447,-76.9230769230769,4,2,1,90,0,1
166702,-100,4,2,1,70,0,0
167357,-100,4,2,1,5,0,0

[Colours]
Combo1 : 213,0,213
Combo2 : 213,0,0
Combo3 : 0,0,213

[HitObjects]
57,46,92,6,0,P|132:57|289:100,3,240,2|2|2|2,0:0|0:0|0:0|0:0,0:0:0:0:
393,41,2464,1,2,0:0:0:0:
290,100,2803,2,0,P|175:65|58:45,3,240,2|2|2|2,0:0|0:0|0:0|0:0,0:0:0:0:
26,118,5007,1,2,0:0:0:0:
26,118,5176,2,0,P|24:142|38:175,1,53.9999983520508,2|0,0:0|0:0,0:0:0:0:
95,212,5515,6,0,B|162:184|215:217|175:228|248:265|305:243,1,215.999993408203,2|0,0:0|0:0,0:0:0:0:
353,194,6363,2,0,L|334:114,2,53.9999983520508,2|2|0,0:0|0:0|0:0,0:0:0:0:
422,232,6871,1,0,0:0:0:0:
422,232,7041,2,0,P|436:299|370:368,1,161.999995056153,2|2,0:0|0:0,0:0:0:0:
307,365,7719,1,0,0:0:0:0:
307,365,7888,1,2,0:0:0:0:
170,306,8227,6,0,B|157:216|157:216|184:185|184:185|172:101,1,215.999993408203,2|2,0:0|0:0,0:0:0:0:
106,65,9075,2,0,L|115:-12,2,53.9999983520508,2|2|0,0:0|0:0|0:0,0:0:0:0:
49,113,9583,2,0,L|68:251,2,107.999996704102,2|2|2,0:0|0:0|0:0,0:0:0:0:
186,28,10600,6,0,L|263:37,1,53.9999983520508,2|0,0:0|0:0,0:0:0:0:
303,73,10939,2,0,L|435:52,1,107.999996704102,2|0,3:0|0:0,0:0:0:0:
319,147,11617,2,0,L|451:126,1,107.999996704102,2|0,0:0|0:0,0:0:0:0:
511,252,12295,6,0,L|445:241,1,53.9999983520508,2|0,0:0|0:0,0:0:0:0:
384,229,12634,1,0,3:0:0:0:
303,354,12973,2,0,L|237:365,1,53.9999983520508,2|0,0:0|0:0,0:0:0:0:
176,377,13312,2,0,L|165:312,1,53.9999983520508,2|0,0:0|0:0,0:0:0:0:
114,271,13651,6,0,L|48:302,2,53.9999983520508,2|0|0,0:0|0:0|0:0,0:0:0:0:
166,324,14159,2,0,P|137:355|61:365,1,107.999996704102,2|0,0:0|0:0,0:0:0:0:
65,294,14668,2,0,L|113:271,2,53.9999983520508,2|0|0,0:0|0:0|0:0,0:0:0:0:
14,241,15176,2,0,P|43:210|119:200,1,107.999996704102,2|0,0:0|0:0,0:0:0:0:
174,226,15685,2,0,P|225:241|281:230,1,107.999996704102,2|2,0:0|0:0,0:0:0:0:
343,192,16193,1,2,0:0:0:0:
343,192,16278,1,2,0:0:0:0:
343,192,16363,1,2,1:0:0:0:
400,40,16702,6,0,P|375:30|348:31,1,53.9999983520508,10|0,3:2|0:0,0:0:0:0:
256,72,17040,1,2,0:0:0:0:
112,40,17380,2,0,P|136:30|163:31,1,53.9999983520508,10|0,3:2|0:0,0:0:0:0:
256,72,17718,1,2,0:0:0:0:
400,40,18058,2,8,P|375:30|348:31,1,53.9999983520508,10|0,3:2|0:0,0:2:0:0:
256,72,18396,1,2,0:0:0:0:
256,184,18736,1,10,0:0:0:0:
256,312,19075,1,2,0:0:0:0:
112,344,19414,6,0,P|136:353|163:352,1,53.9999983520508,10|0,3:2|0:0,0:0:0:0:
256,312,19752,1,2,0:0:0:0:
400,344,20092,2,0,P|375:353|348:352,1,53.9999983520508,10|0,3:2|0:0,0:0:0:0:
256,312,20430,1,2,0:0:0:0:
163,352,20939,5,0,3:0:0:0:
256,312,21108,1,0,1:0:0:0:
256,196,21447,1,0,1:0:0:0:
328,136,21617,1,2,0:0:0:0:
256,71,21786,6,0,B|183:41|125:77|169:89|89:129|28:105,1,240,4|2,1:0|0:0,0:0:0:0:
37,189,22634,2,0,P|72:192|105:182,2,60,2|0|0,0:0|1:0|0:0,0:0:0:0:
15,271,23142,1,2,1:2:0:0:
15,271,23312,2,0,P|80:257|133:285,1,120,2|0,0:0|0:0,0:0:0:0:
154,356,23820,2,0,P|119:359|86:349,2,60,0|2|0,3:2|0:0|1:0,0:0:0:0:
219,304,24329,1,2,0:0:0:0:
296,333,24498,6,8,B|347:325|347:325|365:341|365:341|413:334,1,120,0|8,1:0|0:0,0:0:0:0:
474,282,25007,1,0,3:0:0:0:
451,202,25176,2,0,P|486:199|519:209,2,60,2|2|0,3:2|0:0|1:0,0:0:0:0:
379,158,25685,1,0,0:0:0:0:
400,77,25855,2,0,B|451:92|469:30|512:61,2,120,2|8|0,0:0|0:0|1:0,0:0:0:0:
248,10,26871,6,0,L|170:27,1,60,0|0,1:0|0:0,0:0:0:0:
133,84,27210,1,0,1:0:0:0:
298,81,27549,1,8,0:0:0:0:
138,38,27888,1,0,1:0:0:0:
18,152,28227,1,0,1:0:0:0:
154,245,28566,6,0,L|165:311,1,60,2|2,3:2|0:0,0:0:0:0:
231,232,28905,2,0,L|242:298,1,60,8|2,0:0|0:0,0:0:0:0:
323,362,29244,6,0,L|334:296,1,60,0|2,1:0|0:0,0:0:0:0:
400,375,29583,2,0,L|411:309,1,60,0|2,1:0|0:0,0:0:0:0:
512,249,29922,6,0,L|446:238,1,60,0|0,1:0|0:0,0:0:0:0:
395,178,30261,1,8,0:0:0:0:
323,220,30430,2,0,P|280:256|212:251,1,120,2|0,3:2|0:0,0:0:0:0:
145,293,30939,2,0,P|142:331|137:361,2,60,2|2|2,1:2|0:0|0:0,0:0:0:0:
66,266,31447,2,0,P|69:233|67:142,1,120,2|0,0:0|3:0,0:0:0:0:
103,70,31956,1,0,1:0:0:0:
409,70,32295,1,8,1:0:0:0:
256,280,32634,6,0,L|266:160,1,120,6|0,1:2|3:0,0:0:0:0:
342,170,33142,2,0,L|332:290,1,120,2|0,3:2|0:0,0:0:0:0:
408,299,33651,2,0,L|418:179,1,120,2|0,1:2|3:0,0:0:0:0:
493,188,34159,2,0,L|483:308,1,120,2|0,0:0|3:0,0:0:0:0:
436,369,34668,2,0,P|404:378|376:370,1,60,2|0,0:0|3:0,0:0:0:0:
302,365,35007,2,0,P|280:339|276:310,1,60,8|0,1:0|3:0,0:0:0:0:
249,239,35346,6,0,P|262:181|304:141,2,120,0|2|0,3:0|3:2|0:0,0:0:0:0:
203,301,36193,2,0,B|132:303|171:275|83:265,1,120,2|2,0:0|0:0,0:0:0:0:
27,221,36702,2,0,P|15:188|27:160,1,60,2|2,3:2|0:0,0:0:0:0:
68,103,37041,1,0,3:0:0:0:
68,103,37210,2,0,L|186:91,1,90,2|0,3:2|0:0,0:0:0:0:
195,86,37549,1,8,1:0:0:0:
256,132,37719,2,0,L|326:139,1,60,8|0,1:0|3:0,0:0:0:0:
388,90,38058,6,0,P|402:147|367:211,1,120,2|0,3:2|3:0,0:0:0:0:
374,277,38566,2,0,P|328:313|255:309,1,120,2|0,3:2|0:0,0:0:0:0:
198,342,39075,2,0,P|145:316|118:248,1,120,2|0,1:2|3:0,0:0:0:0:
63,209,39583,2,0,P|64:150|114:97,1,120,2|0,0:0|1:0,0:0:0:0:
176,86,40092,2,0,L|256:103,1,60,2|0,0:0|3:0,0:0:0:0:
215,172,40430,2,0,L|135:155,1,60,8|0,1:0|3:0,0:0:0:0:
101,104,40769,6,0,P|63:58|62:0,2,120,0|2|2,3:0|3:2|0:0,0:0:0:0:
184,280,41786,1,8,1:0:0:0:
256,256,41956,1,0,0:0:0:0:
328,280,42125,1,4,0:0:0:0:
256,384,42973,1,0,1:0:0:0:
256,384,43142,1,0,1:0:0:0:
488,368,43481,6,0,B|499:295|424:280|434:216,1,155.999992858887,4|0,1:0|1:0,0:0:0:0:
371,147,43990,2,0,B|298:135|283:210|219:200,1,155.999992858887,2|2,0:0|0:0,0:0:0:0:
193,108,44498,1,0,1:0:0:0:
140,22,44668,2,0,B|67:10|52:85|-11:75,2,155.999992858887,2|2|2,0:0|0:0|0:0,0:0:0:0:
340,27,45685,2,0,P|384:35|416:53,1,77.9999964294435,2|0,0:0|1:0,0:0:0:0:
352,130,46024,2,0,B|327:207|327:207|346:287,1,155.999992858887,0|2,1:0|0:0,0:0:0:0:
335,379,46532,2,0,P|379:371|411:353,2,77.9999964294435,0|2|0,1:0|0:0|1:0,0:0:0:0:
255,325,47041,1,2,0:0:0:0:
166,365,47210,1,0,1:0:0:0:
166,365,47380,1,2,0:0:0:0:
56,272,47549,6,0,B|35:223|59:184|67:213|94:160|78:119,1,155.999992858887,2|0,3:2|1:0,0:0:0:0:
54,28,48058,2,0,B|102:7|141:31|112:39|165:66|206:50,1,155.999992858887,2|0,0:0|1:0,0:0:0:0:
240,144,48566,1,0,1:0:0:0:
416,236,48905,5,4,1:0:0:0:
348,309,49075,2,0,P|302:310|271:300,1,77.9999964294435,2|0,0:0|3:0,0:0:0:0:
184,251,49414,2,0,B|119:244|96:309|29:292,2,155.999992858887,2|2|2,0:0|0:0|0:0,0:0:0:0:
271,300,50261,2,0,P|309:311|348:309,2,77.9999964294435,0|2|0,3:0|0:0|3:0,0:0:0:0:
184,251,50769,2,0,B|119:244|96:309|29:292,1,155.999992858887,2|2,0:0|0:0,0:0:0:0:
47,193,51278,2,0,P|36:155|38:116,1,77.9999964294435,0|0,1:0|1:0,0:0:0:0:
102,40,51617,6,0,P|154:29|263:24,2,155.999992858887,2|0|0,3:2|3:0|3:0,0:0:0:0:
37,116,52464,2,0,P|36:155|47:193,1,77.9999964294435,2|0,0:0|1:0,0:0:0:0:
37,293,52803,2,0,B|96:309|119:244|184:251,1,155.999992858887,0|2,1:0|0:0,0:0:0:0:
247,173,53312,1,0,3:0:0:0:
415,279,53651,1,0,3:0:0:0:
504,234,53820,2,0,P|516:270|512:309,1,77.9999964294435,0|0,1:0|1:0,0:0:0:0:
439,377,54159,1,2,3:2:0:0:
328,312,54329,6,4,B|239:311|269:362|175:366,1,155.999992858887,6|0,1:0|1:0,1:0:0:0:
86,346,54837,2,0,B|33:286|33:286|63:211,1,155.999992858887,2|0,0:1|0:0,0:0:0:0:
116,133,55346,2,0,L|208:153,1,77.9999964294435,2|0,1:1|0:0,0:0:0:0:
266,216,55685,2,0,L|394:193,1,116.999994644165,0|0,3:0|0:0,0:0:0:0:
429,182,56024,1,0,1:0:0:0:
492,105,56193,1,2,0:0:0:0:
424,30,56363,2,0,L|322:14,1,77.9999964294435,0|2,3:0|0:0,0:0:0:0:
253,53,56702,2,0,L|237:155,1,77.9999964294435,0|2,1:0|0:0,0:0:0:0:
154,232,57041,6,0,P|147:138|98:87,1,155.999992858887,2|0,1:0|1:0,0:0:0:0:
11,124,57549,2,0,P|17:217|66:268,1,155.999992858887,2|0,0:1|0:0,0:0:0:0:
134,325,58058,2,0,L|226:336,1,77.9999964294435,2|0,1:1|0:0,0:0:0:0:
299,381,58397,2,0,L|391:370,2,77.9999964294435,2|2|0,3:2|0:0|1:0,0:0:0:0:
211,334,58905,2,0,P|209:263|254:220,1,116.999994644165,2|0,0:0|0:0,0:0:0:0:
279,204,59244,1,0,1:0:0:0:
363,257,59414,1,0,1:0:0:0:
497,70,59753,5,4,1:0:0:0:
497,70,59922,2,0,L|405:53,1,77.9999964294435,2|0,0:0|3:0,0:0:0:0:
333,5,60261,2,0,B|276:18|276:18|256:55|256:55|201:67,1,155.999992858887,2|2,0:0|0:0,0:0:0:0:
102,82,60769,1,0,1:0:0:0:
15,31,60939,2,0,P|8:109|54:170,2,155.999992858887,2|2|2,0:0|0:0|0:0,0:0:0:0:
169,159,61956,2,0,L|160:255,1,77.9999964294435,2|0,0:0|1:0,0:0:0:0:
232,307,62295,6,0,B|286:294|286:294|306:257|306:257|363:244,2,155.999992858887,0|2|0,1:0|0:0|0:0,0:0:0:0:
52,168,63312,2,0,P|37:112|48:73,1,77.9999964294435,2|0,0:0|1:0,0:0:0:0:
105,27,63651,2,0,B|146:37|146:37|161:65|161:65|205:75,1,120,0|0,1:0|0:0,0:0:0:0:
256,192,64668,1,0,1:0:0:0:
256,192,64837,1,0,1:0:0:0:
309,47,65176,6,0,B|346:31|376:49|354:56|395:77|427:64,1,120,4|8,1:0|0:0,0:0:0:0:
454,136,65685,2,0,P|483:128|524:123,2,60,0|0|2,3:0|3:0|0:0,0:0:0:0:
429,208,66193,2,0,P|400:216|359:221,1,60,0|0,1:0|0:0,0:0:0:0:
314,273,66532,1,0,3:0:0:0:
232,224,66702,2,0,P|167:216|98:236,1,120,2|0,0:0|0:0,0:0:0:0:
52,273,67210,1,0,1:0:0:0:
0,119,67549,1,8,1:0:0:0:
128,35,67888,6,0,B|204:23|204:23|230:46|230:46|301:36,1,180,0|0,1:0|3:0,0:0:0:0:
371,58,68566,2,0,P|369:87|358:132,1,60,2|2,0:0|0:0,0:0:0:0:
449,61,68905,2,0,P|451:90|462:135,1,60,0|0,1:0|0:0,0:0:0:0:
411,181,69244,2,0,P|409:214|392:318,2,120,2|8|0,3:2|1:0|1:0,0:0:0:0:
259,153,70261,6,0,L|182:162,1,60,8|2,1:0|0:0,0:0:0:0:
131,118,70600,1,0,1:0:0:0:
99,268,70939,1,8,0:0:0:0:
228,350,71278,1,2,0:0:0:0:
80,306,71617,1,0,1:2:0:0:
43,156,71956,6,0,L|54:90,1,60,0|2,1:0|0:0,0:0:0:0:
123,65,72295,2,0,L|134:-1,1,60,8|0,0:0|3:0,0:0:0:0:
256,8,72634,6,0,L|267:74,1,60,0|2,1:0|0:0,0:0:0:0:
336,99,72973,2,0,L|347:165,1,60,0|2,1:0|0:0,0:0:0:0:
258,223,73312,6,0,L|192:212,1,60,0|2,1:0|0:0,0:0:0:0:
132,174,73651,1,8,0:0:0:0:
63,208,73820,2,0,P|27:251|32:319,1,120,0|0,3:0|0:0,0:0:0:0:
92,356,74329,2,0,P|130:359|160:364,1,60,8|2,0:0|0:0,0:0:0:0:
218,323,74668,2,0,P|251:320|342:322,1,120,0|8,1:0|3:2,0:0:0:0:
431,359,75176,1,0,3:0:0:0:
431,359,75261,1,0,3:0:0:0:
431,359,75346,2,0,P|435:326|430:292,1,60,0|0,1:0|3:0,0:0:0:0:
376,232,75685,1,2,1:2:0:0:
147,151,76024,6,0,B|131:-1,1,120,6|0,1:2|3:0,0:0:0:0:
211,23,76532,2,0,B|223:142,1,120,2|0,3:2|0:0,0:0:0:0:
300,133,77041,2,0,B|287:13,1,120,0|0,1:0|0:0,0:0:0:0:
365,5,77549,2,0,B|377:124,1,120,2|0,0:0|3:0,0:0:0:0:
438,175,78058,2,0,P|434:209|417:237,1,60,2|0,0:0|3:0,0:0:0:0:
404,307,78397,2,0,P|372:320|339:319,1,60,8|2,1:0|0:0,0:0:0:0:
276,354,78736,6,0,P|229:317|205:262,2,120,0|0|2,3:0|1:0|0:0,0:0:0:0:
347,321,79583,2,0,P|373:319|442:206,1,120,2|2,0:0|0:0,0:0:0:0:
488,197,80092,2,0,L|479:118,1,60,0|2,3:0|0:0,0:0:0:0:
431,84,80431,1,0,1:0:0:0:
431,84,80600,2,0,L|313:72,1,90,2|0,3:2|0:0,0:0:0:0:
302,68,80939,1,8,1:0:0:0:
256,132,81108,2,0,L|186:139,1,60,8|0,1:0|0:0,0:0:0:0:
124,90,81447,6,0,P|110:147|145:211,1,120,2|0,1:2|3:0,0:0:0:0:
138,277,81955,2,0,P|184:313|257:309,1,120,2|0,3:2|0:0,0:0:0:0:
314,342,82465,2,0,P|367:316|394:248,2,120,8|0|0,1:0|3:0|1:0,0:0:0:0:
243,314,83312,1,0,0:0:0:0:
243,314,83482,2,0,L|226:234,1,60,2|2,0:0|3:2,0:0:0:0:
288,203,83820,2,0,L|305:123,1,60,8|2,1:0|0:0,0:0:0:0:
251,83,84159,2,0,P|193:74|141:114,2,120,0|0|2,3:0|1:0|0:0,0:0:0:0:
390,152,85176,6,0,L|364:232,1,60,10|0,1:2|0:0,0:0:0:0:
342,281,85515,1,4,1:0:0:0:
170,281,85854,2,0,L|144:201,1,60,0|0,1:0|0:0,0:0:0:0:
122,152,86193,1,2,0:0:0:0:
122,152,86363,1,0,1:0:0:0:
174,94,86532,2,0,P|211:69|255:67,1,90,0|0,1:0|0:0,0:0:0:0:
278,21,86871,6,0,B|351:10|366:85|430:75,1,155.999992858887,4|0,1:0|1:0,0:0:0:0:
419,178,87380,2,0,B|346:166|331:241|267:231,1,155.999992858887,2|2,0:0|0:0,0:0:0:0:
195,172,87888,1,0,1:0:0:0:
108,225,88058,2,0,B|87:303|55:376,2,155.999992858887,2|2|2,0:0|0:0|0:0,0:0:0:0:
122,22,89075,2,0,P|166:30|198:48,1,77.9999964294435,2|0,0:0|1:0,0:0:0:0:
250,130,89414,2,0,B|327:155|327:155|407:136,1,155.999992858887,0|2,1:0|0:0,0:0:0:0:
500,150,89922,2,0,P|492:106|474:74,2,77.9999964294435,0|2|0,1:0|0:0|1:0,0:0:0:0:
443,234,90431,1,2,0:0:0:0:
360,296,90600,1,0,1:0:0:0:
360,296,90770,1,2,0:0:0:0:
271,216,90939,6,0,B|222:195|183:219|212:227|159:254|118:238,1,155.999992858887,2|0,3:2|1:0,0:0:0:0:
148,339,91448,2,0,B|100:318|61:342|90:350|37:377|-4:361,1,155.999992858887,2|0,0:0|1:0,0:0:0:0:
23,263,91956,1,0,1:0:0:0:
90,71,92295,5,4,1:0:0:0:
173,129,92465,2,0,P|219:128|250:138,1,77.9999964294435,2|0,0:0|3:0,0:0:0:0:
224,236,92804,2,0,B|159:243|136:178|69:195,2,155.999992858887,2|2|2,0:0|0:0|0:0,0:0:0:0:
295,308,93651,2,0,P|284:346|286:385,2,77.9999964294435,0|2|0,3:2|0:0|0:0,0:0:0:0:
340,217,94159,2,0,P|383:156|405:225,1,155.999992858887,2|2,0:0|0:0,0:0:0:0:
510,221,94668,2,0,P|511:182|501:145,1,77.9999964294435,0|0,1:0|1:0,0:0:0:0:
429,72,95007,6,0,P|377:61|268:56,1,155.999992858887,2|0,3:2|1:0,0:0:0:0:
73,25,95685,1,0,3:0:0:0:
130,107,95854,2,0,P|131:146|120:184,1,77.9999964294435,2|0,0:0|1:0,0:0:0:0:
19,196,96193,2,0,B|78:180|101:245|166:238,1,155.999992858887,0|2,1:0|0:0,0:0:0:0:
165,340,96702,1,0,3:0:0:0:
367,328,97041,1,0,3:0:0:0:
464,323,97210,1,0,1:0:0:0:
459,225,97380,1,0,1:0:0:0:
362,231,97548,1,2,3:2:0:0:
260,284,97719,6,4,P|211:230|211:148,1,155.999992858887,6|0,1:0|1:0,1:0:0:0:
149,69,98227,2,0,P|221:53|292:94,1,155.999992858887,2|0,0:1|0:0,0:0:0:0:
349,174,98736,2,0,L|442:160,1,77.9999964294435,2|0,1:0|0:0,0:0:0:0:
456,65,99075,2,0,L|340:85,1,116.999994644165,0|0,3:0|0:0,0:0:0:0:
290,91,99414,1,0,1:0:0:0:
209,151,99583,1,2,0:0:0:0:
128,211,99753,2,0,L|26:195,1,77.9999964294435,0|2,3:0|0:0,0:0:0:0:
5,107,100092,2,0,L|82:94,1,77.9999964294435,0|2,1:0|0:0,0:0:0:0:
209,151,100431,6,0,L|232:308,1,155.999992858887,2|0,1:0|1:0,0:0:0:0:
311,368,100939,2,0,L|468:345,1,155.999992858887,2|0,0:1|0:0,0:0:0:0:
507,252,101447,2,0,P|508:213|474:169,1,77.9999964294435,2|0,1:1|0:0,0:0:0:0:
477,79,101786,2,0,P|445:56|389:59,2,77.9999964294435,2|2|0,3:2|0:0|1:0,0:0:0:0:
488,180,102295,2,0,L|367:138,1,116.999994644165,2|0,0:0|0:0,0:0:0:0:
330,122,102634,1,0,1:0:0:0:
256,192,102804,1,0,1:0:0:0:
35,384,103143,5,4,1:0:0:0:
35,384,103312,2,0,P|56:348|52:292,1,77.9999964294435,2|0,0:0|3:0,0:0:0:0:
10,225,103651,2,0,B|77:192|97:252|173:226,1,155.999992858887,2|2,0:0|0:0,0:0:0:0:
256,192,104159,1,0,1:0:0:0:
297,98,104329,2,0,P|347:156|347:233,2,155.999992858887,2|2|2,0:0|0:0|0:0,0:0:0:0:
494,48,105346,2,0,L|480:146,1,77.9999964294435,2|0,0:0|1:0,0:0:0:0:
498,228,105685,6,0,B|431:195|411:255|335:229,2,155.999992858887,0|2|0,1:0|0:0|0:0,0:0:0:0:
327,338,106702,2,0,P|282:323|243:316,1,77.9999964294435,2|0,0:0|1:0,0:0:0:0:
174,251,107041,2,0,B|141:184|201:164|175:88,2,155.999992858887,0|2|0,1:0|0:0|0:0,0:0:0:0:
100,321,107888,1,0,1:0:0:0:
178,384,108058,1,8,1:0:0:0:
252,317,108227,1,8,1:0:0:0:
97,128,108566,5,4,1:0:0:0:
210,21,108905,2,0,P|238:14|276:19,1,60,0|0,1:0|3:0,0:0:0:0:
331,63,109244,1,0,1:0:0:0:
331,63,109414,1,0,3:0:0:0:
405,39,109583,2,0,P|433:32|471:37,1,60,0|0,1:0|3:0,0:0:0:0:
481,110,109922,1,0,1:0:0:0:
437,175,110092,2,0,P|409:168|371:173,1,60,0|0,3:0|1:0,0:0:0:0:
314,215,110430,2,0,P|314:226|313:236,12,15,0|0|0|0|0|0|0|0|0|0|0|0|0,1:0|0:0|0:0|0:0|0:0|0:0|0:0|0:0|0:0|0:0|0:0|0:0|0:0,0:0:0:0:
252,150,111108,6,0,P|191:141|125:148,1,120,2|0,0:0|0:0,0:0:0:0:
20,254,111786,2,0,P|29:315|22:381,1,120,2|0,0:0|0:0,0:0:0:0:
102,374,112295,2,0,P|132:371|185:372,1,60,0|0,1:0|0:0,0:0:0:0:
239,360,112634,2,0,P|230:299|237:233,1,120,2|0,1:2|0:0,0:0:0:0:
282,178,113142,2,0,P|343:169|409:176,1,120,2|0,1:2|0:0,0:0:0:0:
463,221,113651,2,0,P|472:282|465:348,1,120,8|4,1:0|1:0,0:0:0:0:
286,353,114329,5,0,1:0:0:0:
286,353,114499,1,0,3:0:0:0:
286,353,114669,2,0,P|256:356|227:349,1,60,0|0,1:0|0:0,0:0:0:0:
174,298,115007,1,0,1:0:0:0:
174,298,115177,1,0,3:0:0:0:
174,298,115347,2,0,P|171:268|178:239,1,60,0|0,1:0|0:0,0:0:0:0:
245,188,115685,1,0,1:0:0:0:
245,188,115855,1,0,3:0:0:0:
245,188,116025,2,0,P|275:185|304:192,1,60,0|0,1:0|0:0,0:0:0:0:
345,278,116363,5,8,1:0:0:0:
421,312,116532,1,0,3:0:0:0:
480,248,116702,2,0,P|487:220|482:182,1,60,0|0,1:0|3:0,0:0:0:0:
441,116,117041,2,0,P|413:123|375:118,1,60,0|0,1:0|0:0,0:0:0:0:
324,58,117380,2,0,P|296:51|258:56,1,60,0|0,1:0|3:0,0:0:0:0:
208,115,117719,2,0,P|180:122|142:117,1,60,0|0,1:0|0:0,0:0:0:0:
84,173,118058,1,0,1:0:0:0:
256,192,118142,12,4,119414,1:0:0:0:
0,192,119753,6,0,L|72:176,1,60,0|0,1:0|3:0,0:0:0:0:
80,256,120092,2,0,L|21:269,1,60,0|0,1:0|3:0,0:0:0:0:
42,346,120430,2,0,L|100:332,1,60,8|0,1:0|3:0,0:0:0:0:
176,312,120770,1,0,1:0:0:0:
256,192,121108,1,0,1:0:0:0:
336,72,121447,1,0,1:0:0:0:
176,72,121786,5,8,1:0:0:0:
188,152,121956,1,0,3:0:0:0:
256,192,122125,1,0,1:0:0:0:
336,72,122464,5,0,1:0:0:0:
324,152,122634,1,0,3:0:0:0:
256,192,122803,1,0,1:0:0:0:
176,72,123142,5,8,1:0:0:0:
256,48,123312,1,0,3:0:0:0:
336,72,123481,1,2,1:0:0:0:
256,192,123820,1,2,1:0:0:0:
176,312,124159,1,2,1:0:0:0:
336,312,124498,6,0,L|408:328,1,60,12|0,1:0|3:0,0:0:0:0:
472,344,124837,1,0,1:0:0:0:
512,192,125176,6,0,L|440:208,1,60,0|0,1:0|3:0,0:0:0:0:
432,128,125515,2,0,L|490:114,1,60,0|0,1:0|3:0,0:0:0:0:
470,38,125853,2,0,L|411:51,1,60,8|0,1:0|3:0,0:0:0:0:
336,72,126193,1,0,1:0:0:0:
256,192,126531,1,0,1:0:0:0:
176,312,126870,1,0,1:0:0:0:
336,312,127209,5,10,1:0:0:0:
324,232,127379,1,0,3:0:0:0:
256,192,127548,1,0,1:0:0:0:
176,72,127887,1,0,1:0:0:0:
336,72,128226,1,0,1:0:0:0:
324,152,128397,1,0,3:0:0:0:
256,192,128565,1,8,1:0:0:0:
188,232,128735,1,0,3:0:0:0:
176,312,128905,6,0,L|104:328,2,60,0|0|0,1:0|3:0|1:0,0:0:0:0:
336,312,129583,2,0,L|394:325,2,60,0|0|8,1:0|0:0|1:0,0:0:0:0:
256,192,130261,1,2,0:0:0:0:
480,64,135685,6,0,P|435:70|376:82,1,90.0000034332277,2|0,0:0|0:0,0:0:0:0:
406,159,136193,2,0,P|450:150|494:144,1,90.0000034332277,2|0,0:0|0:0,0:0:0:0:
320,240,136871,2,0,P|275:234|216:222,1,90.0000034332277,2|0,0:0|0:0,0:0:0:0:
215,306,137379,1,0,0:0:0:0:
215,306,137549,2,0,P|259:314|303:320,1,90.0000034332277,2|0,0:0|0:0,0:0:0:0:
512,368,138227,2,0,P|467:376|423:382,1,90.0000034332277,2|0,0:0|0:0,0:0:0:0:
96,375,141108,6,0,B|88:324|88:324|107:279|107:279|97:224,1,155.999992858887,4|0,1:0|1:0,0:0:0:0:
4,181,141617,2,0,P|70:125|156:141,1,155.999992858887,2|2,0:0|0:0,0:0:0:0:
219,186,142125,1,0,1:0:0:0:
314,149,142295,2,0,P|390:148|445:200,2,155.999992858887,2|0|2,0:0|0:0|0:0,0:0:0:0:
219,186,143142,2,0,P|201:229|203:283,1,77.9999964294435,0|2,0:0|0:0,0:0:0:0:
247,355,143481,1,2,1:2:0:0:
247,355,143651,6,0,B|309:329|339:409|410:378,2,155.999992858887,2|0|0,3:2|0:0|0:0,0:0:0:0:
146,340,144498,1,0,1:0:0:0:
146,340,144668,1,2,0:0:0:0:
200,260,144837,1,2,1:2:0:0:
200,260,145007,2,0,P|196:221|84:161,1,155.999992858887,2|0,0:0|0:0,0:0:0:0:
15,115,145515,1,0,1:0:0:0:
93,46,145685,2,0,B|153:21|183:101|239:75,1,155.999992858887,2|0,0:0|1:0,0:0:0:0:
331,33,146193,1,0,1:0:0:0:
429,252,146532,5,4,1:0:0:0:
335,213,146702,2,0,L|315:116,1,77.9999964294435,2|0,0:0|3:0,0:0:0:0:
238,75,147041,2,0,B|176:65|170:150|105:142,1,155.999992858887,2|2,0:0|0:0,0:0:0:0:
19,196,147549,1,0,1:0:0:0:
48,293,147719,2,0,B|220:313,1,155.999992858887,2|2,0:0|0:0,0:0:0:0:
278,379,148227,1,0,1:0:0:0:
278,379,148397,2,0,L|347:326,1,77.9999964294435,2|0,3:2|0:0,0:0:0:0:
440,344,148736,2,0,P|445:301|452:253,1,77.9999964294435,2|0,3:2|1:0,0:0:0:0:
376,193,149075,6,0,P|371:141|356:32,2,155.999992858887,0|2|0,1:0|0:0|3:0,0:0:0:0:
229,333,150091,2,0,P|190:334|153:314,1,77.9999964294435,2|0,0:0|1:0,0:0:0:0:
59,350,150430,2,0,P|58:282|129:217,1,155.999992858887,0|2,1:0|0:0,0:0:0:0:
196,157,150939,1,0,3:0:0:0:
196,157,151108,2,0,L|309:174,1,77.9999964294435,0|0,3:0|3:0,0:0:0:0:
354,229,151447,1,0,1:0:0:0:
442,178,151617,1,0,1:0:0:0:
452,77,151786,1,2,1:2:0:0:
352,0,151956,6,0,B|307:-29|233:39|195:-5,1,155.999992858887,6|0,1:2|1:0,0:0:0:0:
112,50,152464,2,0,P|184:34|255:75,1,155.999992858887,2|0,1:2|0:0,0:0:0:0:
308,158,152973,2,0,P|307:207|294:240,1,77.9999964294435,2|0,1:2|0:0,0:0:0:0:
264,330,153312,2,0,P|207:355|148:350,1,116.999994644165,0|0,1:0|0:0,0:0:0:0:
108,328,153651,1,2,1:2:0:0:
51,244,153820,1,2,0:0:0:0:
83,147,153990,2,0,P|121:133|185:131,1,77.9999964294435,2|0,1:2|3:0,0:0:0:0:
251,167,154329,1,8,1:2:0:0:
328,102,154498,1,2,0:0:0:0:
239,52,154668,6,2,B|315:96|331:8|396:29,1,155.999992858887,2|2,1:0|0:1,0:1:0:0:
512,112,155176,2,2,L|355:135,1,155.999992858887,2|0,3:1|0:0,0:1:0:0:
280,200,155684,2,0,P|279:239|313:283,1,77.9999964294435,2|2,1:1|3:1,0:0:0:0:
237,354,156024,1,2,1:2:0:0:
237,354,156193,2,0,P|205:331|149:334,1,77.9999964294435,2|0,3:2|0:0,0:0:0:0:
68,352,156532,2,0,P|40:320|26:231,1,116.999994644165,2|2,3:2|0:0,0:1:0:0:
63,217,156871,1,8,1:0:0:0:
25,122,157041,1,8,1:0:0:0:
207,32,157380,5,4,1:0:0:0:
286,94,157549,2,0,P|322:73|362:76,1,77.9999964294435,2|0,0:0|1:0,0:0:0:0:
454,103,157888,2,0,B|487:170|427:190|453:266,1,155.999992858887,2|2,0:0|0:0,0:0:0:0:
381,330,158396,1,0,1:0:0:0:
281,308,158566,2,0,B|268:263|181:337|146:258,2,155.999992858887,2|2|2,0:0|0:0|0:0,0:0:0:0:
204,119,159583,2,0,P|168:105|117:102,2,77.9999964294435,2|0|0,0:0|1:0|3:0,0:0:0:0:
291,184,160092,6,0,P|309:183|336:187,3,30,0|0|0|0,1:0|1:0|1:0|1:0,0:0:0:0:
360,209,160430,2,0,P|364:229|363:254,3,30,0|0|0|0,1:0|1:0|1:0|1:0,0:0:0:0:
340,280,160769,2,0,P|322:281|295:277,3,30,0|0|0|0,1:0|1:0|1:0|1:0,0:0:0:0:
283,320,161108,1,10,1:0:0:0:
475,382,161447,6,0,P|454:307|454:226,1,155.999992858887,0|0,3:0|1:0,0:0:0:0:
395,145,161956,2,0,P|406:107|425:74,1,77.9999964294435,0|0,3:0|3:0,0:0:0:0:
358,0,162295,1,8,1:0:0:0:
282,71,162464,1,8,1:0:0:0:
283,320,162803,5,4,1:0:0:0:
283,320,162972,2,0,L|183:337,1,77.9999964294435,2|0,0:0|1:0,0:0:0:0:
116,381,163311,2,0,B|63:328|63:328|83:222,1,155.999992858887,2|0,0:0|0:0,0:0:0:0:
105,150,163819,1,0,1:0:0:0:
201,118,163989,2,0,P|151:59|73:56,2,155.999992858887,2|2|2,0:0|2:2|2:0,0:0:0:0:
277,307,165007,1,0,3:0:0:0:
371,272,165176,1,2,0:0:0:0:
404,176,165346,6,0,P|462:225|466:304,2,155.999992858887,2|0|0,0:0|0:0|3:0,0:0:0:0:
255,316,166363,1,0,1:0:0:0:
172,284,166532,1,0,1:0:0:0:
138,200,166702,2,0,P|89:241|85:307,1,120,2|0,0:0|0:0,0:0:0:0:
