osu file format v14

[General]
AudioFilename: audio.mp3
AudioLeadIn: 0
PreviewTime: 43563
Countdown: 1
SampleSet: Soft
StackLeniency: 0.7
Mode: 0
LetterboxInBreaks: 0
WidescreenStoryboard: 0

[Editor]
DistanceSpacing: 1.5
BeatDivisor: 4
GridSize: 16
TimelineZoom: 1

[Metadata]
Title:This Little Girl
TitleUnicode:This Little Girl
Artist:Cady Groves
ArtistUnicode:Cady Groves
Creator:Hierarhi
Version:Hard???
Source:
Tags:
BeatmapID:1330773
BeatmapSetID:630384

[Difficulty]
HPDrainRate:5
CircleSize:2
OverallDifficulty:7
ApproachRate:8
SliderMultiplier:1.4
SliderTickRate:1

[Events]
//Background and Video events
0,0,"halloween-2.jpg",0,0
//Break Periods
2,108552,118796
//Storyboard Layer 0 (Background)
//Storyboard Layer 1 (Fail)
//Storyboard Layer 2 (Pass)
//Storyboard Layer 3 (Foreground)
//Storyboard Sound Samples

[TimingPoints]
144,339.21302578019,4,2,0,44,1,0
5062,-166.666666666667,4,2,0,44,0,0
10998,-166.666666666667,4,2,0,44,0,0
16186,-142.857142857143,4,2,0,44,0,0
16525,-125,4,2,0,44,0,0
26856,-125,4,2,0,44,0,0
26941,-125,4,2,0,44,0,0
27156,-125,4,2,0,44,0,0
27450,-125,4,2,0,44,0,0
27620,-125,4,2,0,44,0,0
27789,-125,4,2,0,44,0,0
27959,-125,4,2,0,44,0,0
28129,-125,4,2,0,44,0,0
28298,-125,4,2,0,44,0,0
29637,-125,4,2,0,44,0,0
37542,-125,4,2,0,44,0,0
37627,-125,4,2,0,44,0,0
43563,-79.9999999999999,4,2,0,44,0,1
48397,-79.9999999999999,4,2,0,44,0,1
48482,-79.9999999999999,4,2,0,44,0,1
53824,-79.9999999999999,4,2,0,44,0,1
53909,-79.9999999999999,4,2,0,44,0,1
59251,-79.9999999999999,4,2,0,44,0,1
59336,-79.9999999999999,4,2,0,44,0,1
59451,-79.9999999999999,4,2,0,44,0,1
63322,-79.9999999999999,4,2,0,44,0,1
63407,-79.9999999999999,4,2,0,44,0,1
63746,-133.333333333333,4,2,0,44,0,0
64085,-133.333333333333,4,2,0,44,0,0
64764,-125,4,2,0,44,0,0
64964,-125,4,2,0,44,0,0
80961,-125,4,2,0,44,0,0
81061,-125,4,2,0,44,0,0
86982,-79.9999999999999,4,2,0,44,0,1
87182,-79.9999999999999,4,2,0,44,0,1
90559,-79.9999999999999,4,2,0,44,0,1
90644,-79.9999999999999,4,2,0,44,0,1
91901,-79.9999999999999,4,2,0,44,0,1
92016,-79.9999999999999,4,2,0,44,0,1
97328,-79.9999999999999,4,2,0,44,0,1
97443,-79.9999999999999,4,2,0,44,0,1
102771,-79.9999999999999,4,2,0,44,0,1
106809,-79.9999999999999,4,2,0,44,0,1
106826,-79.9999999999999,4,2,0,44,0,1
106829,-79.9999999999999,4,2,0,44,0,1
106941,-79.9999999999999,4,2,0,44,0,1
107022,-133.333333333333,4,2,0,44,0,1
107722,-79.9999999999999,4,2,0,44,0,1
108183,-79.9999999999999,4,2,0,44,0,1
108692,-79.9999999999999,4,2,0,44,0,0
130401,-166.666666666667,4,2,0,44,0,0
131758,-166.666666666667,4,2,0,44,0,0
131928,-166.666666666667,4,2,0,44,0,0
132267,-166.666666666667,4,2,0,44,0,0
132437,-166.666666666667,4,2,0,44,0,0
132606,-166.666666666667,4,2,0,44,0,0
132776,-166.666666666667,4,2,0,44,0,0
132906,-166.666666666667,4,2,0,44,0,0
133624,-125,4,2,0,44,0,0
134572,-166.666666666667,4,2,0,44,0,0
135929,-125,4,2,0,44,0,0
139221,-125,4,2,0,44,0,0
139390,-125,4,2,0,44,0,0
141256,-79.9999999999999,4,2,0,44,0,1
146090,-79.9999999999999,4,2,0,44,0,1
146256,-79.9999999999999,4,2,0,44,0,1
146804,-79.9999999999999,4,2,0,44,0,1
148888,-79.9999999999999,4,2,0,44,0,1
149104,-79.9999999999999,4,2,0,44,0,1
151517,-79.9999999999999,4,2,0,44,0,1
151717,-79.9999999999999,4,2,0,44,0,1
156945,-79.9999999999999,4,2,0,44,0,1
157030,-79.9999999999999,4,2,0,44,0,1
160252,-83.3333333333333,4,2,0,44,0,0
161609,-79.9999999999999,4,2,0,44,0,1
166443,-79.9999999999999,4,2,0,44,0,1
166867,-133.333333333333,4,2,0,44,0,0
167206,-133.333333333333,4,2,0,44,0,0

[HitObjects]
93,85,398,6,2,L|143:206,1,70
259,266,992,1,0,0:0:0:0:
289,97,1416,2,2,L|354:180,1,105
330,184,2348,1,0,0:0:0:0:
205,293,2518,2,2,L|313:286,1,70
465,278,2857,2,2,L|358:283,1,70
279,287,3536,1,0,0:0:0:0:
434,163,4214,2,2,P|413:69|385:33,1,140
403,283,5062,1,0,0:0:0:0:
252,294,5232,2,2,P|215:292|196:299,2,41.9999987182618
257,170,6080,2,2,P|285:211|309:240,1,83.9999974365235
411,285,6589,2,2,L|353:212,1,83.9999974365235
418,154,7267,1,0,0:0:0:0:
456,279,7437,2,2,P|416:317|374:319,1,83.9999974365235
297,268,7945,1,2,0:0:0:0:
218,310,8285,1,2,0:0:0:0:
122,330,8624,2,2,B|95:298|75:262|76:226,1,83.9999974365235
50,155,9133,1,2,0:0:0:0:
165,83,9302,2,0,B|194:143|264:83|266:85,1,104.999996795654
442,184,9981,2,2,L|363:182,1,41.9999987182618
264,211,10489,1,0,0:0:0:0:
144,262,10744,2,0,P|128:305|127:320,1,41.9999987182618
53,184,11168,2,8,P|56:139|59:108,2,62.9999980773926
77,270,11931,2,0,B|102:288|131:283|166:257,1,83.9999974365235
267,312,12525,5,2,0:0:0:0:
200,245,12864,1,2,0:0:0:0:
166,320,13034,2,2,L|113:322,1,41.9999987182618,10|2,0:0|0:0,0:0:0:0:
131,227,13373,2,2,L|212:227,1,41.9999987182618
256,305,13712,1,0,0:0:0:0:
256,305,13882,1,0,0:0:0:0:
329,229,14221,2,0,P|324:183|298:135,1,83.9999974365235
225,89,14730,2,10,L|129:88,2,83.9999974365235,2|0|0,0:0|0:0|0:0,0:0:0:0:
392,138,15578,1,2,0:0:0:0:
180,212,16087,2,2,L|162:285,1,41.9999987182618
265,350,16595,2,8,L|278:274,2,41.9999987182618
117,307,17104,2,0,L|25:300,1,83.9999974365235,2|0,0:0|0:0,0:0:0:0:
74,188,17613,1,8,0:0:0:0:
137,66,17952,2,0,L|136:10,1,41.9999987182618,2|0,0:0|0:0,0:0:0:0:
199,164,18461,2,2,B|230:198|232:249|221:268,1,83.9999974365235
147,329,18970,2,10,L|132:238,1,83.9999974365235
120,132,19479,2,0,L|182:155,1,41.9999987182618
220,244,19987,1,8,0:0:0:0:
130,196,20157,1,8,0:0:0:0:
61,275,20327,2,0,L|118:304,1,41.9999987182618,2|0,0:0|0:0,0:0:0:0:
242,60,21344,1,4,0:0:0:0:
242,60,21514,1,4,0:0:0:0:
242,60,21684,6,0,L|366:60,2,112
255,136,22701,1,2,0:0:0:0:
313,59,22871,2,2,B|359:85|364:101|365:128,1,83.9999974365235
351,243,23380,2,2,L|346:312,1,41.9999987182618
272,333,23719,1,0,0:0:0:0:
212,315,23888,1,0,0:0:0:0:
106,317,24058,2,2,B|80:271|86:240|92:214,1,83.9999974365235
123,106,24567,2,2,P|129:54|123:20,1,83.9999974365235
267,33,25076,2,2,L|360:38,1,83.9999974365235
246,146,25584,2,2,L|343:145,1,84
461,205,26008,2,2,P|441:272|408:291,2,112
301,99,26772,2,0,L|307:170,1,41.9999987182618
324,229,27281,5,2,0:0:0:0:
225,172,27450,1,0,0:0:0:0:
145,274,27620,2,0,P|216:288|234:278,1,83.9999974365235,2|2,0:0|0:0,0:0:0:0:
388,255,28129,1,0,0:0:0:0:
331,181,28468,2,2,L|345:84,1,83.9999974365235
414,61,28977,2,0,L|480:69,2,41.9999987182618
218,163,29485,1,0,0:0:0:0:
154,295,29655,2,10,L|257:310,2,83.9999974365235
93,205,30333,2,0,B|93:167|85:114|95:99,1,84
197,71,30757,2,0,L|257:82,2,56
182,240,31351,2,2,L|163:162,1,56
263,276,31690,2,0,L|333:253,1,56
387,72,32199,2,2,L|277:72,1,83.9999974365235
294,177,32623,2,2,L|305:255,1,41.9999987182618
379,313,32962,2,0,P|421:231|421:182,1,112
392,104,33386,1,0,0:0:0:0:
307,158,33726,1,0,0:0:0:0:
235,266,33895,2,0,B|291:286|324:282|340:269,1,56
381,187,34234,2,0,P|376:113|362:71,1,112
258,193,34913,1,0,0:0:0:0:
210,121,35082,1,0,0:0:0:0:
155,51,35422,6,0,L|263:44,1,56
329,114,35930,1,2,0:0:0:0:
292,60,36100,1,2,0:0:0:0:
292,60,36270,1,2,0:0:0:0:
223,138,36609,2,0,P|245:225|269:262,2,112
293,77,37627,1,2,0:0:0:0:
293,77,37796,1,2,0:0:0:0:
364,150,37966,2,0,L|380:236,1,56
289,318,38305,2,0,L|281:255,1,56
215,178,38644,1,0,0:0:0:0:
130,243,38814,2,0,P|153:296|187:307,1,56,2|0,0:0|0:0,0:0:0:0:
278,329,39153,2,0,L|314:276,1,56
258,134,39662,2,2,L|310:202,1,56
369,260,40001,1,2,0:0:0:0:
264,260,40171,1,2,0:0:0:0:
264,260,40425,1,2,0:0:0:0:
277,168,40679,2,0,L|308:106,1,56
439,138,41188,1,0,0:0:0:0:
400,236,41358,2,0,P|351:317|323:329,1,112,0|2,0:0|0:0,0:0:0:0:
225,342,41867,2,0,L|134:337,2,56
342,327,42376,1,0,0:0:0:0:
342,327,42545,1,0,0:0:0:0:
294,262,42715,1,0,0:0:0:0:
189,257,42884,2,0,L|74:265,1,112
251,52,43563,5,0,0:0:0:0:
251,52,43732,2,0,L|376:57,2,87.5
251,52,44326,1,0,0:0:0:0:
142,116,44580,2,0,P|192:224|210:231,2,131.25
234,85,45513,2,2,B|321:109|323:170|326:186|307:206,1,131.25
341,319,46022,2,0,P|331:249|344:193,1,87.5
36,161,46616,1,0,0:0:0:0:
131,104,46870,1,2,0:0:0:0:
120,233,46955,2,2,B|103:287|123:311|156:330,1,87.5
202,171,47379,2,0,L|205:75,1,87.5
363,54,47803,2,2,L|293:59,1,43.75
372,213,48057,1,0,0:0:0:0:
259,193,48312,1,0,0:0:0:0:
403,112,48566,2,2,L|455:57,1,43.75
322,46,48905,2,2,L|253:37,1,43.75
211,166,49160,2,2,B|213:225|277:253|307:249,2,131.25
403,133,49923,5,2,0:0:0:0:
432,257,50093,2,0,P|401:312|348:338,1,87.5
278,339,50517,2,2,L|184:323,2,87.5
209,211,51280,2,0,B|238:168|241:119|228:93,2,87.5
135,286,51704,1,0,0:0:0:0:
126,185,51873,2,0,P|132:82|146:65,1,87.5
330,65,52298,2,0,L|400:75,1,43.75
393,202,52552,2,0,L|384:257,1,43.75
280,202,52976,1,0,0:0:0:0:
386,146,53146,1,0,0:0:0:0:
254,60,53315,2,0,B|210:72|145:121|150:155,1,131.25
321,323,53994,2,2,P|382:315|399:294,2,87.5
321,323,54502,1,0,0:0:0:0:
186,331,54672,2,0,B|132:301|114:255|116:229,1,87.5
117,156,55011,2,2,L|146:22,1,131.25
320,109,55520,5,0,0:0:0:0:
388,202,55690,1,0,0:0:0:0:
283,297,55859,2,0,B|242:257|238:232|226:177,1,131.25
354,76,56368,2,2,L|403:154,2,87.5,0|2|2,0:0|0:0|0:0,0:0:0:0:
250,90,56877,1,0,0:0:0:0:
256,216,57216,1,0,0:0:0:0:
256,216,57386,1,0,0:0:0:0:
382,226,57471,2,0,P|378:285|325:309,1,87.5
231,336,57810,2,0,P|252:239|258:222,1,87.5
210,114,58149,2,0,P|132:80|114:83,2,87.5
291,169,58997,5,0,0:0:0:0:
307,275,59251,1,2,0:0:0:0:
111,163,59591,1,0,0:0:0:0:
188,71,59845,2,2,B|235:86|265:114|259:158,1,87.5
196,212,60184,1,0,0:0:0:0:
101,291,60439,2,0,P|205:328|263:294,1,175
325,182,60947,2,0,L|332:39,2,131.25
286,262,61626,1,0,0:0:0:0:
192,304,61880,2,0,P|115:283|99:202,1,131.25
270,84,62474,6,0,P|327:59|351:31,2,87.5
211,229,63152,1,0,0:0:0:0:
162,309,63492,2,0,L|267:307,1,87.5
255,192,63831,2,0,L|337:192,1,78.7500030040742
429,210,64255,1,0,0:0:0:0:
110,142,64933,2,0,L|150:53,1,84
237,99,65527,1,2,0:0:0:0:
186,198,65696,1,2,0:0:0:0:
307,253,65866,2,2,B|335:284|357:295|387:302|411:276,2,112
215,169,66799,1,0,0:0:0:0:
103,161,67138,1,0,0:0:0:0:
80,254,67223,2,2,P|107:291|189:286,1,112
266,276,67732,1,2,0:0:0:0:
394,252,67901,1,0,0:0:0:0:
294,175,68156,1,0,0:0:0:0:
181,184,68241,2,2,B|157:211|148:247|218:320,1,140
356,150,69004,2,2,P|344:111|309:53,1,84
244,116,69428,1,0,0:0:0:0:
115,89,70021,2,2,B|116:119|119:124|146:156|169:167,1,84
251,206,70530,1,2,0:0:0:0:
217,119,70869,1,2,0:0:0:0:
330,119,71209,1,0,0:0:0:0:
169,57,71548,1,2,0:0:0:0:
212,250,71887,1,2,0:0:0:0:
303,179,72141,5,0,0:0:0:0:
187,133,72226,2,2,P|199:87|268:67,1,112,0|0,0:0|0:0,0:0:0:0:
308,173,72820,1,2,0:0:0:0:
346,257,73074,1,2,0:0:0:0:
224,294,73244,2,0,P|196:249|198:192,1,112
207,59,73753,2,2,P|253:91|262:125,1,84
265,236,74177,2,2,P|288:260|340:276,2,84
321,104,75194,1,0,0:0:0:0:
208,84,75449,1,0,0:0:0:0:
232,195,75703,2,2,L|247:281,1,84
139,336,76127,2,2,L|134:252,1,84
129,170,76636,1,0,0:0:0:0:
125,96,77060,1,0,0:0:0:0:
153,40,77484,2,0,B|191:38|247:27|294:43|322:80|324:123,1,196
327,250,78247,2,0,P|359:302|415:335,1,112
285,333,78841,1,2,0:0:0:0:
259,322,79011,1,2,0:0:0:0:
243,322,79265,1,2,0:0:0:0:
150,320,79435,2,2,L|86:319,2,56
273,271,80028,2,0,B|288:235|288:216|274:156,1,112
136,84,80537,2,0,B|147:114|180:159|187:164,1,84
230,209,81300,1,0,0:0:0:0:
312,145,81470,1,0,0:0:0:0:
362,244,81555,6,0,B|331:303|301:323|270:330,1,112
162,303,82063,2,0,P|170:260|200:221,1,84
350,189,82572,2,0,P|243:167|243:153,2,140
366,93,83675,1,2,0:0:0:0:
249,82,83844,2,0,L|129:80,1,112
87,224,84438,1,0,0:0:0:0:
63,129,84692,1,0,0:0:0:0:
132,73,84777,2,2,L|215:60,2,84
105,252,85540,2,0,L|207:206,2,112
209,321,86473,2,0,L|290:257,2,84
221,133,87321,1,0,0:0:0:0:
278,261,87491,2,0,B|320:272|385:249|394:215,1,131.25
424,151,87915,1,0,0:0:0:0:
303,131,88169,1,0,0:0:0:0:
363,64,88424,1,0,0:0:0:0:
374,208,88593,2,0,P|378:283|298:315,1,131.25
194,317,89017,2,0,L|244:196,1,131.25
368,213,89611,1,0,0:0:0:0:
273,142,89781,1,0,0:0:0:0:
348,91,90035,1,0,0:0:0:0:
338,187,90289,6,0,B|310:224|272:261|231:267,1,131.25
127,155,90968,1,0,0:0:0:0:
309,262,91392,2,2,B|215:270|215:270|235:340|235:340|286:339,1,218.75
428,314,91985,2,2,L|425:171,1,131.25
254,173,92579,2,0,P|189:117|188:72,2,131.25
354,214,93257,1,0,0:0:0:0:
427,93,93681,1,0,0:0:0:0:
281,77,93936,2,0,P|242:150|170:179,1,131.25
52,234,94445,1,0,0:0:0:0:
190,279,94699,1,0,0:0:0:0:
166,183,95038,1,0,0:0:0:0:
85,283,95208,2,0,P|177:326|256:315,1,175
358,240,95717,2,0,L|354:119,2,87.5
359,320,96395,1,0,0:0:0:0:
238,306,96565,2,2,B|179:299|129:310|83:330,1,131.25
134,184,97328,1,2,0:0:0:0:
283,252,97582,2,2,P|329:219|343:132,1,131.25
194,61,98091,2,0,P|213:131|250:159,1,87.5
298,238,98515,1,0,0:0:0:0:
160,309,98770,2,0,P|73:291|66:198,1,175
78,96,99279,2,0,L|229:97,2,131.25
79,212,99957,1,0,0:0:0:0:
164,292,100381,6,0,P|226:232|225:197,1,87.5
154,86,100805,2,0,P|189:146|218:158,1,87.5
313,205,101229,1,0,0:0:0:0:
322,300,101483,2,0,L|145:298,2,175
353,204,102416,1,2,0:0:0:0:
393,78,102840,1,2,0:0:0:0:
297,130,103010,2,2,P|253:155|181:135,1,87.5
102,180,103434,2,0,L|88:36,1,131.25
225,26,103943,2,0,L|363:24,2,131.25
156,146,104621,1,0,0:0:0:0:
242,217,104960,1,0,0:0:0:0:
328,120,105300,1,0,0:0:0:0:
354,218,105384,2,0,P|348:281|392:309,1,87.5
202,308,105808,2,0,P|123:304|76:325,2,131.25
333,274,106656,1,0,0:0:0:0:
333,274,106911,2,0,P|364:243|383:156,1,131.25000500679
285,189,107250,2,2,B|264:137|270:101|370:72,1,157.500006008148
450,126,107928,2,0,L|450:223,1,87.5
356,283,108183,2,2,L|352:186,1,87.5
369,142,119546,6,0,L|397:46,1,87.5
285,31,119971,2,2,L|200:57,2,87.5
275,159,120479,1,0,0:0:0:0:
270,292,120903,2,2,B|312:283|337:272|349:249|357:224,1,87.5
296,108,121327,2,2,L|358:167,1,43.75
421,219,121751,1,2,0:0:0:0:
345,295,122175,2,0,B|305:318|275:319|260:304|252:278,1,87.5
275,172,122515,2,2,P|274:122|234:77,1,87.5
119,95,122854,2,0,L|130:200,1,87.5,2|0,0:0|0:0,0:0:0:0:
147,310,123278,2,0,L|234:297,1,87.5
377,253,123702,1,0,0:0:0:0:
272,300,124041,1,0,0:0:0:0:
290,159,124295,1,0,0:0:0:0:
183,162,124465,2,0,P|129:206|208:288,1,175
116,230,125144,2,0,L|88:326,1,87.5,2|0,0:0|0:0,0:0:0:0:
227,353,125569,2,0,L|312:327,2,87.5
237,225,126077,1,0,0:0:0:0:
357,151,126416,2,2,B|348:109|337:84|314:72|289:64,1,87.5
173,125,126840,2,2,L|232:63,1,43.75
277,34,127264,1,2,0:0:0:0:
360,76,127688,2,0,B|383:116|384:146|369:161|343:169,1,87.5
237,146,128028,2,0,P|187:147|142:187,1,87.5
160,302,128367,2,0,L|265:291,1,87.5
375,274,128791,2,0,L|362:187,1,87.5
318,44,129215,5,0,0:0:0:0:
365,149,129554,1,0,0:0:0:0:
224,131,129808,1,0,0:0:0:0:
227,238,129978,2,0,P|271:292|353:213,1,175
379,119,130486,2,0,L|375:44,2,56
361,221,131080,1,0,0:0:0:0:
267,307,131249,2,0,L|350:318,1,83.9999974365235
434,249,131758,2,0,B|429:205|406:172|371:159,1,104.999996795654
278,169,132521,1,0,0:0:0:0:
303,252,132776,1,0,0:0:0:0:
414,203,133030,2,0,P|413:165|332:88,1,146.999995513916
134,76,134387,2,0,L|213:75,1,56,2|0,0:0|0:0,0:0:0:0:
210,143,134726,2,0,L|197:238,1,84,2|0,0:0|0:0,0:0:0:0:
79,278,135235,2,2,L|62:185,1,84
303,137,135829,2,0,B|343:136|371:130|416:85,2,112
313,231,137016,2,0,B|305:258|309:278|335:305|383:327,1,112
237,188,137694,2,0,P|240:116|231:61,1,112
122,39,138373,2,0,B|63:26|63:26|68:101|60:144,1,168
39,252,139051,1,0,0:0:0:0:
124,255,139306,1,0,0:0:0:0:
101,161,139560,5,0,0:0:0:0:
184,96,140408,2,2,L|194:185,2,84
292,70,141171,1,0,0:0:0:0:
314,195,141595,2,2,P|307:238|356:308,1,131.25
419,163,142019,1,0,0:0:0:0:
379,278,142274,1,0,0:0:0:0:
327,169,142528,1,0,0:0:0:0:
225,200,142698,2,0,P|175:206|130:171,2,87.5
354,195,143291,1,0,0:0:0:0:
281,111,143461,1,0,0:0:0:0:
105,179,143631,2,0,P|125:249|184:293,1,131.25
270,340,144055,2,0,L|303:281,1,43.75
219,167,144394,2,0,L|286:227,1,87.5
434,273,144733,1,0,0:0:0:0:
387,155,145072,2,0,P|388:86|411:61,2,87.5
416,262,145666,2,2,B|424:304|432:323|356:316,1,87.5
290,289,146005,1,2,0:0:0:0:
195,246,146175,2,2,B|185:309|192:322|250:332,1,87.5
403,196,146684,2,0,L|378:91,1,87.5
310,48,147023,1,0,0:0:0:0:
290,238,147362,2,0,L|379:300,1,87.5
388,137,147786,1,0,0:0:0:0:
303,111,148040,1,0,0:0:0:0:
200,139,148210,2,0,P|106:135|105:70,1,175
217,45,148719,5,0,0:0:0:0:
341,56,148973,1,0,0:0:0:0:
290,165,149228,2,0,P|292:258|317:283,1,131.25
395,112,149736,1,0,0:0:0:0:
393,206,149906,1,0,0:0:0:0:
296,138,150160,1,0,0:0:0:0:
258,271,150330,2,0,L|341:313,1,87.5
402,200,150754,2,0,P|422:115|393:62,2,131.25
299,273,151433,1,0,0:0:0:0:
231,210,151687,1,0,0:0:0:0:
334,139,151772,2,0,B|358:92|351:69|311:44,1,87.5
208,44,152196,2,0,L|110:41,1,87.5
106,196,152620,1,0,0:0:0:0:
59,109,152874,1,0,0:0:0:0:
116,35,152959,2,0,B|182:44|217:76|160:180,1,175
98,247,154061,1,0,0:0:0:0:
181,325,154316,1,0,0:0:0:0:
313,221,154825,2,0,B|275:198|251:152|272:89,1,131.25
408,98,155333,1,0,0:0:0:0:
333,56,155588,1,0,0:0:0:0:
259,219,155757,2,0,P|270:265|123:275,1,218.75
85,203,156351,2,2,L|85:85,1,87.5
200,122,156690,2,2,B|175:63|186:46|265:35,1,131.25
355,87,157284,5,2,0:0:0:0:
313,207,157623,2,0,P|307:250|371:295,1,87.5
433,182,157962,2,0,L|439:79,1,87.5
328,107,158386,1,0,0:0:0:0:
204,113,158641,1,0,0:0:0:0:
217,39,158895,1,0,0:0:0:0:
290,142,159065,2,0,P|292:198|257:238,1,87.5
187,325,159489,2,0,P|164:285|191:209,1,131.25
313,199,160252,1,2,0:0:0:0:
313,199,160422,1,2,0:0:0:0:
313,199,160591,1,2,0:0:0:0:
313,199,160761,1,2,0:0:0:0:
313,199,160930,1,2,0:0:0:0:
313,199,161100,2,2,L|318:130,4,41.9999987182618
223,167,163220,2,0,P|197:69|212:47,1,131.25
346,118,163644,1,0,0:0:0:0:
266,44,163983,1,0,0:0:0:0:
205,167,164153,2,2,P|186:238|225:279,1,131.25
347,304,164577,2,0,L|332:191,1,87.5
218,133,164916,1,0,0:0:0:0:
70,240,165171,2,0,L|128:298,1,43.75
251,322,165425,2,2,L|330:281,1,87.5
168,184,165849,1,0,0:0:0:0:
276,250,166103,1,0,0:0:0:0:
320,155,166273,5,0,0:0:0:0:
218,73,166527,2,2,L|320:26,1,87.5
385,122,166867,2,2,L|421:221,1,105.000004005432
