osu file format v14

[General]
AudioFilename: audio.mp3
AudioLeadIn: 0
PreviewTime: 51704
Countdown: 0
SampleSet: None
StackLeniency: 0.7
Mode: 0
LetterboxInBreaks: 0
EpilepsyWarning: 1
WidescreenStoryboard: 1

[Editor]
DistanceSpacing: 3
BeatDivisor: 4
GridSize: 4
TimelineZoom: 1.5

[Metadata]
Title:This Little Girl
TitleUnicode:This Little Girl
Artist:Cady Groves
ArtistUnicode:Cady Groves
Creator:BounceBabe
Version:Advanced
Source:
Tags:short edit every is capable of murder
BeatmapID:1114214
BeatmapSetID:525016

[Difficulty]
HPDrainRate:5
CircleSize:4.3
OverallDifficulty:6
ApproachRate:7.5
SliderMultiplier:1.2
SliderTickRate:2

[Events]
//Background and Video events
0,0,"bg.jpg",0,0
//Break Periods
//Storyboard Layer 0 (Background)
//Storyboard Layer 1 (Fail)
//Storyboard Layer 2 (Pass)
//Storyboard Layer 3 (Foreground)
//Storyboard Sound Samples

[TimingPoints]
504,400,4,3,0,44,1,0
6304,-100,4,3,0,44,0,0
6904,-133.333333333333,4,3,0,44,0,0
7704,-100,4,3,0,44,0,0
8704,-133.333333333333,4,3,0,44,0,0
9504,-100,4,3,0,44,0,0
10104,-133.333333333333,4,3,0,44,0,0
10904,-100,4,3,0,44,0,0
11704,-133.333333333333,4,3,0,44,0,0
12504,-100,4,3,0,44,0,0
13303,-100,4,3,0,55,0,0
19303,-100,4,3,0,55,0,0
19703,-100,4,3,0,70,0,0
32003,-100,4,3,0,5,0,0
32103,-100,4,3,0,70,0,0
32704,-100,4,3,0,33,0,0
32904,-100,4,3,0,70,0,0
33103,-100,4,3,0,50,0,0
33304,-100,4,3,0,70,0,0
33504,-100,4,3,0,33,0,0
33704,-100,4,3,0,70,0,0
33904,-100,4,3,0,50,0,0
34103,-100,4,3,0,70,0,0
38904,-80,4,3,0,100,0,0
50104,-80,4,2,0,100,0,0
51704,-66.6666666666667,4,3,0,100,0,1
55304,-66.6666666666667,4,3,2,100,0,1
55404,-66.6666666666667,4,3,0,100,0,1
69704,-66.6666666666667,4,3,2,100,0,1
69804,-66.6666666666667,4,3,0,100,0,1
72904,-66.6666666666667,4,3,2,100,0,1
73004,-66.6666666666667,4,3,0,100,0,1
75504,-66.6666666666667,4,3,0,70,0,0

[Colours]
Combo1 : 117,0,0
Combo2 : 149,149,149
Combo3 : 93,93,93
Combo4 : 163,82,82
SliderBorder : 220,220,220
SliderTrackOverride : 0,0,0 StarBreakAdditive :
255,255,255

[HitObjects]
67,128,6304,6,0,L|64:69,1,60,0|2,0:0|0:0,0:0:0:0:
73,218,6704,1,0,0:0:0:0:
147,167,6904,6,0,B|203:145|263:189|324:161,1,180.000006866455,2|0,0:2|0:0,0:0:0:0:
406,124,7904,1,0,0:0:0:0:
391,212,8104,2,0,L|424:270,1,60,2|0,0:0|0:0,0:0:0:0:
406,124,8504,1,2,0:2:0:0:
328,79,8704,38,0,B|267:107|207:63|151:85,1,180.000006866455
64,110,9704,1,2,0:0:0:0:
2,44,9904,1,0,0:0:0:0:
43,196,10104,6,0,P|77:244|194:233,1,180.000006866455,2|0,0:2|0:0,0:0:0:0:
243,167,11104,1,0,0:0:0:0:
332,154,11304,1,2,0:0:0:0:
276,83,11504,1,0,0:0:0:0:
300,238,11704,38,0,P|348:247|386:226,2,90.0000034332277,2|0|2,0:2|0:0|3:0,0:0:0:0:
300,238,12904,1,2,0:3:0:0:
243,167,13104,1,0,0:0:0:0:
187,238,13304,6,0,L|122:361,1,120,2|0,0:2|0:0,0:0:0:0:
142,164,14104,2,0,L|198:58,1,120
56,168,14904,2,0,L|27:220,1,60,2|0,0:2|0:0,0:0:0:0:
74,298,15304,2,0,L|102:245,1,60
142,164,15704,1,0,0:0:0:0:
188,241,15904,1,0,0:0:0:0:
142,164,16104,1,2,0:0:0:0:
188,241,16304,1,2,0:0:0:0:
232,319,16504,38,0,L|358:319,1,120,2|0,0:2|0:0,0:0:0:0:
346,229,17104,2,0,L|472:229,1,120
426,55,17704,1,0,0:0:0:0:
386,143,17904,2,0,L|446:143,1,60,0|2,0:0|0:2,0:0:0:0:
426,55,18304,2,0,L|295:55,1,120
216,55,18904,1,2,0:0:0:0:
216,55,19304,1,2,0:0:0:0:
216,55,19704,6,0,P|173:96|116:86,1,120,4|0,0:0|0:0,0:0:0:0:
33,120,20304,1,0,0:0:0:0:
105,174,20504,2,0,P|148:215|205:205,1,120,4|0,0:0|0:0,0:0:0:0:
288,239,21104,1,0,0:0:0:0:
216,293,21304,2,0,P|173:334|116:324,1,120,4|0,0:0|0:0,0:0:0:0:
36,285,21904,1,0,0:0:0:0:
216,293,22104,2,0,L|316:367,1,120,4|4,0:0|0:0,0:0:0:0:
475,288,22904,38,0,B|428:287|395:318|395:318|366:300,1,120,4|0,0:0|0:0,0:0:0:0:
293,250,23504,1,0,0:0:0:0:
278,161,23704,2,0,B|325:160|358:191|358:191|387:173,1,120,4|0,0:0|0:0,0:0:0:0:
460,123,24304,1,0,0:0:0:0:
472,33,24504,2,0,B|425:32|392:63|392:63|364:45,1,120,4|0,0:0|0:0,0:0:0:0:
282,10,25104,1,0,0:0:0:0:
472,33,25304,2,0,L|472:154,1,120,4|4,1:0|1:0,0:0:0:0:
472,333,26104,6,0,P|426:317|374:358,1,120,4|4,0:1|0:0,0:0:0:0:
283,358,26704,1,4,0:0:0:0:
283,358,27104,1,0,0:0:0:0:
283,358,27304,2,0,L|265:298,1,60,4|0,0:0|0:0,0:0:0:0:
223,124,27704,2,0,P|191:153|149:142,1,90,4|0,0:0|0:0,0:0:0:0:
149,142,28104,2,0,L|142:202,1,60
156,20,28504,1,4,1:3:0:0:
316,159,28904,1,4,1:3:0:0:
316,159,29304,38,0,L|369:273,1,120,4|4,0:0|0:0,0:0:0:0:
401,352,29904,1,4,0:0:0:0:
401,352,30304,1,0,0:0:0:0:
401,352,30504,2,0,P|369:352|341:371,1,60,4|0,0:0|0:0,0:0:0:0:
167,342,30904,1,4,0:0:0:0:
167,342,31304,2,0,L|116:233,1,120,0|4,0:0|1:3,0:0:0:0:
57,63,32104,2,0,P|89:63|117:44,1,60,4|0,1:3|0:0,0:0:0:0:
161,125,32504,6,0,P|202:173|258:169,2,120,4|0|4,0:0|0:0|0:0,0:0:0:0:
269,269,33704,1,0,0:0:0:0:
269,269,34104,1,4,0:0:0:0:
352,303,34304,1,0,0:0:0:0:
417,241,34504,1,0,0:0:0:0:
352,303,34704,2,0,L|360:362,2,60,0|4|0,0:0|0:0|0:0,0:0:0:0:
417,241,35304,1,4,1:3:0:0:
424,151,35504,1,0,0:0:0:0:
352,303,35704,38,0,L|228:322,1,120,4|4,1:3|0:0,0:0:0:0:
190,241,36304,2,0,L|66:260,1,120,4|0,0:0|0:0,0:0:0:0:
5,92,36904,1,4,0:0:0:0:
93,167,37104,2,0,L|34:177,1,60
5,92,37504,2,0,L|123:73,1,120,4|0,0:0|0:0,0:0:0:0:
212,62,38104,1,4,1:3:0:0:
212,62,38504,1,4,1:3:0:0:
293,100,38704,1,0,0:0:0:0:
373,141,38904,6,0,P|404:214|467:237,1,150,4|0,0:1|1:0,0:0:0:0:
471,139,39504,2,0,P|440:66|377:43,1,150,4|0,0:3|0:0,0:0:0:0:
290,88,40104,1,0,1:0:0:0:
198,120,40304,2,0,P|160:136|125:130,1,75
76,47,40704,2,0,P|109:31|146:35,2,75,0|0|0,0:0|1:0|0:0,0:0:0:0:
245,36,41304,1,2,0:0:0:0:
334,75,41504,1,0,0:0:0:0:
433,76,41704,1,2,1:3:0:0:
334,75,41904,1,2,1:3:0:0:
433,76,42104,38,0,L|463:222,1,150,4|0,0:0|1:0,0:0:0:0:
463,222,42904,1,0,0:0:0:0:
484,317,43104,2,0,P|443:320|422:348,2,75,0|0|0,0:0|1:0|0:0,0:0:0:0:
317,345,43704,2,0,L|239:336,1,75,4|0,0:0|0:0,0:0:0:0:
145,328,44104,1,0,1:0:0:0:
299,259,44304,2,0,L|128:240,1,150,4|0,0:0|0:0,0:0:0:0:
53,230,44904,1,0,1:0:0:0:
53,230,45304,6,0,P|71:156|24:88,1,150,4|0,0:0|1:0,0:0:0:0:
117,42,45904,2,0,P|156:107|237:121,1,150,0|0,0:0|0:0,0:0:0:0:
321,138,46504,1,0,1:0:0:0:
416,117,46704,2,0,P|451:107|469:75,1,75,0|0,0:0|0:0,0:0:0:0:
402,5,47104,2,0,P|366:14|348:46,2,75,0|0|0,0:0|1:0|0:0,0:0:0:0:
321,138,47704,1,2,0:0:0:0:
334,234,47904,1,0,0:0:0:0:
349,330,48104,1,2,1:3:0:0:
334,234,48304,1,2,1:3:0:0:
349,330,48504,38,0,L|190:334,1,150,0|0,0:0|1:0,0:0:0:0:
101,334,49104,1,0,0:0:0:0:
101,334,49504,1,0,0:0:0:0:
101,334,49704,2,0,P|96:298|70:268,1,75,2|2,1:3|1:3,0:0:0:0:
161,229,50104,6,0,P|125:159|142:91,1,150,2|0,0:0|0:0,0:0:0:0:
220,150,50704,1,0,0:0:0:0:
220,150,50904,2,0,P|228:114|253:87,2,75,2|2|2,0:0|1:2|1:2,0:0:0:0:
331,39,51704,6,0,P|358:86|475:91,1,180.000006866455,4|8,0:1|1:3,0:0:0:0:
420,18,52304,1,0,0:0:0:0:
473,92,52504,2,0,L|477:189,1,90.0000034332277
395,303,52904,2,0,L|392:214,1,90.0000034332277,8|0,1:3|0:0,0:0:0:0:
311,335,53304,2,0,L|124:350,1,180.000006866455,0|8,0:0|1:3,0:0:0:0:
127,259,53904,2,0,L|306:244,1,180.000006866455
303,154,54504,2,0,L|213:161,1,90.0000034332277,8|0,1:3|0:0,0:0:0:0:
297,64,54904,5,0,0:0:0:0:
378,103,55104,2,0,P|462:86|483:4,2,180.000006866455
200,56,56104,1,8,1:3:0:0:
389,191,56304,2,0,P|308:161|292:76,1,180.000006866455
200,56,56904,37,8,1:3:0:0:
200,56,57104,2,0,L|93:214,1,180.000006866455,0|4,0:0|0:0,0:0:0:0:
54,284,57704,2,0,P|72:324|57:366,1,90.0000034332277,8|0,0:0|0:0,0:0:0:0:
145,280,58104,5,4,0:1:0:0:
145,280,58304,2,0,L|238:285,1,90.0000034332277,0|8,0:0|1:3,0:0:0:0:
355,373,58704,2,0,L|266:369,1,90.0000034332277
391,290,59104,2,0,L|480:294,1,90.0000034332277,0|8,0:0|1:3,0:0:0:0:
314,226,59504,2,0,P|357:153|304:88,1,180.000006866455
217,62,60104,1,8,1:3:0:0:
139,107,60304,2,0,P|85:172|129:244,1,180.000006866455
219,242,60904,1,8,1:3:0:0:
219,242,61104,38,0,L|217:62,1,180.000006866455
306,48,61704,1,8,1:3:0:0:
393,26,61904,2,0,L|393:115,1,90.0000034332277
306,138,62304,1,0,0:0:0:0:
306,48,62504,1,8,1:3:0:0:
393,26,62704,6,0,L|457:205,1,180.000006866455
485,280,63304,1,8,1:3:0:0:
399,272,63504,2,0,P|393:315|362:347,1,90.0000034332277
369,186,63904,1,4,0:0:0:0:
485,280,64104,1,0,1:0:0:0:
369,186,64304,1,8,1:3:0:0:
399,272,64504,38,0,P|321:263|279:177,1,180.000006866455,4|8,0:1|1:3,0:0:0:0:
188,186,65104,2,0,P|222:106|308:92,1,180.000006866455
303,1,65704,2,0,P|382:35|396:121,2,180.000006866455,8|0|8,1:3|0:0|1:3,0:0:0:0:
250,78,66704,1,0,0:0:0:0:
199,152,66904,2,0,P|119:117|105:31,1,180.000006866455,0|8,0:0|1:3,0:0:0:0:
15,27,67504,1,0,0:0:0:0:
15,27,67704,6,0,L|38:209,1,180.000006866455,0|8,0:0|1:3,0:0:0:0:
122,174,68304,2,0,L|145:356,1,180.000006866455
234,340,68904,1,8,1:3:0:0:
322,323,69104,1,0,0:0:0:0:
234,340,69304,1,0,0:0:0:0:
322,323,69504,2,0,L|299:144,1,180.000006866455
288,54,70104,37,4,1:3:0:0:
299,144,70304,1,0,1:3:0:0:
288,54,70504,1,8,1:3:0:0:
288,54,70904,6,0,L|183:62,1,90.0000034332277,4|0,0:1|0:0,0:0:0:0:
108,68,71304,1,8,1:3:0:0:
288,54,71504,2,0,L|198:223,1,180.000006866455
162,293,72104,1,8,1:3:0:0:
312,194,72304,2,0,L|294:379,3,180.000006866455
397,224,73704,1,8,1:3:0:0:
312,194,73904,38,0,P|289:153|350:44,1,180.000006866455
345,45,74504,1,8,1:3:0:0:
376,130,74704,1,0,0:0:0:0:
405,215,74904,1,0,0:0:0:0:
440,297,75104,1,0,0:0:0:0:
405,215,75304,1,8,1:3:0:0:
440,297,75504,2,0,P|477:268|466:144,1,180.000006866455,4|0,0:1|0:0,0:0:0:0:
