osu file format v14

[General]
AudioFilename: audio.mp3
AudioLeadIn: 0
PreviewTime: 28876
Countdown: 0
SampleSet: Soft
StackLeniency: 0.7
Mode: 0
LetterboxInBreaks: 0
WidescreenStoryboard: 0

[Editor]
DistanceSpacing: 1.8
BeatDivisor: 4
GridSize: 32
TimelineZoom: 1.6

[Metadata]
Title:Cool in the Cold (Cut Ver.)
TitleUnicode:Cool in the Cold (Cut Ver.)
Artist:Cadence and The Penguin Band
ArtistUnicode:Cadence and The Penguin Band
Creator:[-Evil-]
Version:It's that time of the year
Source:Club Penguin
Tags:English Pop Stompin Bob G_Billy Petey_K Franky Polo Field Businesmoose Music Jam 2016 K-Dance The Party Starts Now! Disney Wanpachi kanocchi
BeatmapID:2684809
BeatmapSetID:1293791

[Difficulty]
HPDrainRate:5
CircleSize:4.5
OverallDifficulty:8.5
ApproachRate:9
SliderMultiplier:1.8
SliderTickRate:1

[Events]
//Background and Video events
0,0,"otis.jpg",0,0
Video,-212,"video.mp4"
//Break Periods
//Storyboard Layer 0 (Background)
//Storyboard Layer 1 (Fail)
//Storyboard Layer 2 (Pass)
//Storyboard Layer 3 (Foreground)
//Storyboard Layer 4 (Overlay)
//Storyboard Sound Samples

[TimingPoints]
-1800,451.127819548872,4,2,1,54,1,0
5,-111.111111111111,4,2,1,54,0,0
13877,-111.111111111111,4,2,1,5,0,0
13989,-111.111111111111,4,2,3,60,0,0
14441,-100,4,2,1,65,0,0
21095,-100,4,2,1,5,0,0
21208,-100,4,2,1,65,0,0
28200,-100,4,2,1,69,0,0
28876,-83.3333333333333,4,2,1,75,0,1
35981,-100,4,2,1,80,0,0
36094,-76.9230769230769,4,2,1,80,0,1
36884,-100,4,2,1,80,0,0
36996,-76.9230769230769,4,2,1,80,0,1
37786,-100,4,2,1,80,0,0
37899,-76.9230769230769,4,2,1,80,0,1
38688,-100,4,2,1,80,0,0
38801,-76.9230769230769,4,2,1,80,0,1
39478,-83.3333333333333,4,2,1,75,0,1
50530,-100,4,2,1,65,0,0
52335,-100,4,2,1,40,0,0

[Colours]
Combo1 : 128,0,255
Combo2 : 255,128,128
Combo3 : 128,255,255
Combo4 : 0,128,192

[HitObjects]
44,106,4,21,4,1:2:0:0:
106,209,230,1,0,0:0:0:0:
183,115,455,2,0,L|294:138,1,80.9999975280763,2|2,1:2|0:0,0:0:0:0:
355,210,906,2,0,L|245:230,1,80.9999975280763,2|2,1:2|0:0,0:0:0:0:
193,314,1357,1,2,1:2:0:0:
193,193,1583,1,2,0:0:0:0:
279,310,1809,6,0,P|335:319|371:299,1,80.9999975280763,2|2,1:2|0:0,0:0:0:0:
479,276,2260,2,0,P|443:319|442:361,1,80.9999975280763,2|0,1:2|0:0,0:0:0:0:
503,199,2711,2,0,B|465:178|422:202|436:221|382:249|331:209,1,161.999995056153,2|2,1:2|1:2,0:0:0:0:
246,156,3387,1,2,0:0:0:0:
275,274,3613,37,2,1:2:0:0:
327,148,3839,2,0,L|309:49,1,80.9999975280763,2|0,0:0|1:2,0:0:0:0:
212,227,4290,1,2,0:0:0:0:
83,86,4515,2,0,L|101:-13,1,80.9999975280763,2|0,1:2|0:0,0:0:0:0:
10,137,4966,5,2,1:2:0:0:
147,208,5192,2,0,L|245:193,1,80.9999975280763,2|0,0:0|1:2,0:0:0:0:
153,293,5643,1,2,0:0:0:0:
265,338,5869,2,0,L|363:353,1,80.9999975280763,2|0,1:2|0:0,0:0:0:0:
413,267,6320,1,0,1:0:0:0:
416,248,6771,1,0,1:0:0:0:
362,125,6996,1,2,0:0:0:0:
235,168,7222,38,0,L|152:151,1,80.9999975280763,2|0,1:2|0:0,0:0:0:0:
70,64,7673,2,0,L|153:47,1,80.9999975280763,2|0,1:2|0:0,0:0:0:0:
305,131,8124,1,2,1:2:0:0:
230,35,8350,1,2,0:0:0:0:
155,151,8575,2,0,L|172:255,1,80.9999975280763,2|2,1:2|0:0,0:0:0:0:
256,314,9027,5,2,1:2:0:0:
242,193,9253,1,2,0:0:0:0:
172,315,9478,1,2,1:2:0:0:
307,243,9704,1,2,0:0:0:0:
155,151,9929,2,0,B|94:161|94:161|73:192|73:192|-5:205,1,161.999995056153,2|2,1:2|1:2,0:0:0:0:
71,307,10606,1,2,0:0:0:0:
168,230,10832,37,2,1:2:0:0:
182,350,11057,2,0,L|173:270,1,80.9999975280763,2|0,0:0|1:2,0:0:0:0:
332,159,11508,1,2,0:0:0:0:
311,345,11734,2,0,L|323:234,1,80.9999975280763,2|0,1:2|0:0,0:0:0:0:
179,188,12185,5,2,1:2:0:0:
299,169,12411,2,0,L|223:181,2,40.4999987640381,2|2|2,0:0|0:0|1:2,0:0:0:0:
318,48,12862,1,2,0:0:0:0:
197,28,13087,2,0,L|297:45,1,80.9999975280763,2|0,1:2|0:0,0:0:0:0:
198,134,13538,2,0,L|76:154,1,121.499996292114,0|0,1:2|0:0,0:0:0:0:
4,169,13989,37,8,0:0:0:0:
182,344,14441,21,0,1:2:0:0:
249,227,14666,1,2,0:0:0:0:
344,322,14892,2,0,L|241:310,1,90,10|2,0:0|0:0,0:0:0:0:
328,197,15343,2,0,L|431:185,1,90,2|0,1:2|0:0,0:0:0:0:
325,87,15794,1,10,0:0:0:0:
249,227,16020,1,2,0:0:0:0:
249,227,16245,22,0,L|63:205,2,180,0|8|0,1:0|0:0|1:0,0:0:0:0:
167,119,17373,1,0,0:0:0:0:
278,43,17598,2,0,L|257:141,1,90,8|0,0:0|0:0,0:0:0:0:
178,21,18050,37,0,1:0:0:0:
88,121,18275,1,2,0:0:0:0:
17,5,18501,2,0,L|115:22,1,90,10|2,0:0|0:0,0:0:0:0:
179,133,18952,2,0,L|81:150,1,90,2|0,1:2|0:0,0:0:0:0:
174,254,19403,21,10,0:0:0:0:
64,333,19629,2,0,L|84:224,1,90,2|0,0:0|1:0,0:0:0:0:
172,344,20080,1,2,0:0:0:0:
262,244,20305,2,0,L|242:135,1,90,10|0,0:0|0:0,0:0:0:0:
372,93,20756,2,0,L|331:309,1,180,0|8,1:0|0:0,0:0:0:0:
500,94,21659,5,0,1:0:0:0:
388,18,21884,1,2,0:0:0:0:
331,140,22110,2,0,L|344:237,1,90,10|2,0:0|0:0,0:0:0:0:
446,316,22561,2,0,L|463:187,1,90,2|0,1:2|0:0,0:0:0:0:
402,103,23012,1,10,0:0:0:0:
264,234,23238,22,0,P|211:223|185:187,1,90,2|0,0:0|1:0,0:0:0:0:
84,87,23689,2,0,P|100:138|82:178,1,90,2|8,0:0|0:0,0:0:0:0:
47,314,24140,2,0,P|83:273|127:269,1,90,2|0,0:0|1:0,0:0:0:0:
224,348,24591,1,2,0:0:0:0:
298,235,24817,2,0,L|417:255,1,90,8|0,0:0|0:0,0:0:0:0:
502,180,25268,37,0,1:0:0:0:
457,307,25493,1,2,0:0:0:0:
415,178,25719,2,0,L|427:82,1,90,10|2,0:0|0:0,0:0:0:0:
290,93,26170,1,2,1:2:0:0:
392,6,26395,1,2,0:0:0:0:
336,162,26621,1,10,0:0:0:0:
201,76,26847,22,0,L|292:93,1,90,2|0,0:0|1:0,0:0:0:0:
176,199,27298,1,2,0:0:0:0:
109,47,27523,2,0,L|18:64,1,90,10|0,0:0|0:0,0:0:0:0:
0,217,27974,1,0,1:0:0:0:
243,145,28200,1,8,0:0:0:0:
20,63,28426,1,8,0:0:0:0:
100,286,28651,1,10,0:0:0:0:
141,267,28764,1,8,0:0:0:0:
184,281,28876,38,0,L|290:258,1,107.999996704102,6|0,1:2|0:0,0:0:0:0:
388,70,29327,2,0,L|355:175,1,107.999996704102,10|0,0:0|0:0,0:0:0:0:
426,377,29778,2,0,L|392:275,1,107.999996704102,2|0,1:2|0:0,0:0:0:0:
474,101,30229,1,8,0:0:0:0:
505,296,30455,1,0,0:0:0:0:
355,173,30680,6,0,L|224:189,1,107.999996704102,2|2,1:2|0:0,0:0:0:0:
150,15,31131,1,10,0:0:0:0:
33,162,31357,2,0,B|7:220|7:220|54:369,1,215.999993408203,2|0,0:0|0:0,0:0:0:0:
242,351,32034,1,10,0:0:0:0:
104,226,32259,1,2,0:0:0:0:
297,109,32485,22,0,P|342:147|336:191,1,107.999996704102,2|0,1:2|0:0,0:0:0:0:
123,149,32936,2,0,P|143:93|187:83,1,107.999996704102,10|0,0:0|0:0,0:0:0:0:
250,284,33387,2,0,B|222:292|199:308|199:308|189:281|163:262,1,107.999996704102,2|0,1:2|0:0,0:0:0:0:
335,191,33838,1,8,0:0:0:0:
286,363,34064,1,0,0:0:0:0:
129,179,34289,38,0,L|244:196,1,107.999996704102,2|2,1:2|0:0,0:0:0:0:
73,274,34740,1,10,0:0:0:0:
9,105,34966,2,0,B|95:92|95:92|122:57|122:57|209:45,1,215.999993408203,2|0,0:0|0:0,0:0:0:0:
311,201,35643,1,8,0:0:0:0:
290,20,35868,1,0,0:0:0:0:
174,216,36094,21,2,1:2:0:0:
432,154,36319,1,2,0:0:0:0:
206,45,36545,2,0,L|91:83,1,116.999994644165,10|0,0:0|0:0,0:0:0:0:
0,292,36996,2,0,L|115:330,1,116.999994644165,2|0,1:2|0:0,0:0:0:0:
237,190,37447,1,10,0:0:0:0:
197,373,37673,1,2,0:0:0:0:
94,147,37899,38,0,P|149:102|209:123,1,116.999994644165,2|0,1:2|0:0,0:0:0:0:
346,212,38349,1,10,0:0:0:0:
262,43,38575,1,2,0:0:0:0:
197,252,38801,2,0,P|252:297|314:274,1,116.999994644165,2|0,1:2|0:0,0:0:0:0:
347,106,39252,1,8,0:0:0:0:
507,281,39478,22,0,L|396:260,1,107.999996704102,2|0,0:0|1:2,0:0:0:0:
223,190,39928,1,0,0:0:0:0:
383,125,40154,1,10,0:0:0:0:
293,290,40380,6,0,L|182:311,1,107.999996704102,2|0,0:0|1:0,0:0:0:0:
30,233,40831,1,0,0:0:0:0:
203,198,41056,1,10,0:0:0:0:
105,340,41282,22,0,L|-6:319,1,107.999996704102,2|0,0:0|1:0,0:0:0:0:
92,168,41733,1,0,0:0:0:0:
186,310,41958,1,8,0:0:0:0:
30,233,42184,37,2,0:0:0:0:
188,122,42410,2,0,L|167:237,1,107.999996704102,2|2,1:2|0:0,0:0:0:0:
85,80,42861,1,10,0:0:0:0:
274,65,43086,1,2,0:0:0:0:
274,65,43312,38,0,P|329:82|384:97,1,107.999996704102,2|0,1:2|0:0,0:0:0:0:
492,259,43763,1,10,0:0:0:0:
326,373,43988,2,0,B|292:327|292:327|318:146,1,215.999993408203,2|0,0:0|0:0,0:0:0:0:
165,33,44665,1,10,0:0:0:0:
43,188,44891,2,0,B|91:220|92:277|92:277|132:231|210:237,1,215.999993408203,2|0,0:0|0:0,0:0:0:0:
58,88,45567,1,8,0:0:0:0:
8,271,45793,21,2,0:0:0:0:
150,146,46019,1,2,1:2:0:0:
225,325,46244,2,0,L|363:304,1,107.999996704102,2|10,0:0|0:0,0:0:0:0:
456,157,46695,1,2,0:0:0:0:
456,157,46921,38,0,L|318:136,1,107.999996704102,2|0,1:2|0:0,0:0:0:0:
196,20,47372,1,10,0:0:0:0:
66,164,47597,2,0,B|122:191|173:146|153:129|206:81|289:116,1,215.999993408203,2|0,0:0|0:0,0:0:0:0:
68,75,48274,1,10,0:0:0:0:
198,220,48500,2,0,B|233:272|230:316|213:355|181:373|181:373|160:358|154:332,1,215.999993408203,2|0,0:0|0:0,0:0:0:0:
305,215,49177,37,8,0:0:0:0:
116,262,49403,1,0,0:0:0:0:
249,119,49628,1,0,1:0:0:0:
242,312,49854,1,0,0:0:0:0:
114,79,50079,1,10,0:0:0:0:
423,306,50530,5,6,1:2:0:0:
256,192,50756,12,2,54140,0:0:0:0:
