osu file format v14

[General]
AudioFilename: audio.mp3
AudioLeadIn: 0
PreviewTime: 28876
Countdown: 0
SampleSet: Soft
StackLeniency: 0.7
Mode: 0
LetterboxInBreaks: 0
WidescreenStoryboard: 0

[Editor]
DistanceSpacing: 1.8
BeatDivisor: 4
GridSize: 32
TimelineZoom: 1.6

[Metadata]
Title:Cool in the Cold (Cut Ver.)
TitleUnicode:Cool in the Cold (Cut Ver.)
Artist:Cadence and The Penguin Band
ArtistUnicode:Cadence and The Penguin Band
Creator:[-Evil-]
Version:Easy
Source:Club Penguin
Tags:English Pop Stompin Bob G_Billy Petey_K Franky Polo Field Businesmoose Music Jam 2016 K-Dance The Party Starts Now! Disney Wanpachi kanocchi
BeatmapID:2688065
BeatmapSetID:1293791

[Difficulty]
HPDrainRate:3
CircleSize:2.5
OverallDifficulty:3
ApproachRate:4
SliderMultiplier:1
SliderTickRate:1

[Events]
//Background and Video events
0,0,"otis.jpg",0,0
Video,-212,"video.mp4"
//Break Periods
//Storyboard Layer 0 (Background)
//Storyboard Layer 1 (Fail)
//Storyboard Layer 2 (Pass)
//Storyboard Layer 3 (Foreground)
//Storyboard Layer 4 (Overlay)
//Storyboard Sound Samples

[TimingPoints]
-1800,451.127819548872,4,2,1,54,1,0
5,-100,4,2,1,54,0,0
13877,-100,4,2,1,5,0,0
13989,-100,4,2,3,60,0,0
14441,-100,4,2,1,65,0,0
21095,-100,4,2,1,5,0,0
21208,-100,4,2,1,65,0,0
28200,-100,4,2,1,69,0,0
28876,-95.2380952380952,4,2,1,75,0,1
35982,-95.2380952380952,4,2,1,80,0,0
36094,-95.2380952380952,4,2,1,80,0,1
36884,-95.2380952380952,4,2,1,80,0,0
36996,-95.2380952380952,4,2,1,80,0,1
37786,-95.2380952380952,4,2,1,80,0,0
37899,-95.2380952380952,4,2,1,80,0,1
38688,-95.2380952380952,4,2,1,80,0,0
38801,-95.2380952380952,4,2,1,80,0,1
39478,-95.2380952380952,4,2,1,75,0,1
43313,-95.2380952380952,4,2,1,75,0,1
50530,-100,4,2,1,65,0,0
52335,-100,4,2,1,40,0,0

[Colours]
Combo1 : 128,0,255
Combo2 : 255,128,128
Combo3 : 128,255,255
Combo4 : 0,128,192

[HitObjects]
409,310,4,21,4,1:2:0:0:
334,243,456,2,0,L|225:261,1,100,2|2,1:2|1:2,0:0:0:0:
173,337,1358,1,2,1:2:0:0:
87,284,1809,2,0,L|101:162,1,100,2|2,1:2|1:2,0:0:0:0:
14,130,2711,2,0,L|0:8,1,100,2|2,1:2|1:2,0:0:0:0:
101,17,3614,6,0,L|310:46,1,200,2|2,1:2|1:2,0:0:0:0:
387,91,4966,2,0,L|372:200,2,100,2|0|2,1:2|1:2|1:2,0:0:0:0:
505,366,7223,38,0,L|299:325,1,200,2|2,1:2|1:2,0:0:0:0:
221,374,8576,1,2,1:2:0:0:
151,302,9027,2,0,P|131:241|148:192,1,100,2|2,1:2|1:2,0:0:0:0:
238,196,9929,2,0,P|258:135|241:86,1,100,2|2,1:2|1:2,0:0:0:0:
193,18,10832,6,0,L|-12:66,1,200,2|2,1:2|1:2,0:0:0:0:
7,163,12185,2,0,L|25:272,1,100,2|2,1:2|1:2,0:0:0:0:
113,304,13087,1,2,1:2:0:0:
196,122,13989,1,8,0:0:0:0:
246,208,14441,5,0,1:2:0:0:
337,166,14892,2,0,L|447:186,1,100,10|2,0:0|1:2,0:0:0:0:
462,280,15794,2,0,P|411:320|280:269,1,200,10|8,0:0|0:0,0:0:0:0:
203,236,17147,2,0,P|168:214|101:235,1,100,0|8,1:0|0:0,0:0:0:0:
53,305,18050,21,0,1:0:0:0:
0,220,18501,2,0,L|19:107,1,100,10|2,0:0|1:2,0:0:0:0:
65,33,19403,1,10,0:0:0:0:
150,84,19854,2,0,L|345:34,1,200,0|0,1:0|1:2,0:0:0:0:
495,165,21659,37,0,1:0:0:0:
406,211,22110,2,0,L|433:369,1,150,10|0,0:0|0:0,0:0:0:0:
332,346,23238,2,0,L|217:321,2,100,2|2|2,0:0|0:0|0:0,0:0:0:0:
406,211,24817,1,8,0:0:0:0:
319,161,25268,21,0,1:0:0:0:
228,202,25719,2,0,L|111:185,1,100,10|2,0:0|1:2,0:0:0:0:
42,137,26621,1,10,0:0:0:0:
109,63,27072,2,0,P|170:41|213:50,1,100,0|10,1:0|0:0,0:0:0:0:
278,113,27974,1,0,1:0:0:0:
346,39,28426,1,8,0:0:0:0:
408,123,28877,38,0,L|532:104,2,104.999996795654,6|10|2,1:2|0:0|1:2,0:0:0:0:
327,190,30230,1,8,0:0:0:0:
373,283,30681,2,0,P|383:351|354:389,1,104.999996795654,2|10,1:2|0:0,0:0:0:0:
260,372,31583,2,0,P|250:304|279:266,1,104.999996795654,0|10,1:0|0:0,0:0:0:0:
327,189,32486,38,0,L|304:70,2,104.999996795654,2|10|2,1:2|0:0|1:2,0:0:0:0:
267,275,33839,1,8,0:0:0:0:
188,204,34290,2,0,L|57:228,1,104.999996795654,2|10,1:2|0:0,0:0:0:0:
38,316,35192,2,0,L|169:340,1,104.999996795654,0|8,1:0|0:0,0:0:0:0:
237,289,36095,21,2,1:2:0:0:
315,358,36546,1,10,0:0:0:0:
384,279,36997,2,0,L|363:148,1,104.999996795654,2|10,1:2|0:0,0:0:0:0:
300,94,37899,1,2,1:2:0:0:
223,165,38350,1,10,0:0:0:0:
159,81,38801,2,0,L|34:98,1,104.999996795654,2|8,1:2|0:0,0:0:0:0:
6,188,39704,5,2,1:2:0:0:
95,242,40155,2,0,L|117:354,1,104.999996795654,10|0,0:0|1:2,0:0:0:0:
218,362,41057,2,0,L|240:250,1,104.999996795654,10|0,0:0|1:0,0:0:0:0:
178,172,41959,1,8,0:0:0:0:
273,128,42411,1,2,1:2:0:0:
192,60,42862,1,10,0:0:0:0:
283,9,43313,5,2,1:2:0:0:
371,65,43764,2,0,L|487:84,1,104.999996795654,10|0,0:0|1:0,0:0:0:0:
452,184,44666,2,0,L|336:203,1,104.999996795654,10|0,0:0|1:0,0:0:0:0:
272,128,45568,1,8,0:0:0:0:
199,202,46020,2,0,L|78:185,1,104.999996795654,2|10,1:2|0:0,0:0:0:0:
18,258,46922,37,2,1:2:0:0:
78,343,47373,2,0,P|125:310|185:309,1,104.999996795654,10|0,0:0|1:0,0:0:0:0:
272,278,48275,2,0,P|319:311|379:312,1,104.999996795654,10|0,0:0|1:0,0:0:0:0:
408,219,49177,2,0,L|386:111,1,104.999996795654,8|0,0:0|1:0,0:0:0:0:
284,93,50080,1,10,0:0:0:0:
256,192,50531,5,6,1:2:0:0:
256,192,50982,12,2,54140,0:0:0:0:
