osu file format v14

[General]
AudioFilename: audio.mp3
AudioLeadIn: 0
PreviewTime: 2731
Countdown: 0
SampleSet: Soft
StackLeniency: 0.7
Mode: 2
LetterboxInBreaks: 0
WidescreenStoryboard: 0

[Editor]
DistanceSpacing: 0.9
BeatDivisor: 2
GridSize: 16
TimelineZoom: 1

[Metadata]
Title:Mahal kong Maynila
TitleUnicode:Mahal kong Maynila
Artist:Cacai Bautista and Vince De Jesus
ArtistUnicode:Cacai Bautista and Vince De Jesus
Creator:Nitrous
Version:Kutsara
Source:Maynila
Tags:gma7 domSaur -Aqua newton- - Aries - Afireee JztCallMeRon Lenfried- SurfChu85 -Nicotine Crowley AJamez Deneb
BeatmapID:1626630
BeatmapSetID:773553

[Difficulty]
HPDrainRate:5
CircleSize:2.4
OverallDifficulty:5
ApproachRate:5
SliderMultiplier:0.799999999999999
SliderTickRate:1

[Events]
//Background and Video events
0,0,"maynila.jpg",0,0
//Break Periods
//Storyboard Layer 0 (Background)
//Storyboard Layer 1 (Fail)
//Storyboard Layer 2 (Pass)
//Storyboard Layer 3 (Foreground)
//Storyboard Sound Samples

[TimingPoints]
250,451.127819548872,4,2,2,50,1,0
3859,-100,4,2,2,70,0,0
25513,-100,4,2,2,50,0,0
28671,-100,4,2,2,50,0,0
29122,-100,4,2,2,50,0,0
30926,-100,4,2,2,60,0,0
41753,-100,4,2,2,70,0,0

[HitObjects]
256,192,250,12,0,2731,0:0:0:0:
159,260,3859,5,4,1:0:0:0:
285,201,4310,2,0,L|131:137,1,160,0|0,1:0|1:0,0:0:0:0:
257,69,5663,1,4,3:0:0:0:
366,113,6114,1,0,1:0:0:0:
261,187,6565,1,0,0:0:0:0:
165,246,7016,1,0,1:0:0:0:
253,310,7468,6,0,L|350:305,1,79.9999999999999,4|0,3:0|0:0,0:0:0:0:
412,213,8370,2,0,L|514:207,1,79.9999999999999,0|0,0:0|1:0,0:0:0:0:
411,104,9272,1,4,3:0:0:0:
309,153,9723,2,0,L|209:146,1,79.9999999999999,0|0,1:0|0:0,0:0:0:0:
124,83,10625,1,0,1:0:0:0:
32,157,11077,5,4,1:0:0:0:
128,248,11528,2,0,L|296:236,1,160,0|0,1:0|1:0,0:0:0:0:
396,193,12881,1,4,3:0:0:0:
504,91,13332,2,0,L|342:38,1,160,0|0,1:0|1:0,0:0:0:0:
252,95,14686,5,4,3:0:0:0:
141,155,15137,1,0,1:0:0:0:
252,210,15588,1,0,0:0:0:0:
367,264,16039,1,0,1:0:0:0:
474,331,16490,5,4,3:0:0:0:
348,363,16941,2,0,L|175:343,1,160,0|0,1:0|1:0,0:0:0:0:
82,223,18295,2,0,P|154:170|211:182,2,120,4|2|0,1:0|0:0|1:0,0:0:0:0:
232,259,20099,2,0,P|160:312|103:300,2,120,4|2|0,3:0|0:0|1:0,0:0:0:0:
192,162,21904,6,0,P|293:145|351:273,2,240,4|0|0,3:0|1:0|0:0,0:0:0:0:
94,244,25062,1,0,1:0:0:0:
220,327,25513,5,4,0:0:0:0:
360,261,25964,1,0,3:0:0:0:
257,155,26866,1,0,3:0:0:0:
83,254,27317,2,0,L|224:239,2,120,4|4|2,3:0|3:0|0:0,0:0:0:0:
176,136,29122,6,0,P|276:149|296:274,1,240,2|2,0:0|0:0,0:0:0:0:
176,314,30926,2,0,L|332:328,2,120,4|4|2,3:0|3:0|0:0,0:0:0:0:
87,146,32731,2,0,L|217:134,1,120,4|4,3:0|3:0,0:0:0:0:
408,140,34084,1,0,0:0:0:0:
312,285,34535,5,4,3:0:0:0:
154,348,35212,2,0,L|22:329,1,120,4|0,3:0|0:0,0:0:0:0:
134,170,36340,1,4,3:0:0:0:
285,272,37016,2,0,L|408:272,1,120,4|0,3:0|0:0,0:0:0:0:
315,95,38144,6,0,P|237:113|196:140,2,120,4|4|2,3:0|3:0|0:0,0:0:0:0:
219,226,39949,2,0,P|297:244|338:271,2,120,4|4|2,3:0|3:0|0:0,0:0:0:0:
36,272,41753,5,4,1:0:0:0:
261,324,42430,1,4,1:0:0:0:
127,153,43107,1,4,1:0:0:0:
368,184,43558,5,4,1:0:0:0:
202,284,44009,2,0,L|45:217,1,160,0|0,1:0|1:0,0:0:0:0:
193,120,45362,1,4,3:0:0:0:
291,279,45813,2,0,P|366:250|397:170,1,160,0|0,1:0|1:0,0:0:0:0:
219,235,47167,6,0,L|97:282,2,120,4|2|0,3:0|0:0|1:0,0:0:0:0:
351,183,48971,1,4,3:0:0:0:
241,103,49422,2,0,L|152:67,1,79.9999999999999,0|0,1:0|0:0,0:0:0:0:
33,154,50325,1,0,1:0:0:0:
108,265,50776,6,0,P|196:216|195:143,1,160,4|0,1:0|0:0,0:0:0:0:
293,62,52129,1,0,1:0:0:0:
428,238,52580,2,0,L|516:149,1,120,4|2,3:0|0:0,0:0:0:0:
330,116,53934,1,0,1:0:0:0:
201,205,54385,5,4,1:0:0:0:
45,152,54836,1,0,1:0:0:0:
205,109,55287,1,0,3:0:0:0:
352,190,55738,1,0,1:0:0:0:
256,192,56189,12,0,60249,0:0:0:0:
