osu file format v14

[General]
AudioFilename: audio.mp3
AudioLeadIn: 0
PreviewTime: 2731
Countdown: 0
SampleSet: Soft
StackLeniency: 0.7
Mode: 0
LetterboxInBreaks: 0
WidescreenStoryboard: 0

[Editor]
DistanceSpacing: 0.8
BeatDivisor: 2
GridSize: 32
TimelineZoom: 1.3

[Metadata]
Title:Mahal kong Maynila
TitleUnicode:Mahal kong Maynila
Artist:Cacai Bautista and Vince De Jesus
ArtistUnicode:Cacai Bautista and Vince De Jesus
Creator:Nitrous
Version:Katamtaman ni Aqua
Source:Maynila
Tags:gma7 domSaur -Aqua newton- - Aries - Afireee JztCallMeRon Lenfried- SurfChu85 -Nicotine Crowley AJamez Deneb
BeatmapID:1630270
BeatmapSetID:773553

[Difficulty]
HPDrainRate:4
CircleSize:3.5
OverallDifficulty:4
ApproachRate:5
SliderMultiplier:1.2
SliderTickRate:1

[Events]
//Background and Video events
0,0,"maynila.jpg",0,0
//Break Periods
//Storyboard Layer 0 (Background)
//Storyboard Layer 1 (Fail)
//Storyboard Layer 2 (Pass)
//Storyboard Layer 3 (Foreground)
//Storyboard Sound Samples

[TimingPoints]
250,451.127819548872,4,2,2,50,1,0
3633,-100,4,2,2,5,0,0
3859,-100,4,2,2,70,0,0
25513,-100,4,2,2,50,0,0
28671,-100,4,2,2,50,0,0
29009,-100,4,2,2,5,0,0
29122,-100,4,2,2,50,0,0
30926,-100,4,2,2,60,0,0
41753,-100,4,2,2,70,0,0
60249,-100,4,2,2,5,0,0

[HitObjects]
256,192,250,12,2,1828,0:0:0:0:
64,320,3859,6,0,L|191:331,1,120,4|0,1:0|1:0,0:0:0:0:
225,353,4535,2,0,L|344:342,1,120,2|0,0:0|0:0,0:0:0:0:
392,337,5212,1,0,1:0:0:0:
464,273,5663,2,0,P|473:214|445:163,1,120,4|0,3:0|1:0,0:0:0:0:
402,140,6340,2,0,L|283:129,1,120,2|0,0:0|0:0,0:0:0:0:
241,153,7016,1,0,1:0:0:0:
153,113,7468,6,0,L|147:49,2,60,4|0|0,3:0|0:0|0:0,0:0:0:0:
124,151,8144,2,0,L|112:278,2,120,2|0|0,0:0|0:0|0:0,0:0:0:0:
98,110,9272,2,0,P|156:119|208:90,1,120,4|0,3:0|1:0,0:0:0:0:
249,65,9949,2,0,P|307:55|359:84,1,120,2|0,0:0|0:0,0:0:0:0:
389,120,10625,1,0,1:0:0:0:
344,205,11077,6,0,L|332:332,1,120,4|0,1:0|1:0,0:0:0:0:
347,370,11753,2,0,P|295:341|236:350,1,120,2|0,0:0|0:0,0:0:0:0:
196,376,12430,1,0,1:0:0:0:
120,316,12881,2,0,L|-7:304,1,120,4|0,3:0|1:0,0:0:0:0:
33,270,13558,2,0,P|61:218|52:159,1,120,2|0,0:0|0:0,0:0:0:0:
22,122,14234,1,0,1:0:0:0:
93,57,14686,6,0,P|151:48|203:76,1,120,4|0,3:0|1:0,0:0:0:0:
239,108,15362,2,0,L|227:235,2,120,2|0|0,0:0|0:0|0:0,0:0:0:0:
277,136,16490,2,0,P|328:163|387:155,1,120,4|0,3:0|0:0,0:0:0:0:
431,135,17167,2,0,P|403:186|411:245,1,120,2|0,0:0|0:0,0:0:0:0:
442,282,17843,1,0,1:0:0:0:
428,328,18069,1,0,0:0:0:0:
414,374,18295,6,0,L|287:362,1,120,4|0,1:0|1:0,0:0:0:0:
248,375,18971,2,0,P|296:294|262:211,1,180,2|0,0:0|1:0,0:0:0:0:
241,178,19874,2,0,B|185:146|121:178|121:178|57:210|1:178,1,240,0|2,0:0|0:0,0:0:0:0:
61,101,21227,2,0,L|67:38,2,60,0|0|0,0:0|1:0|0:0,0:0:0:0:
88,140,21904,6,0,P|96:198|69:250,1,120,4|0,3:0|1:0,0:0:0:0:
35,284,22580,2,0,P|93:275|145:302,1,120,2|0,0:0|0:0,0:0:0:0:
177,338,23257,1,0,1:0:0:0:
272,329,23708,2,0,L|391:317,1,120,4|0,3:0|1:0,0:0:0:0:
427,286,24385,2,0,P|435:227|408:175,1,120,2|0,0:0|0:0,0:0:0:0:
371,143,25062,2,0,L|308:137,1,60,0|0,1:0|3:0,0:0:0:0:
271,164,25513,6,0,L|151:175,1,120,4|0,0:0|3:0,0:0:0:0:
118,210,26189,1,0,0:0:0:0:
40,153,26640,1,0,0:0:0:0:
40,153,26866,1,0,3:0:0:0:
118,210,27317,2,0,B|130:263|130:263|106:335|106:335|118:390,2,180,4|4|2,3:0|3:0|0:0,0:0:0:0:
55,136,29122,6,0,P|138:161|211:114,1,180,2|0,0:0|0:0,0:0:0:0:
238,74,30024,2,0,P|230:133|257:185,1,120,0|2,0:0|0:0,0:0:0:0:
292,217,30701,1,0,0:0:0:0:
327,249,30926,2,0,L|518:232,2,180,4|4|2,3:0|3:0|0:0,0:0:0:0:
309,293,32505,1,0,0:0:0:0:
291,337,32731,6,0,L|118:321,1,120,4|0,3:0|0:0,0:0:0:0:
128,347,33407,2,0,P|153:263|106:190,1,180,4|0,3:0|0:0,0:0:0:0:
65,103,34535,2,0,P|124:111|176:84,1,120,4|0,3:0|0:0,0:0:0:0:
215,55,35212,2,0,L|334:65,1,120,4|0,3:0|0:0,0:0:0:0:
410,124,36114,1,0,0:0:0:0:
410,124,36340,6,0,B|434:169|410:213|410:213|386:257|410:304,2,180,4|4|0,3:0|3:0|0:0,0:0:0:0:
324,167,38144,2,0,P|265:175|212:147,1,120,4|0,3:0|0:0,0:0:0:0:
171,123,38821,2,0,P|112:114|59:142,1,120,4|0,3:0|0:0,0:0:0:0:
29,179,39498,1,2,0:0:0:0:
78,261,39949,2,0,B|131:273|131:273|203:249|203:249|258:261,2,180,4|4|2,3:0|3:0|0:0,0:0:0:0:
29,179,41753,6,0,L|23:115,2,60,4|0|0,1:0|3:0|0:0,0:0:0:0:
62,213,42430,2,0,L|56:272,2,60,4|0|0,1:0|3:0|0:0,0:0:0:0:
106,193,43107,1,4,1:0:0:0:
184,247,43558,6,0,L|343:233,1,120,4|0,1:0|1:0,0:0:0:0:
345,260,44234,2,0,P|336:201|364:148,1,120,2|0,0:0|0:0,0:0:0:0:
405,123,44911,1,0,1:0:0:0:
478,60,45362,2,0,L|472:-3,2,60,4|0|0,3:0|0:0|1:0,0:0:0:0:
448,98,46039,2,0,P|389:106|336:78,1,120,2|0,0:0|0:0,0:0:0:0:
300,47,46716,1,0,1:0:0:0:
208,16,47167,6,0,P|149:7|96:35,1,120,4|0,3:0|1:0,0:0:0:0:
70,74,47843,2,0,L|83:233,1,120,2|0,0:0|0:0,0:0:0:0:
114,227,48520,1,0,1:0:0:0:
91,320,48971,2,0,L|27:325,2,60,4|0|0,3:0|0:0|1:0,0:0:0:0:
123,355,49648,2,0,L|242:365,1,120,2|0,0:0|0:0,0:0:0:0:
287,348,50325,1,0,1:0:0:0:
381,362,50776,6,0,L|370:242,1,120,4|0,1:0|1:0,0:0:0:0:
346,200,51453,1,2,0:0:0:0:
347,152,51678,2,0,L|352:88,2,60,0|0|0,0:0|0:0|1:0,0:0:0:0:
260,193,52580,2,0,P|201:201|148:173,1,120,4|0,3:0|1:0,0:0:0:0:
113,141,53257,1,2,0:0:0:0:
65,145,53483,2,0,L|59:208,2,60,0|0|0,0:0|0:0|1:0,0:0:0:0:
36,53,54385,6,0,P|94:61|147:33,1,120,4|0,1:0|1:0,0:0:0:0:
190,13,55062,1,0,0:0:0:0:
237,17,55287,2,0,L|300:22,1,60,0|0,3:0|0:0,0:0:0:0:
336,48,55738,2,0,L|399:42,1,60,0|0,1:0|0:0,0:0:0:0:
443,36,56189,5,4,1:0:0:0:
256,192,56415,12,0,60249,0:0:0:0:
