osu file format v14

[General]
AudioFilename: audio.mp3
AudioLeadIn: 0
PreviewTime: 2731
Countdown: 0
SampleSet: Normal
StackLeniency: 0.7
Mode: 3
LetterboxInBreaks: 0
SpecialStyle: 0
WidescreenStoryboard: 0

[Editor]
DistanceSpacing: 0.9
BeatDivisor: 4
GridSize: 4
TimelineZoom: 1.4

[Metadata]
Title:Mahal kong Maynila
TitleUnicode:Mahal kong Maynila
Artist:Cacai Bautista and Vince De Jesus
ArtistUnicode:Cacai Bautista and Vince De Jesus
Creator:Nitrous
Version:7K MX ni Lenfried-
Source:Maynila
Tags:gma7 domSaur -Aqua newton- - Aries - Afireee JztCallMeRon Lenfried- SurfChu85 -Nicotine Crowley AJamez Deneb
BeatmapID:1627781
BeatmapSetID:773553

[Difficulty]
HPDrainRate:8
CircleSize:7
OverallDifficulty:8
ApproachRate:8.5
SliderMultiplier:1.69
SliderTickRate:1

[Events]
//Background and Video events
0,0,"maynila.jpg",0,0
//Break Periods
//Storyboard Layer 0 (Background)
//Storyboard Layer 1 (Fail)
//Storyboard Layer 2 (Pass)
//Storyboard Layer 3 (Foreground)
//Storyboard Sound Samples
Sample,10851,0,"kick.wav",30
Sample,12656,0,"hat.wav",30
Sample,17618,0,"hat.wav",30
Sample,19422,0,"kick.wav",30
Sample,23483,0,"hat.wav",30
Sample,26415,0,"hat.wav",30
Sample,27656,0,"hat.wav",30
Sample,29460,0,"hat.wav",30
Sample,30926,0,"hat.wav",30
Sample,31265,0,"hat.wav",30
Sample,33069,0,"hat.wav",30
Sample,48295,0,"kick.wav",30
Sample,50099,0,"hat.wav",30
Sample,50550,0,"snare.wav",30
Sample,55513,0,"snare.wav",30
Sample,55964,0,"hat.wav",30

[TimingPoints]
250,451.1278,4,1,1,20,1,0
3859,-100,4,1,1,70,0,0
25513,-100,4,1,1,50,0,0
29122,-100,4,1,1,50,0,0
30926,-100,4,1,1,60,0,0
41753,-100,4,1,1,70,0,0
43558,-100,4,1,1,70,0,1
56189,-100,4,1,1,70,0,0

[HitObjects]
36,192,250,128,0,475:0:0:0:0:
182,192,475,128,0,701:0:0:0:0:
329,192,701,128,0,926:0:0:0:0:
475,192,926,128,0,1377:0:0:0:0:
109,192,1377,128,0,1603:0:0:0:0:
256,192,1603,128,0,1828:0:0:0:0:
402,192,1828,128,0,3859:0:0:0:0:
109,192,2731,128,0,2956:0:0:0:0:
256,192,2956,128,0,3295:0:0:0:0:
36,192,3295,128,0,3633:0:0:0:0:
182,192,3633,128,0,3859:0:0:0:0:
329,192,3859,128,0,4535:0:0:0:30:cym.wav
36,192,3859,128,0,4310:0:0:0:30:kick.wav
182,192,4084,1,0,0:0:0:30:hat.wav
109,192,4310,1,0,0:0:0:30:snare.wav
256,192,4310,1,0,0:0:0:0:
475,192,4310,1,0,0:0:0:0:
36,192,4535,128,0,5663:0:0:0:30:hat.wav
402,192,4535,1,0,0:0:0:0:
256,192,4648,1,0,0:0:0:0:
109,192,4761,1,0,0:0:0:0:
402,192,4874,1,0,0:0:0:0:
256,192,4986,1,0,0:0:0:30:hat.wav
109,192,4986,1,0,0:0:0:30:kick.wav
329,192,5099,1,0,0:0:0:0:
182,192,5212,1,0,0:0:0:30:snare.wav
475,192,5212,1,0,0:0:0:0:
402,192,5212,1,0,0:0:0:0:
329,192,5325,1,0,0:0:0:0:
109,192,5437,1,0,0:0:0:30:hat.wav
256,192,5437,1,0,0:0:0:30:kick.wav
182,192,5550,1,0,0:0:0:0:
475,192,5663,128,0,6114:0:0:0:30:kick.wav
329,192,5663,128,0,5889:0:0:0:30:cym.wav
182,192,5889,128,0,6114:0:0:0:30:hat.wav
329,192,6114,1,0,0:0:0:30:snare.wav
36,192,6114,1,0,0:0:0:0:
109,192,6114,128,0,6340:0:0:0:0:
329,192,6340,128,0,7016:0:0:0:30:hat.wav
475,192,6340,1,0,0:0:0:0:
182,192,6453,1,0,0:0:0:0:
109,192,6565,1,0,0:0:0:0:
256,192,6678,1,0,0:0:0:0:
402,192,6791,128,0,7016:0:0:0:30:hat.wav
109,192,6791,1,0,0:0:0:30:kick.wav
182,192,6904,1,0,0:0:0:0:
256,192,7016,1,0,0:0:0:30:snare.wav
475,192,7016,128,0,7242:0:0:0:0:
36,192,7016,1,0,0:0:0:0:
182,192,7129,1,0,0:0:0:0:
36,192,7242,128,0,7468:0:0:0:30:hat.wav
329,192,7242,1,0,0:0:0:30:kick.wav
256,192,7355,1,0,0:0:0:0:
402,192,7468,1,0,0:0:0:30:kick.wav
475,192,7468,128,0,7919:0:0:0:30:cym.wav
182,192,7468,128,0,7919:0:0:0:0:
36,192,7693,1,0,0:0:0:30:hat.wav
36,192,7919,1,0,0:0:0:30:snare.wav
329,192,7919,128,0,8144:0:0:0:0:
256,192,7919,1,0,0:0:0:0:
475,192,8144,128,0,8821:0:0:0:30:hat.wav
36,192,8144,128,0,8483:0:0:0:0:
182,192,8144,1,0,0:0:0:0:
329,192,8257,1,0,0:0:0:0:
256,192,8370,1,0,0:0:0:0:
329,192,8483,1,0,0:0:0:0:
36,192,8595,128,0,9046:0:0:0:30:hat.wav
402,192,8595,1,0,0:0:0:30:kick.wav
182,192,8595,1,0,0:0:0:0:
256,192,8708,1,0,0:0:0:0:
182,192,8821,1,0,0:0:0:30:snare.wav
329,192,8821,1,0,0:0:0:0:
109,192,8821,1,0,0:0:0:0:
256,192,8934,1,0,0:0:0:0:
402,192,9046,128,0,10174:0:0:0:30:kick.wav
109,192,9046,1,0,0:0:0:30:hat.wav
256,192,9159,1,0,0:0:0:0:
182,192,9272,1,0,0:0:0:30:cym.wav
36,192,9272,128,0,9723:0:0:0:30:kick.wav
256,192,9498,1,0,0:0:0:30:hat.wav
329,192,9723,1,0,0:0:0:30:snare.wav
109,192,9723,1,0,0:0:0:0:
182,192,9723,1,0,0:0:0:0:
182,192,9949,1,0,0:0:0:30:hat.wav
36,192,9949,1,0,0:0:0:0:
256,192,10062,1,0,0:0:0:0:
329,192,10174,1,0,0:0:0:0:
109,192,10174,1,0,0:0:0:0:
182,192,10287,1,0,0:0:0:0:
329,192,10400,1,0,0:0:0:30:kick.wav
475,192,10400,1,0,0:0:0:30:hat.wav
256,192,10513,1,0,0:0:0:0:
182,192,10625,1,0,0:0:0:30:snare.wav
36,192,10625,1,0,0:0:0:0:
475,192,10625,128,0,11077:0:0:0:0:
329,192,10738,1,0,0:0:0:0:
182,192,10851,1,0,0:0:0:30:hat.wav
256,192,10964,1,0,0:0:0:0:
402,192,11077,128,0,11753:0:0:0:30:kick.wav
36,192,11077,128,0,11528:0:0:0:30:cym.wav
109,192,11077,1,0,0:0:0:0:
182,192,11302,1,0,0:0:0:30:hat.wav
256,192,11528,1,0,0:0:0:30:snare.wav
109,192,11528,1,0,0:0:0:0:
182,192,11528,1,0,0:0:0:0:
329,192,11753,128,0,13332:0:0:0:30:hat.wav
109,192,11753,1,0,0:0:0:0:
475,192,11866,1,0,0:0:0:0:
182,192,11979,1,0,0:0:0:0:
475,192,12092,1,0,0:0:0:0:
36,192,12204,1,0,0:0:0:30:hat.wav
109,192,12204,1,0,0:0:0:30:kick.wav
402,192,12317,1,0,0:0:0:0:
182,192,12430,128,0,12881:0:0:0:30:snare.wav
109,192,12430,1,0,0:0:0:0:
256,192,12430,1,0,0:0:0:0:
475,192,12543,1,0,0:0:0:0:
36,192,12656,1,0,0:0:0:30:kick.wav
402,192,12768,1,0,0:0:0:0:
109,192,12881,128,0,13558:0:0:0:30:cym.wav
256,192,12881,128,0,13332:0:0:0:30:kick.wav
36,192,12881,1,0,0:0:0:0:
182,192,13107,1,0,0:0:0:30:hat.wav
182,192,13332,1,0,0:0:0:30:snare.wav
475,192,13332,1,0,0:0:0:0:
402,192,13332,1,0,0:0:0:0:
36,192,13558,128,0,14009:0:0:0:30:hat.wav
329,192,13558,1,0,0:0:0:0:
475,192,13671,1,0,0:0:0:0:
256,192,13783,1,0,0:0:0:0:
402,192,13896,1,0,0:0:0:0:
109,192,14009,128,0,14234:0:0:0:30:kick.wav
182,192,14009,1,0,0:0:0:30:hat.wav
402,192,14122,1,0,0:0:0:0:
329,192,14234,128,0,14460:0:0:0:30:snare.wav
36,192,14234,1,0,0:0:0:0:
256,192,14234,1,0,0:0:0:0:
182,192,14347,1,0,0:0:0:0:
475,192,14460,128,0,14686:0:0:0:30:hat.wav
109,192,14460,1,0,0:0:0:30:kick.wav
329,192,14573,1,0,0:0:0:0:
182,192,14686,128,0,15137:0:0:0:30:kick.wav
36,192,14686,128,0,15137:0:0:0:30:cym.wav
109,192,14686,1,0,0:0:0:0:
329,192,14911,1,0,0:0:0:30:hat.wav
475,192,15137,1,0,0:0:0:30:snare.wav
109,192,15137,1,0,0:0:0:0:
329,192,15137,128,0,15362:0:0:0:0:
36,192,15362,128,0,15701:0:0:0:30:hat.wav
182,192,15362,1,0,0:0:0:0:
402,192,15475,1,0,0:0:0:0:
256,192,15588,1,0,0:0:0:0:
402,192,15701,1,0,0:0:0:0:
36,192,15813,128,0,16265:0:0:0:30:hat.wav
182,192,15813,1,0,0:0:0:30:kick.wav
329,192,15926,1,0,0:0:0:0:
109,192,16039,1,0,0:0:0:30:snare.wav
256,192,16039,1,0,0:0:0:0:
182,192,16039,1,0,0:0:0:0:
329,192,16152,1,0,0:0:0:0:
475,192,16265,128,0,17618:0:0:0:30:kick.wav
109,192,16265,1,0,0:0:0:30:hat.wav
182,192,16377,1,0,0:0:0:0:
256,192,16490,128,0,16941:0:0:0:30:cym.wav
36,192,16490,128,0,16716:0:0:0:30:kick.wav
329,192,16716,128,0,16941:0:0:0:30:hat.wav
109,192,16716,1,0,0:0:0:0:
182,192,16941,128,0,17167:0:0:0:30:snare.wav
402,192,16941,1,0,0:0:0:0:
109,192,16941,1,0,0:0:0:0:
36,192,17167,128,0,18069:0:0:0:30:hat.wav
329,192,17167,1,0,0:0:0:0:
256,192,17280,1,0,0:0:0:0:
182,192,17392,1,0,0:0:0:0:
109,192,17392,1,0,0:0:0:0:
329,192,17505,1,0,0:0:0:0:
182,192,17618,1,0,0:0:0:30:kick.wav
256,192,17731,1,0,0:0:0:0:
329,192,17843,1,0,0:0:0:30:snare.wav
475,192,17843,1,0,0:0:0:0:
109,192,17843,1,0,0:0:0:0:
182,192,17956,1,0,0:0:0:0:
475,192,18069,128,0,18295:0:0:0:30:hat.wav
329,192,18069,128,0,18295:0:0:0:30:kick.wav
182,192,18182,1,0,0:0:0:0:
256,192,18295,128,0,18746:0:0:0:30:kick.wav
109,192,18295,128,0,18746:0:0:0:30:cym.wav
36,192,18295,128,0,18746:0:0:0:0:
475,192,18520,1,0,0:0:0:30:hat.wav
329,192,18746,1,0,0:0:0:30:snare.wav
475,192,18746,1,0,0:0:0:0:
182,192,18746,128,0,18859:0:0:0:0:
36,192,18971,128,0,19648:0:0:0:30:hat.wav
402,192,18971,128,0,19648:0:0:0:0:
182,192,18971,1,0,0:0:0:0:
329,192,19084,1,0,0:0:0:0:
109,192,19197,1,0,0:0:0:0:
475,192,19310,1,0,0:0:0:0:
182,192,19422,1,0,0:0:0:30:hat.wav
329,192,19535,1,0,0:0:0:0:
182,192,19648,128,0,19874:0:0:0:30:snare.wav
475,192,19648,128,0,19874:0:0:0:0:
256,192,19761,1,0,0:0:0:0:
329,192,19874,128,0,21001:0:0:0:30:kick.wav
109,192,19874,128,0,21001:0:0:0:30:hat.wav
182,192,19986,1,0,0:0:0:0:
256,192,20099,1,0,0:0:0:30:cym.wav
475,192,20099,128,0,20550:0:0:0:30:kick.wav
182,192,20325,1,0,0:0:0:30:hat.wav
36,192,20550,1,0,0:0:0:30:snare.wav
256,192,20550,1,0,0:0:0:0:
402,192,20550,1,0,0:0:0:0:
182,192,20776,1,0,0:0:0:30:hat.wav
402,192,20776,1,0,0:0:0:0:
256,192,20889,1,0,0:0:0:0:
182,192,21001,1,0,0:0:0:0:
329,192,21114,1,0,0:0:0:0:
36,192,21227,128,0,21453:0:0:0:30:kick.wav
256,192,21227,128,0,21453:0:0:0:30:hat.wav
182,192,21340,1,0,0:0:0:0:
109,192,21453,128,0,21678:0:0:0:30:snare.wav
329,192,21453,128,0,21678:0:0:0:0:
256,192,21565,1,0,0:0:0:0:
402,192,21678,128,0,24159:0:0:0:30:hat.wav
182,192,21678,128,0,24159:0:0:0:30:kick.wav
329,192,21791,1,0,0:0:0:0:
256,192,21904,128,0,22355:0:0:0:30:kick.wav
36,192,21904,1,0,0:0:0:30:cym.wav
109,192,22129,1,0,0:0:0:30:hat.wav
329,192,22355,1,0,0:0:0:30:snare.wav
475,192,22355,1,0,0:0:0:0:
36,192,22580,1,0,0:0:0:30:hat.wav
329,192,22693,1,0,0:0:0:0:
109,192,22806,1,0,0:0:0:0:
329,192,22919,1,0,0:0:0:0:
256,192,23031,1,0,0:0:0:30:hat.wav
36,192,23031,1,0,0:0:0:30:kick.wav
475,192,23144,1,0,0:0:0:0:
109,192,23257,1,0,0:0:0:30:snare.wav
36,192,23257,1,0,0:0:0:0:
256,192,23257,1,0,0:0:0:0:
329,192,23370,1,0,0:0:0:0:
109,192,23483,1,0,0:0:0:30:kick.wav
329,192,23595,1,0,0:0:0:0:
36,192,23708,1,0,0:0:0:30:cym.wav
256,192,23708,128,0,24159:0:0:0:30:kick.wav
109,192,23934,1,0,0:0:0:30:hat.wav
109,192,24159,1,0,0:0:0:30:snare.wav
329,192,24159,1,0,0:0:0:0:
475,192,24159,1,0,0:0:0:0:
256,192,24385,1,0,0:0:0:30:hat.wav
329,192,24498,1,0,0:0:0:0:
182,192,24610,1,0,0:0:0:0:
256,192,24723,1,0,0:0:0:0:
182,192,24836,1,0,0:0:0:30:kick.wav
36,192,24836,1,0,0:0:0:30:hat.wav
109,192,25062,1,0,0:0:0:30:snare.wav
475,192,25062,1,0,0:0:0:0:
329,192,25062,1,0,0:0:0:0:
256,192,25174,1,0,0:0:0:30:snare.wav
182,192,25174,1,0,0:0:0:0:
402,192,25287,1,0,0:0:0:30:snare.wav
36,192,25287,1,0,0:0:0:30:hat.wav
329,192,25287,1,0,0:0:0:0:
182,192,25400,1,0,0:0:0:30:snare.wav
109,192,25400,1,0,0:0:0:0:
256,192,25513,1,0,0:0:0:30:kick.wav
329,192,25513,128,0,27317:0:0:0:30:cym.wav
475,192,25513,128,0,25738:0:0:0:0:
36,192,25738,128,0,25964:0:0:0:30:hat.wav
109,192,25964,128,0,26189:0:0:0:30:snare.wav
256,192,26189,128,0,26640:0:0:0:30:hat.wav
475,192,26640,128,0,26866:0:0:0:30:kick.wav
402,192,26866,128,0,27092:0:0:0:30:snare.wav
256,192,27092,128,0,28445:0:0:0:0:
36,192,27092,128,0,27317:0:0:0:0:
475,192,27317,128,0,27543:0:0:0:30:whistle.wav
109,192,27317,1,0,0:0:0:30:hat.wav
402,192,27543,128,0,27768:0:0:0:0:
182,192,27543,1,0,0:0:0:0:
109,192,27768,128,0,27994:0:0:0:0:
329,192,27768,1,0,0:0:0:0:
402,192,27994,128,0,28445:0:0:0:30:whistle.wav
36,192,27994,128,0,28445:0:0:0:0:
475,192,28445,128,0,28896:0:0:0:0:
182,192,28445,128,0,28671:0:0:0:0:
109,192,28671,128,0,28896:0:0:0:0:
36,192,28896,128,0,30475:0:0:0:0:
182,192,28896,128,0,29122:0:0:0:0:
329,192,28896,1,0,0:0:0:0:
256,192,29122,128,0,29798:0:0:0:30:hat.wav
475,192,29798,128,0,30024:0:0:0:0:
402,192,30024,128,0,30475:0:0:0:0:
329,192,30475,128,0,30701:0:0:0:0:
256,192,30701,128,0,32054:0:0:0:0:
109,192,30701,128,0,30926:0:0:0:0:
402,192,30926,128,0,31377:0:0:0:30:whistle.wav
36,192,31377,128,0,31603:0:0:0:0:
329,192,31603,128,0,32054:0:0:0:30:whistle.wav
182,192,31603,1,0,0:0:0:0:
109,192,31828,1,0,0:0:0:0:
36,192,32016,1,0,0:0:0:0:
329,192,32280,128,0,32477:0:0:0:0:
182,192,32280,1,0,0:0:0:0:
475,192,32477,128,0,33746:0:0:0:0:
109,192,32477,1,0,0:0:0:0:
256,192,32731,1,0,0:0:0:30:hat.wav
36,192,32731,1,0,0:0:0:30:whistle.wav
402,192,32731,1,0,0:0:0:0:
36,192,33182,128,0,33407:0:0:0:0:
182,192,33407,128,0,34197:0:0:0:30:whistle.wav
475,192,34028,1,0,0:0:0:0:
109,192,34197,128,0,34422:0:0:0:0:
402,192,34253,1,0,0:0:0:0:
329,192,34366,1,0,0:0:0:0:
36,192,34422,128,0,34958:0:0:0:0:
475,192,34507,1,0,0:0:0:0:
256,192,34535,1,0,0:0:0:30:hat.wav
402,192,34535,1,0,0:0:0:30:whistle.wav
475,192,34958,128,0,35409:0:0:0:0:
109,192,35212,1,0,0:0:0:30:whistle.wav
256,192,35212,1,0,0:0:0:0:
329,192,35409,128,0,35889:0:0:0:0:
182,192,36114,128,0,36340:0:0:0:0:
36,192,36340,128,0,37016:0:0:0:30:whistle.wav
329,192,36340,1,0,0:0:0:30:hat.wav
475,192,36340,1,0,0:0:0:0:
329,192,36678,1,0,0:0:0:30:hat.wav
402,192,37016,128,0,37693:0:0:0:30:whistle.wav
256,192,37016,1,0,0:0:0:0:
256,192,37693,128,0,38295:0:0:0:0:
402,192,38144,1,0,0:0:0:30:hat.wav
475,192,38144,1,0,0:0:0:30:whistle.wav
109,192,38295,128,0,41528:0:0:0:0:
402,192,38483,1,0,0:0:0:30:hat.wav
256,192,38821,1,0,0:0:0:30:whistle.wav
402,192,38821,1,0,0:0:0:0:
402,192,39723,128,0,39949:0:0:0:0:
256,192,39949,128,0,40513:0:0:0:30:whistle.wav
36,192,39949,1,0,0:0:0:30:hat.wav
329,192,39949,1,0,0:0:0:0:
329,192,40287,1,0,0:0:0:30:hat.wav
475,192,40625,128,0,41415:0:0:0:30:whistle.wav
402,192,40625,1,0,0:0:0:0:
182,192,40625,1,0,0:0:0:0:
329,192,41415,128,0,42204:0:0:0:0:
36,192,41753,1,0,0:0:0:30:snare.wav
256,192,41753,1,0,0:0:0:0:
475,192,41753,1,0,0:0:0:0:
109,192,41979,1,0,0:0:0:30:tom y.wav
182,192,41979,1,0,0:0:0:0:
182,192,42204,128,0,43558:0:0:0:30:tom z.wav
109,192,42204,1,0,0:0:0:0:
402,192,42204,1,0,0:0:0:0:
475,192,42430,1,0,0:0:0:30:snare.wav
329,192,42430,1,0,0:0:0:0:
36,192,42430,1,0,0:0:0:0:
109,192,42656,1,0,0:0:0:30:tom y.wav
256,192,42656,1,0,0:0:0:0:
109,192,42881,1,0,0:0:0:30:tom z.wav
256,192,42881,1,0,0:0:0:0:
475,192,43107,1,0,0:0:0:30:snare.wav
36,192,43107,1,0,0:0:0:0:
402,192,43107,1,0,0:0:0:0:
329,192,43332,1,0,0:0:0:30:tom y.wav
109,192,43332,1,0,0:0:0:0:
475,192,43558,1,0,0:0:0:30:kick.wav
36,192,43558,1,0,0:0:0:30:cym.wav
256,192,43558,128,0,44009:0:0:0:30:tom z.wav
402,192,43783,1,0,0:0:0:30:hat.wav
402,192,44009,1,0,0:0:0:30:snare.wav
36,192,44009,1,0,0:0:0:0:
182,192,44009,1,0,0:0:0:0:
329,192,44234,128,0,44686:0:0:0:30:hat.wav
109,192,44234,1,0,0:0:0:0:
109,192,44460,1,0,0:0:0:0:
36,192,44686,1,0,0:0:0:30:hat.wav
182,192,44686,1,0,0:0:0:30:kick.wav
182,192,44911,128,0,45362:0:0:0:30:snare.wav
329,192,44911,1,0,0:0:0:0:
475,192,44911,1,0,0:0:0:0:
402,192,45137,1,0,0:0:0:30:hat.wav
329,192,45362,1,0,0:0:0:30:kick.wav
36,192,45362,1,0,0:0:0:30:cym.wav
109,192,45362,1,0,0:0:0:0:
256,192,45588,1,0,0:0:0:30:hat.wav
182,192,45813,1,0,0:0:0:30:snare.wav
402,192,45813,1,0,0:0:0:0:
329,192,46039,1,0,0:0:0:30:hat.wav
256,192,46265,1,0,0:0:0:0:
329,192,46490,1,0,0:0:0:30:hat.wav
475,192,46490,1,0,0:0:0:30:kick.wav
402,192,46716,1,0,0:0:0:30:snare.wav
256,192,46716,1,0,0:0:0:0:
109,192,46716,1,0,0:0:0:0:
182,192,46941,1,0,0:0:0:30:hat.wav
36,192,47167,1,0,0:0:0:30:kick.wav
109,192,47167,1,0,0:0:0:30:cym.wav
329,192,47167,128,0,47618:0:0:0:0:
182,192,47392,1,0,0:0:0:30:hat.wav
256,192,47618,1,0,0:0:0:30:snare.wav
475,192,47618,1,0,0:0:0:0:
402,192,47618,1,0,0:0:0:0:
182,192,47843,128,0,48295:0:0:0:30:hat.wav
329,192,47843,1,0,0:0:0:0:
36,192,48069,1,0,0:0:0:0:
329,192,48295,1,0,0:0:0:30:hat.wav
36,192,48520,128,0,48971:0:0:0:30:snare.wav
182,192,48520,1,0,0:0:0:0:
329,192,48520,1,0,0:0:0:0:
256,192,48746,1,0,0:0:0:30:hat.wav
182,192,48971,1,0,0:0:0:30:cym.wav
475,192,48971,1,0,0:0:0:30:kick.wav
402,192,48971,1,0,0:0:0:0:
329,192,49197,1,0,0:0:0:30:hat.wav
329,192,49422,1,0,0:0:0:30:snare.wav
182,192,49422,1,0,0:0:0:0:
36,192,49422,1,0,0:0:0:0:
256,192,49648,1,0,0:0:0:30:hat.wav
329,192,49874,1,0,0:0:0:0:
475,192,49874,1,0,0:0:0:0:
256,192,50099,1,0,0:0:0:30:kick.wav
475,192,50325,128,0,51453:0:0:0:30:snare.wav
402,192,50325,128,0,50776:0:0:0:0:
36,192,50325,1,0,0:0:0:0:
182,192,50325,1,0,0:0:0:0:
329,192,50437,1,0,0:0:0:30:snare.wav
109,192,50550,1,0,0:0:0:30:hat.wav
256,192,50663,1,0,0:0:0:30:snare.wav
36,192,50776,128,0,53934:0:0:0:30:kick.wav
182,192,50776,128,0,51453:0:0:0:30:cym.wav
329,192,51001,1,0,0:0:0:30:hat.wav
329,192,51227,1,0,0:0:0:30:snare.wav
109,192,51227,1,0,0:0:0:0:
256,192,51227,1,0,0:0:0:0:
402,192,51453,128,0,54385:0:0:0:30:hat.wav
256,192,51453,128,0,53934:0:0:0:0:
182,192,51678,1,0,0:0:0:0:
109,192,51904,1,0,0:0:0:30:hat.wav
329,192,51904,1,0,0:0:0:30:kick.wav
329,192,52129,1,0,0:0:0:30:snare.wav
182,192,52129,1,0,0:0:0:0:
475,192,52129,1,0,0:0:0:0:
182,192,52355,1,0,0:0:0:30:hat.wav
109,192,52580,1,0,0:0:0:30:cym.wav
475,192,52580,1,0,0:0:0:30:kick.wav
329,192,52806,1,0,0:0:0:30:hat.wav
329,192,53031,1,0,0:0:0:30:snare.wav
109,192,53031,1,0,0:0:0:0:
182,192,53031,1,0,0:0:0:0:
182,192,53257,1,0,0:0:0:30:hat.wav
109,192,53483,1,0,0:0:0:0:
182,192,53708,1,0,0:0:0:30:kick.wav
475,192,53708,1,0,0:0:0:30:hat.wav
329,192,53934,128,0,54385:0:0:0:30:snare.wav
109,192,53934,128,0,55062:0:0:0:0:
182,192,53934,1,0,0:0:0:0:
256,192,54159,1,0,0:0:0:30:hat.wav
256,192,54385,128,0,55062:0:0:0:30:kick.wav
475,192,54385,128,0,58445:0:0:0:30:cym.wav
329,192,54610,1,0,0:0:0:30:hat.wav
329,192,54836,1,0,0:0:0:30:snare.wav
182,192,54836,1,0,0:0:0:0:
36,192,55062,128,0,60249:0:0:0:30:hat.wav
402,192,55062,128,0,58445:0:0:0:0:
182,192,55062,1,0,0:0:0:0:
329,192,55287,1,0,0:0:0:30:snare.wav
109,192,55287,1,0,0:0:0:0:
109,192,55513,1,0,0:0:0:30:hat.wav
329,192,55513,1,0,0:0:0:30:kick.wav
109,192,55738,1,0,0:0:0:30:snare.wav
256,192,55738,1,0,0:0:0:0:
182,192,55851,1,0,0:0:0:30:snare.wav
329,192,55851,1,0,0:0:0:0:
182,192,56077,1,0,0:0:0:30:snare.wav
329,192,56077,1,0,0:0:0:0:
256,192,56189,1,0,0:0:0:30:kick.wav
109,192,56189,1,0,0:0:0:30:whistle.wav
329,192,57994,128,0,58445:0:0:0:0:
256,192,58445,128,0,58671:0:0:0:0:
182,192,58671,128,0,61152:0:0:0:0:
