osu file format v14

[General]
AudioFilename: audio.mp3
AudioLeadIn: 0
PreviewTime: 2731
Countdown: 0
SampleSet: Soft
StackLeniency: 0.7
Mode: 3
LetterboxInBreaks: 0
SpecialStyle: 0
WidescreenStoryboard: 0

[Editor]
DistanceSpacing: 0.9
BeatDivisor: 4
GridSize: 4
TimelineZoom: 4.899998

[Metadata]
Title:Mahal kong Maynila
TitleUnicode:Mahal kong Maynila
Artist:Cacai Bautista and Vince De Jesus
ArtistUnicode:Cacai Bautista and Vince De Jesus
Creator:Nitrous
Version:4K NM ni Afireee
Source:Maynila
Tags:gma7 domSaur -Aqua newton- - Aries - Afireee JztCallMeRon Lenfried- SurfChu85 -Nicotine Crowley AJamez Deneb
BeatmapID:1626819
BeatmapSetID:773553

[Difficulty]
HPDrainRate:7
CircleSize:4
OverallDifficulty:7
ApproachRate:8.5
SliderMultiplier:1.69
SliderTickRate:1

[Events]
//Background and Video events
0,0,"maynila.jpg",0,0
//Break Periods
//Storyboard Layer 0 (Background)
//Storyboard Layer 1 (Fail)
//Storyboard Layer 2 (Pass)
//Storyboard Layer 3 (Foreground)
//Storyboard Sound Samples

[TimingPoints]
250,451.127819548872,4,2,0,50,1,0
3633,-100,4,2,0,5,0,0
3859,-100,4,2,0,70,0,0
25513,-100,4,2,0,50,0,0
27280,-200,4,2,0,50,0,0
28671,-200,4,2,0,50,0,0
29122,-111.111111111111,4,2,0,50,0,0
30926,-111.111111111111,4,2,0,60,0,0
41753,-100,4,2,0,70,0,0

[HitObjects]
448,192,250,128,0,475:0:0:0:0:
64,192,250,128,0,2618:0:0:0:0:
320,192,475,128,0,701:0:0:0:0:
192,192,701,128,0,926:0:0:0:0:
320,192,926,128,0,1377:0:0:0:0:
448,192,1377,128,0,1603:0:0:0:0:
192,192,1603,128,0,1828:0:0:0:0:
448,192,1828,128,0,2618:0:0:0:0:
64,192,2731,1,0,0:0:0:0:
320,192,2956,1,0,0:0:0:0:
64,192,3295,1,0,0:0:0:0:
448,192,3633,1,0,0:0:0:0:
192,192,3859,1,0,0:0:0:30:kick.wav
320,192,3859,1,0,0:0:0:30:cym.wav
64,192,4310,1,0,0:0:0:30:snare.wav
448,192,4310,1,0,0:0:0:0:
192,192,4986,1,0,0:0:0:30:kick.wav
448,192,5212,1,0,0:0:0:30:snare.wav
192,192,5663,1,0,0:0:0:30:kick.wav
320,192,5663,1,0,0:0:0:30:cym.wav
64,192,6114,1,0,0:0:0:30:snare.wav
192,192,6114,1,0,0:0:0:0:
320,192,6791,1,0,0:0:0:30:kick.wav
448,192,7016,1,0,0:0:0:30:snare.wav
192,192,7242,1,0,0:0:0:30:kick.wav
64,192,7468,1,0,0:0:0:30:kick.wav
192,192,7468,1,0,0:0:0:30:cym.wav
320,192,7919,1,0,0:0:0:30:snare.wav
448,192,8144,1,0,0:0:0:30:hat.wav
192,192,8595,1,0,0:0:0:30:kick.wav
64,192,8821,1,0,0:0:0:30:snare.wav
320,192,9272,1,0,0:0:0:30:kick.wav
448,192,9272,1,0,0:0:0:30:cym.wav
64,192,9723,1,0,0:0:0:30:snare.wav
192,192,9723,1,0,0:0:0:0:
320,192,10400,1,0,0:0:0:30:kick.wav
64,192,10625,1,0,0:0:0:30:snare.wav
320,192,11077,1,0,0:0:0:30:kick.wav
448,192,11077,1,0,0:0:0:30:cym.wav
192,192,11528,1,0,0:0:0:30:snare.wav
320,192,11528,1,0,0:0:0:0:
64,192,11753,1,0,0:0:0:30:hat.wav
320,192,11753,1,0,0:0:0:0:
320,192,12204,1,0,0:0:0:30:kick.wav
192,192,12430,1,0,0:0:0:30:snare.wav
64,192,12430,1,0,0:0:0:0:
320,192,12881,1,0,0:0:0:30:kick.wav
192,192,12881,1,0,0:0:0:30:cym.wav
64,192,13332,1,0,0:0:0:30:snare.wav
192,192,13332,1,0,0:0:0:0:
448,192,13558,1,0,0:0:0:30:hat.wav
320,192,13558,1,0,0:0:0:0:
64,192,14009,1,0,0:0:0:30:kick.wav
448,192,14234,1,0,0:0:0:30:snare.wav
320,192,14460,1,0,0:0:0:30:kick.wav
192,192,14686,1,0,0:0:0:30:kick.wav
320,192,14686,1,0,0:0:0:30:cym.wav
448,192,15137,1,0,0:0:0:30:snare.wav
192,192,15137,1,0,0:0:0:0:
320,192,15362,1,0,0:0:0:30:hat.wav
64,192,15813,1,0,0:0:0:30:kick.wav
192,192,16039,1,0,0:0:0:30:snare.wav
448,192,16265,128,0,17618:0:0:0:30:kick.wav
192,192,16490,1,0,0:0:0:30:kick.wav
320,192,16490,1,0,0:0:0:30:cym.wav
320,192,16941,1,0,0:0:0:30:snare.wav
64,192,17167,1,0,0:0:0:30:hat.wav
64,192,17618,1,0,0:0:0:30:kick.wav
192,192,17843,1,0,0:0:0:30:snare.wav
320,192,17843,1,0,0:0:0:0:
64,192,18069,1,0,0:0:0:30:kick.wav
448,192,18295,1,0,0:0:0:30:kick.wav
192,192,18746,1,0,0:0:0:30:snare.wav
320,192,18971,1,0,0:0:0:30:hat.wav
448,192,19422,1,0,0:0:0:30:kick.wav
320,192,19648,1,0,0:0:0:30:snare.wav
64,192,19874,128,0,21001:0:0:0:30:kick.wav
448,192,20099,1,0,0:0:0:30:kick.wav
320,192,20550,1,0,0:0:0:30:snare.wav
192,192,20776,1,0,0:0:0:30:hat.wav
64,192,21227,1,0,0:0:0:30:kick.wav
192,192,21453,1,0,0:0:0:30:snare.wav
64,192,21453,1,0,0:0:0:0:
320,192,21678,1,0,0:0:0:30:kick.wav
320,192,21904,1,0,0:0:0:30:kick.wav
448,192,21904,1,0,0:0:0:30:cym.wav
192,192,22355,1,0,0:0:0:30:snare.wav
320,192,22355,1,0,0:0:0:0:
448,192,23031,1,0,0:0:0:30:kick.wav
320,192,23257,1,0,0:0:0:30:snare.wav
64,192,23257,1,0,0:0:0:0:
192,192,23708,1,0,0:0:0:30:kick.wav
320,192,23708,1,0,0:0:0:30:cym.wav
64,192,24159,1,0,0:0:0:30:snare.wav
320,192,24159,1,0,0:0:0:0:
64,192,24836,1,0,0:0:0:30:kick.wav
192,192,25062,1,0,0:0:0:30:snare.wav
320,192,25287,1,0,0:0:0:30:snare.wav
448,192,25287,1,0,0:0:0:30:hat.wav
192,192,25513,1,0,0:0:0:30:kick.wav
64,192,25964,1,0,0:0:0:30:snare.wav
320,192,26640,1,0,0:0:0:30:kick.wav
192,192,26866,1,0,0:0:0:30:snare.wav
320,192,26866,1,0,0:0:0:0:
192,192,27092,1,0,0:0:0:0:
64,192,27317,128,0,27994:0:0:0:30:whistle.wav
192,192,27994,128,0,28896:0:0:0:30:whistle.wav
448,192,28896,1,0,0:0:0:0:
448,192,29122,1,0,0:0:0:30:hat.wav
320,192,29798,1,0,0:0:0:0:
192,192,30024,1,0,0:0:0:0:
192,192,30475,1,0,0:0:0:0:
320,192,30701,1,0,0:0:0:0:
448,192,30926,128,0,31603:0:0:0:30:whistle.wav
320,192,31603,128,0,32731:0:0:0:30:whistle.wav
192,192,32731,1,0,0:0:0:30:whistle.wav
320,192,33182,1,0,0:0:0:0:
64,192,33407,1,0,0:0:0:30:whistle.wav
64,192,34535,1,0,0:0:0:30:whistle.wav
192,192,34535,1,0,0:0:0:30:hat.wav
64,192,34986,1,0,0:0:0:0:
320,192,35212,1,0,0:0:0:30:whistle.wav
448,192,35437,1,0,0:0:0:0:
192,192,36114,5,0,0:0:0:0:
64,192,36340,128,0,37016:0:0:0:30:whistle.wav
320,192,36791,5,0,0:0:0:0:
320,192,37016,128,0,37693:0:0:0:30:whistle.wav
192,192,37693,128,0,38144:0:0:0:0:
64,192,38144,128,0,39949:0:0:0:30:whistle.wav
192,192,38821,1,0,0:0:0:30:whistle.wav
320,192,39949,1,0,0:0:0:30:whistle.wav
64,192,40625,1,0,0:0:0:30:whistle.wav
192,192,40625,1,0,0:0:0:0:
192,192,41753,1,0,0:0:0:30:snare.wav
64,192,41753,1,0,0:0:0:0:
448,192,41979,1,0,0:0:0:30:tom y.wav
448,192,42204,1,0,0:0:0:30:tom z.wav
192,192,42430,1,0,0:0:0:30:snare.wav
64,192,42430,1,0,0:0:0:0:
448,192,42656,1,0,0:0:0:30:tom y.wav
448,192,42881,1,0,0:0:0:30:tom z.wav
64,192,43107,1,0,0:0:0:30:snare.wav
192,192,43107,1,0,0:0:0:0:
320,192,43332,1,0,0:0:0:30:tom y.wav
192,192,43558,1,0,0:0:0:30:tom z.wav
320,192,43558,1,0,0:0:0:30:kick.wav
192,192,44009,1,0,0:0:0:30:snare.wav
64,192,44009,1,0,0:0:0:0:
448,192,44686,1,0,0:0:0:30:kick.wav
192,192,44911,1,0,0:0:0:30:snare.wav
320,192,44911,1,0,0:0:0:0:
320,192,45362,1,0,0:0:0:30:kick.wav
448,192,45362,1,0,0:0:0:30:cym.wav
448,192,45813,1,0,0:0:0:30:snare.wav
320,192,45813,1,0,0:0:0:0:
64,192,46265,1,0,0:0:0:0:
320,192,46490,1,0,0:0:0:30:kick.wav
64,192,46716,1,0,0:0:0:30:snare.wav
192,192,46716,1,0,0:0:0:0:
64,192,47167,1,0,0:0:0:30:kick.wav
192,192,47167,1,0,0:0:0:30:cym.wav
320,192,47618,1,0,0:0:0:30:snare.wav
192,192,47618,1,0,0:0:0:0:
192,192,48295,1,0,0:0:0:30:kick.wav
448,192,48520,1,0,0:0:0:30:snare.wav
192,192,48520,1,0,0:0:0:0:
192,192,48971,1,0,0:0:0:30:kick.wav
320,192,48971,1,0,0:0:0:30:cym.wav
64,192,49422,1,0,0:0:0:30:snare.wav
192,192,49422,1,0,0:0:0:0:
64,192,50325,5,0,0:0:0:30:snare.wav
320,192,50550,1,0,0:0:0:30:snare.wav
192,192,50550,1,0,0:0:0:30:hat.wav
448,192,50776,1,0,0:0:0:30:kick.wav
320,192,50776,128,0,51453:0:0:0:30:cym.wav
64,192,51227,1,0,0:0:0:30:snare.wav
64,192,51453,128,0,52580:0:0:0:30:hat.wav
448,192,51904,1,0,0:0:0:30:kick.wav
320,192,52129,1,0,0:0:0:30:snare.wav
192,192,52129,1,0,0:0:0:0:
192,192,52580,1,0,0:0:0:30:kick.wav
320,192,52580,1,0,0:0:0:30:cym.wav
448,192,53031,1,0,0:0:0:30:snare.wav
320,192,53031,1,0,0:0:0:0:
64,192,53483,1,0,0:0:0:0:
320,192,53934,1,0,0:0:0:30:snare.wav
64,192,53934,1,0,0:0:0:0:
320,192,54159,1,0,0:0:0:30:hat.wav
192,192,54385,128,0,55062:0:0:0:30:kick.wav
320,192,54385,1,0,0:0:0:30:cym.wav
448,192,54385,1,0,0:0:0:0:
448,192,54836,1,0,0:0:0:30:snare.wav
448,192,55062,128,0,56189:0:0:0:30:hat.wav
64,192,55287,1,0,0:0:0:30:snare.wav
192,192,55513,1,0,0:0:0:30:snare.wav
320,192,55738,1,0,0:0:0:30:snare.wav
192,192,56189,1,0,0:0:0:30:whistle.wav
320,192,56189,1,0,0:0:0:30:kick.wav
