osu file format v14

[General]
AudioFilename: audio.mp3
AudioLeadIn: 0
PreviewTime: 177100
Countdown: 0
SampleSet: None
StackLeniency: 0
Mode: 0
LetterboxInBreaks: 0
WidescreenStoryboard: 0

[Editor]
DistanceSpacing: 1.7
BeatDivisor: 4
GridSize: 32
TimelineZoom: 2

[Metadata]
Title:Lord of the DAY! DAY! DAY!
TitleUnicode:Lord of the DAY! DAY! DAY!
Artist:CYaRon! x Death Grips
ArtistUnicode:CYaRon! x Death Grips
Creator:Yogurtt
Version:God of Hellfire
Source:Lófasz
Tags:mashup why does this exist
BeatmapID:1946608
BeatmapSetID:932343

[Difficulty]
HPDrainRate:4.4
CircleSize:4
OverallDifficulty:9.2
ApproachRate:9.5
SliderMultiplier:1.93
SliderTickRate:1

[Events]
//Background and Video events
//Break Periods
//Storyboard Layer 0 (Background)
//Storyboard Layer 1 (Fail)
//Storyboard Layer 2 (Pass)
//Storyboard Layer 3 (Foreground)
//Storyboard Sound Samples

[TimingPoints]
21,315.789473684211,4,2,1,70,1,0
336,-100,4,2,1,60,0,0
10836,-100,4,2,1,5,0,0
10915,-83.3333333333333,4,2,1,70,0,0
10994,-83.3333333333333,4,2,1,5,0,0
11073,-71.4285714285714,4,2,1,80,0,0
11152,-71.4285714285714,4,2,1,5,0,0
11231,-62.5,4,2,1,90,0,0
11310,-62.5,4,2,1,5,0,0
11389,-100,4,2,1,100,0,0
11705,-100,4,2,1,80,0,0
23389,-142.857142857143,4,2,1,80,0,0
33494,-200,4,2,1,80,0,0
39178,-111.111111111111,4,2,1,80,0,0
65705,-100,4,2,1,70,0,1
85915,-100,4,2,1,70,0,0
178126,-100,4,2,1,70,0,1
200705,-100,4,2,1,70,0,0
204652,-100,4,2,1,70,0,1
225968,-100,4,2,1,70,0,0

[Colours]
Combo1 : 255,192,0
Combo2 : 0,202,0
Combo3 : 18,124,255
Combo4 : 242,24,57

[HitObjects]
59,208,336,6,0,P|125:195|186:236,1,144.75
220,306,652,2,0,P|263:339|321:331,1,96.5
361,190,968,1,0,0:0:0:0:
389,368,1126,1,0,0:0:0:0:
282,264,1284,6,0,B|273:120|273:120|204:135|204:135|210:234,1,289.5,4|0,0:0|0:0,0:0:0:0:
107,278,1915,2,0,L|-3:303,1,96.5
71,197,2231,1,0,0:0:0:0:
72,363,2389,1,0,0:0:0:0:
207,297,2547,6,0,B|350:255|331:391|507:343,1,289.5
435,127,3178,2,0,P|360:163|332:238,1,144.75
400,260,3494,2,0,P|447:230|474:185,1,96.5
306,67,3810,6,0,B|203:36|203:36|230:216,1,289.5
236,335,4442,2,0,B|179:321|179:321|155:326|155:326|72:307,1,144.75
60,227,4757,2,0,L|153:249,1,96.5
481,185,5073,6,0,P|381:140|225:223,1,289.5
368,374,5705,2,0,P|425:313|424:233,1,144.75
353,237,6021,2,0,P|319:281|310:333,1,96.5
481,185,6336,6,0,B|405:152|398:39|398:39|386:104|318:123,1,289.5,4|0,0:0|0:0,0:0:0:0:
197,123,6968,1,0,0:0:0:0:
197,123,7126,2,0,L|181:239,2,96.5
80,45,7599,6,0,L|123:348,1,289.5,4|0,0:0|0:0,0:0:0:0:
364,272,8231,2,0,L|252:250,1,96.5
120,331,8547,1,8,0:0:0:0:
120,331,8705,1,8,0:0:0:0:
225,184,8863,5,2,0:0:0:0:
315,336,9021,1,0,0:0:0:0:
126,225,9178,1,10,0:0:0:0:
293,90,9336,2,0,L|308:162,1,48.25
254,272,9494,1,2,0:0:0:0:
223,35,9652,1,0,0:0:0:0:
421,167,9810,2,0,L|349:182,1,48.25,10|0,0:0|0:0,0:0:0:0:
130,117,9968,2,0,L|177:107,1,48.25,8|0,0:0|0:0,0:0:0:0:
315,41,10126,6,0,L|301:146,1,96.5,2|0,0:0|0:0,0:0:0:0:
433,262,10442,2,0,L|420:166,1,96.5,8|0,0:0|0:0,0:0:0:0:
224,182,10757,2,0,L|235:267,1,48.25,10|0,0:0|0:0,0:0:0:0:
150,220,10915,6,0,L|162:305,1,57.8999982330323,8|0,0:0|0:0,0:0:0:0:
76,258,11073,6,0,L|90:348,1,67.5499979385377,10|0,0:0|0:0,0:0:0:0:
2,296,11231,6,0,L|17:386,1,77.2,8|0,0:0|0:0,0:0:0:0:
331,265,11389,6,0,P|265:236|145:293,1,193,6|8,0:0|0:0,0:0:0:0:
250,365,11863,1,8,0:0:0:0:
154,137,12021,1,2,0:0:0:0:
2,296,12178,1,0,0:0:0:0:
98,68,12336,1,8,0:0:0:0:
340,169,12494,1,0,0:0:0:0:
340,169,12573,1,0,0:0:0:0:
340,169,12652,6,0,L|329:275,1,96.5,2|0,0:0|0:0,0:0:0:0:
403,370,12968,1,8,0:0:0:0:
235,284,13126,1,8,0:0:0:0:
415,97,13284,2,0,L|426:203,1,96.5,2|0,0:0|0:0,0:0:0:0:
293,371,13599,1,8,0:0:0:0:
257,189,13757,1,0,0:0:0:0:
482,252,13915,6,0,P|429:275|365:256,1,96.5,2|0,0:0|0:0,0:0:0:0:
313,103,14231,1,8,0:0:0:0:
208,301,14389,1,8,0:0:0:0:
220,79,14547,2,0,L|239:205,1,96.5,2|0,0:0|0:0,0:0:0:0:
80,304,14863,1,8,0:0:0:0:
80,304,15021,1,0,0:0:0:0:
234,174,15178,6,0,B|327:152|322:240|444:196,1,193,2|8,0:0|0:0,0:0:0:0:
368,79,15652,2,0,L|382:153,1,48.25,8|0,0:0|0:0,0:0:0:0:
413,291,15810,1,2,0:0:0:0:
308,215,15968,1,0,0:0:0:0:
303,381,16126,1,8,0:0:0:0:
234,265,16284,1,0,0:0:0:0:
112,374,16442,6,0,L|231:353,1,96.5,2|0,0:0|0:0,0:0:0:0:
232,185,16757,1,8,0:0:0:0:
207,357,16915,1,8,0:0:0:0:
374,277,17073,2,0,L|353:158,1,96.5,2|0,0:0|0:0,0:0:0:0:
248,89,17389,2,0,L|231:184,1,96.5,8|0,0:0|0:0,0:0:0:0:
446,211,17705,5,6,0:0:0:0:
283,265,17863,1,0,0:0:0:0:
408,126,18021,1,10,0:0:0:0:
319,352,18178,1,8,0:0:0:0:
408,126,18336,1,2,0:0:0:0:
408,126,18415,1,0,0:0:0:0:
408,126,18494,1,0,0:0:0:0:
235,272,18652,2,0,L|316:260,1,48.25,10|0,0:0|0:0,0:0:0:0:
493,218,18810,2,0,L|412:206,1,48.25,8|0,0:0|0:0,0:0:0:0:
219,355,18968,5,6,0:0:0:0:
512,133,19126,1,8,0:0:0:0:
255,194,19284,1,8,0:0:0:0:
457,284,19442,1,8,0:0:0:0:
457,284,19757,5,8,0:0:0:0:
287,74,19915,1,8,0:0:0:0:
117,284,20073,1,8,0:0:0:0:
117,284,20389,5,8,0:0:0:0:
408,152,20547,1,8,0:0:0:0:
157,79,20705,1,8,0:0:0:0:
157,79,21021,5,8,0:0:0:0:
157,79,21099,1,8,0:0:0:0:
157,79,21178,1,8,0:0:0:0:
157,79,21257,1,8,0:0:0:0:
157,79,21336,5,4,0:0:0:0:
256,192,21415,12,0,23231,0:0:0:0:
172,246,23389,6,0,L|184:323,1,67.5499979385377
263,315,23705,2,0,L|252:248,1,67.5499979385377
294,181,24021,6,0,P|351:155|437:194,1,135.099995877075
446,249,24494,1,0,0:0:0:0:
417,174,24652,2,0,L|430:94,1,67.5499979385377
337,55,24968,2,0,L|347:121,1,67.5499979385377
252,248,25284,6,0,B|219:262|219:262|216:155,1,135.099995877075
178,93,25757,1,0,0:0:0:0:
70,201,25915,2,0,L|158:179,2,67.5499979385377
105,54,26389,1,0,0:0:0:0:
105,54,26547,6,0,P|165:11|241:33,1,135.099995877075
292,56,27021,1,0,0:0:0:0:
370,37,27178,2,0,L|377:114,1,67.5499979385377
446,126,27494,2,0,L|439:203,1,67.5499979385377
390,287,27810,6,0,B|345:277|345:277|309:287|309:287|236:271,1,135.099995877075
305,206,28284,1,0,0:0:0:0:
180,308,28442,2,0,L|183:223,2,67.5499979385377
82,179,28915,1,0,0:0:0:0:
82,179,29073,6,0,B|150:200|145:137|239:180,1,135.099995877075
305,206,29547,1,0,0:0:0:0:
402,204,29705,2,0,L|389:119,1,67.5499979385377
491,59,30021,2,0,L|480:125,1,67.5499979385377
512,302,30336,6,0,B|483:284|468:252|468:252|445:279|402:287,1,135.099995877075
331,276,30810,1,0,0:0:0:0:
343,209,30968,2,0,L|329:282,1,67.5499979385377
253,363,31284,2,0,L|241:297,1,67.5499979385377
169,196,31599,6,0,P|104:186|46:235,1,135.099995877075
161,282,32073,1,0,0:0:0:0:
219,126,32231,2,0,L|287:113,1,67.5499979385377
361,134,32547,1,0,0:0:0:0:
361,134,32705,1,0,0:0:0:0:
396,241,32863,2,0,B|337:225|337:225|318:230|318:230|258:214|258:214|238:218|238:218|155:191,1,236.424992784882
104,246,33494,5,0,0:0:0:0:
104,246,33652,1,0,0:0:0:0:
104,246,33810,2,0,L|116:329,1,72.375
120,351,34126,5,0,0:0:0:0:
230,285,34284,1,0,0:0:0:0:
230,285,34442,1,0,0:0:0:0:
230,285,34599,1,0,0:0:0:0:
230,285,34678,1,0,0:0:0:0:
230,285,34757,1,0,0:0:0:0:
230,285,34915,1,0,0:0:0:0:
230,285,35073,1,0,0:0:0:0:
230,285,35231,1,0,0:0:0:0:
349,327,35389,5,0,0:0:0:0:
349,327,35547,1,0,0:0:0:0:
349,327,35705,1,0,0:0:0:0:
349,327,35863,1,0,0:0:0:0:
349,327,35942,1,0,0:0:0:0:
349,327,36021,1,0,0:0:0:0:
349,327,36179,1,0,0:0:0:0:
349,327,36337,1,0,0:0:0:0:
349,327,36495,1,0,0:0:0:0:
205,365,36653,5,0,0:0:0:0:
205,365,36810,1,0,0:0:0:0:
205,365,36968,1,0,0:0:0:0:
205,365,37126,1,0,0:0:0:0:
309,249,37284,5,0,0:0:0:0:
309,249,37442,1,0,0:0:0:0:
309,249,37599,1,0,0:0:0:0:
309,249,37757,1,0,0:0:0:0:
144,267,37915,5,0,0:0:0:0:
144,267,38073,1,0,0:0:0:0:
144,267,38231,1,0,0:0:0:0:
144,267,38310,1,0,0:0:0:0:
144,267,38389,1,0,0:0:0:0:
309,163,38547,5,0,0:0:0:0:
205,365,38705,1,0,0:0:0:0:
191,79,38863,2,0,L|201:150,1,72.375
197,167,39178,6,0,L|97:154,1,86.8499973495484
225,254,39494,1,0,0:0:0:0:
266,46,39652,2,0,L|272:110,1,43.4249986747742
309,163,39810,2,0,L|409:150,1,86.8499973495484
292,309,40126,2,0,P|251:335|194:334,1,86.8499973495484
37,252,40442,6,0,B|120:210|126:292|222:232,1,173.699994699097
270,89,40915,1,0,0:0:0:0:
270,89,40994,1,0,0:0:0:0:
270,89,41073,2,0,L|265:192,1,86.8499973495484
374,340,41389,2,0,L|369:253,1,86.8499973495484
361,165,41705,6,0,L|431:170,1,43.4249986747742
482,172,41863,1,0,0:0:0:0:
270,89,42021,1,0,0:0:0:0:
268,314,42178,1,0,0:0:0:0:
351,42,42336,6,0,L|354:85,1,43.4249986747742
361,165,42494,1,0,0:0:0:0:
201,28,42652,1,0,0:0:0:0:
146,232,42810,1,0,0:0:0:0:
244,170,42968,6,0,L|55:184,1,173.699994699097
272,307,43442,1,0,0:0:0:0:
272,307,43521,1,0,0:0:0:0:
272,307,43599,1,0,0:0:0:0:
342,269,43757,1,0,0:0:0:0:
418,283,43915,1,0,0:0:0:0:
202,268,44073,1,0,0:0:0:0:
301,92,44231,6,0,B|332:75|346:47|346:47|328:113|385:172,1,173.699994699097
493,209,44705,1,0,0:0:0:0:
493,209,44784,1,0,0:0:0:0:
493,209,44863,1,0,0:0:0:0:
420,83,45021,1,0,0:0:0:0:
284,252,45178,1,0,0:0:0:0:
412,169,45336,1,0,0:0:0:0:
301,92,45494,6,0,L|322:191,1,86.8499973495484
265,336,45810,2,0,L|283:251,1,86.8499973495484
143,161,46126,2,0,P|187:160|242:206,1,86.8499973495484
429,331,46442,2,0,P|386:332|349:312,1,86.8499973495484
301,92,46757,5,0,0:0:0:0:
202,274,46915,1,0,0:0:0:0:
56,149,47073,2,0,L|143:161,1,86.8499973495484
