osu file format v14

[General]
AudioFilename: audio.mp3
AudioLeadIn: 0
PreviewTime: 65313
Countdown: 0
SampleSet: Soft
StackLeniency: 0.4
Mode: 0
LetterboxInBreaks: 0
WidescreenStoryboard: 0

[Editor]
Bookmarks: 43131,112586
DistanceSpacing: 1
BeatDivisor: 4
GridSize: 32
TimelineZoom: 1.4

[Metadata]
Title:Kinmirai Happy End
TitleUnicode:近未来ハッピーエンド
Artist:CYaRon!
ArtistUnicode:CYaRon!
Creator:Yogurtt
Version:Sunshine
Source:ラブライブ!サンシャイン!!
Tags:Love Live! School Idol Project: Sunshine!! single album aquors
BeatmapID:1451948
BeatmapSetID:685957

[Difficulty]
HPDrainRate:5.5
CircleSize:4.2
OverallDifficulty:8.6
ApproachRate:9.3
SliderMultiplier:1.88
SliderTickRate:1

[Events]
//Background and Video events
0,0,"CYR.png",0,0
//Break Periods
//Storyboard Layer 0 (Background)
//Storyboard Layer 1 (Fail)
//Storyboard Layer 2 (Pass)
//Storyboard Layer 3 (Foreground)
//Storyboard Sound Samples

[TimingPoints]
2041,363.636363636364,4,2,1,70,1,0
17131,-66.6666666666667,4,2,1,70,0,0
17859,-100,4,2,1,70,0,0
29313,-76.9230769230769,4,2,1,70,0,0
29495,-66.6666666666667,4,2,1,70,0,0
31495,-100,4,2,1,70,0,0
41313,-66.6666666666667,4,2,1,70,0,0
42222,-100,4,2,1,70,0,0
45313,-76.9230769230769,4,2,1,70,0,0
45677,-100,4,2,1,70,0,0
48222,-76.9230769230769,4,2,1,70,0,0
48586,-100,4,2,1,70,0,0
51131,-76.9230769230769,4,2,1,70,0,0
51495,-100,4,2,1,70,0,0
54404,-66.6666666666667,4,2,1,70,0,0
54768,-100,4,2,1,70,0,0
60586,-200,4,2,1,70,0,0
63313,-66.6666666666667,4,2,1,70,0,0
66041,-66.6666666666667,4,2,1,70,0,1
66404,-100,4,2,1,70,0,1
71313,-66.6666666666667,4,2,1,70,0,1
71859,-100,4,2,1,70,0,1
73495,-66.6666666666667,4,2,1,70,0,1
77131,-100,4,2,1,70,0,1
77313,-100,4,2,1,70,0,0
77677,-66.6666666666667,4,2,1,70,0,1
78041,-100,4,2,1,70,0,1
82950,-66.6666666666667,4,2,1,70,0,1
83495,-100,4,2,1,70,0,1
85131,-66.6666666666667,4,2,1,70,0,1
88950,-100,4,2,1,70,0,1
89313,-100,4,2,1,70,0,0
95131,-76.9230769230769,4,2,1,70,0,0
95495,-100,4,2,1,70,0,0
98041,-166.666666666667,4,2,1,70,0,0
98404,-66.6666666666667,4,2,1,70,0,0
99313,-100,4,2,1,70,0,0

[HitObjects]
93,242,2041,5,4,1:0:0:0:
316,193,2222,1,0,1:0:0:0:
205,218,2404,5,0,0:0:0:0:
344,304,2586,1,8,0:3:0:0:
344,304,2677,1,8,0:3:0:0:
468,198,2859,1,8,0:3:0:0:
468,198,2950,1,8,0:3:0:0:
405,48,3131,1,0,0:0:0:0:
242,61,3313,1,0,0:0:0:0:
417,28,3495,5,4,1:0:0:0:
362,232,3677,1,0,1:0:0:0:
390,130,3859,5,0,0:0:0:0:
441,312,4041,1,8,0:3:0:0:
441,312,4131,1,8,0:3:0:0:
262,207,4313,1,8,0:3:0:0:
262,207,4403,1,8,0:3:0:0:
352,320,4586,1,4,0:0:0:0:
316,88,4768,1,0,0:0:0:0:
134,236,4950,6,0,L|26:226,1,90,4|0,0:0|0:0,0:0:0:0:
202,18,5313,2,0,L|214:86,3,45
235,89,5677,2,0,L|223:157,3,45
202,160,6041,2,0,L|214:228,3,45
268,274,6404,5,8,0:0:0:0:
235,89,6586,1,8,0:0:0:0:
235,89,6768,1,8,0:0:0:0:
158,313,6950,2,0,B|93:290|36:324|36:324|24:293|-14:265,1,188,8|0,0:0|0:0,0:0:0:0:
0,275,7404,1,0,0:0:0:0:
0,275,7495,2,0,P|58:264|68:342,1,141,2|0,0:0|0:0,0:0:0:0:
77,330,7859,6,0,P|173:321|271:316,1,188,4|8,0:0|0:0,0:0:0:0:
439,162,8404,1,0,0:0:0:0:
371,286,8586,1,2,0:0:0:0:
439,162,8768,1,0,0:0:0:0:
329,60,8950,2,0,B|351:148|351:148|306:201,1,141,8|0,0:0|0:0,0:0:0:0:
238,212,9313,6,0,P|180:192|127:191,1,94,2|0,0:0|0:0,0:0:0:0:
318,186,9677,1,8,0:0:0:0:
147,189,9859,2,0,L|38:206,1,94,0|2,0:0|0:0,0:0:0:0:
0,68,10222,2,0,L|109:85,1,94,0|8,0:0|0:0,0:0:0:0:
249,118,10586,6,0,L|235:231,1,94,0|2,0:0|0:0,0:0:0:0:
299,339,10950,1,0,0:0:0:0:
150,254,11131,5,8,0:0:0:0:
150,254,11222,1,0,0:0:0:0:
150,254,11313,1,0,0:0:0:0:
340,184,11495,1,2,0:0:0:0:
182,351,11677,1,0,0:0:0:0:
340,184,11859,1,8,0:0:0:0:
133,226,12041,5,0,0:0:0:0:
381,309,12222,2,0,L|478:283,1,94,2|0,0:0|0:0,0:0:0:0:
340,184,12586,2,0,P|289:147|240:171,1,94,8|0,0:0|0:0,0:0:0:0:
80,112,12950,2,0,P|119:89|163:102,1,94,2|0,0:0|0:0,0:0:0:0:
233,227,13313,2,0,L|223:292,1,47,8|0,0:0|0:0,0:0:0:0:
139,338,13495,2,0,L|149:403,1,47
143,174,13677,5,6,0:0:0:0:
287,343,13859,1,0,0:0:0:0:
322,92,14041,5,10,0:0:0:0:
287,343,14222,1,0,0:0:0:0:
415,211,14404,5,2,0:0:0:0:
162,292,14586,1,0,0:0:0:0:
322,92,14768,1,10,0:0:0:0:
317,138,14858,1,0,0:0:0:0:
313,185,14949,1,0,0:0:0:0:
373,384,15131,5,6,0:0:0:0:
309,232,15313,1,0,0:0:0:0:
193,383,15495,5,10,0:0:0:0:
195,132,15677,1,0,0:0:0:0:
411,259,15859,5,2,0:0:0:0:
342,2,16041,1,0,0:0:0:0:
411,259,16222,1,10,0:0:0:0:
142,201,16404,1,0,0:0:0:0:
142,201,16495,1,0,0:0:0:0:
142,201,16586,6,0,B|210:183|210:183|252:198|252:198|350:168,1,188,6|0,0:0|0:0,0:0:0:0:
236,29,17131,5,8,0:0:0:0:
236,29,17222,1,8,0:0:0:0:
236,29,17313,2,0,L|255:119,1,70.5000026893617,8|0,0:0|0:0,0:0:0:0:
307,245,17495,6,0,L|321:176,1,70.5000026893617,8|0,0:0|0:0,0:0:0:0:
147,35,17677,6,0,L|166:125,1,70.5000026893617,8|0,0:0|0:0,0:0:0:0:
474,156,17859,6,0,P|437:127|369:132,1,94,4|0,0:0|0:0,0:0:0:0:
236,175,18222,1,8,0:0:0:0:
512,258,18404,6,0,P|468:240|404:263,1,94,2|0,0:0|0:0,0:0:0:0:
287,341,18767,1,8,0:0:0:0:
397,30,18950,6,0,L|392:128,1,94,2|0,0:0|0:0,0:0:0:0:
220,104,19313,1,8,0:0:0:0:
220,104,19404,1,8,0:0:0:0:
220,104,19495,6,0,B|147:124|147:124|110:115|110:115|28:139,1,188,12|8,0:0|0:0,0:0:0:0:
141,322,20041,1,0,0:0:0:0:
112,199,20222,1,2,0:0:0:0:
141,322,20404,1,0,0:0:0:0:
234,236,20586,1,8,0:0:0:0:
38,135,20768,1,0,0:0:0:0:
234,236,20950,6,0,L|428:209,1,188,6|8,0:0|0:0,0:0:0:0:
498,241,21404,1,0,0:0:0:0:
498,241,21495,1,0,0:0:0:0:
364,112,21677,1,2,0:0:0:0:
431,330,21859,1,0,0:0:0:0:
429,338,21950,1,0,0:0:0:0:
427,346,22041,1,8,0:0:0:0:
491,140,22222,1,0,0:0:0:0:
425,354,22404,6,0,B|317:327|317:327|226:370,1,188,6|8,0:0|0:0,0:0:0:0:
247,359,22859,1,0,0:0:0:0:
247,359,22950,1,0,0:0:0:0:
261,144,23131,2,0,P|278:197|260:243,1,94,2|0,0:0|0:0,0:0:0:0:
138,290,23495,2,0,P|95:271|71:231,1,94,8|0,0:0|0:0,0:0:0:0:
270,45,23859,6,0,P|342:82|348:187,1,188,6|8,0:0|0:0,0:0:0:0:
105,110,24404,1,0,0:0:0:0:
261,144,24586,1,2,0:0:0:0:
176,1,24768,2,0,L|189:65,1,47
255,182,24950,1,8,0:0:0:0:
255,182,25041,1,0,0:0:0:0:
255,182,25131,2,0,L|242:246,1,47
358,54,25313,6,0,B|402:10|465:42|465:42|480:95|432:114,1,188,6|8,0:0|0:0,0:0:0:0:
323,152,25859,1,0,0:0:0:0:
478,239,26041,1,2,0:0:0:0:
328,344,26223,1,0,0:0:0:0:
399,171,26404,1,8,0:0:0:0:
225,62,26586,1,0,0:0:0:0:
221,56,26677,1,0,0:0:0:0:
217,50,26768,6,0,L|242:247,1,188,6|8,0:0|0:0,0:0:0:0:
233,314,27222,1,0,0:0:0:0:
233,314,27313,1,0,0:0:0:0:
138,206,27495,1,2,0:0:0:0:
356,293,27677,1,0,0:0:0:0:
135,380,27859,1,8,0:0:0:0:
135,380,27950,1,0,0:0:0:0:
135,380,28041,1,0,0:0:0:0:
322,190,28222,6,0,B|446:175|446:175|493:244,1,188,6|8,0:0|0:0,0:0:0:0:
388,84,28768,1,0,0:0:0:0:
286,282,28950,1,2,0:0:0:0:
388,84,29131,6,0,L|334:78,1,47,8|0,0:0|0:0,0:0:0:0:
221,204,29313,6,0,L|154:211,1,61.0999972030641,8|0,0:0|0:0,0:0:0:0:
128,32,29495,6,0,L|35:22,1,70.5000026893617,8|0,0:0|0:0,0:0:0:0:
221,204,29859,5,2,0:3:0:0:
221,204,29950,1,2,0:3:0:0:
388,84,30131,1,2,0:3:0:0:
388,84,30222,1,2,0:3:0:0:
423,335,30404,1,2,0:3:0:0:
313,300,30586,1,8,0:0:0:0:
315,286,30676,1,8,0:0:0:0:
317,272,30767,1,8,0:0:0:0:
320,258,30858,1,8,0:0:0:0:
322,244,30949,1,8,0:0:0:0:
325,230,31040,1,8,0:0:0:0:
282,128,31131,6,0,P|243:219|345:174,1,211.500008068085,6|0,0:0|0:0,0:0:0:0:
371,158,31495,2,0,L|492:171,1,94,8|0,0:0|0:0,0:0:0:0:
265,34,31859,2,0,L|386:47,1,94,2|0,0:0|0:0,0:0:0:0:
161,215,32222,1,8,0:0:0:0:
265,34,32404,1,0,0:0:0:0:
161,215,32586,6,0,L|144:108,1,94,6|0,0:0|0:0,0:0:0:0:
142,35,32859,1,0,0:0:0:0:
142,35,32950,1,8,0:0:0:0:
40,254,33131,1,0,0:0:0:0:
249,163,33313,1,2,0:0:0:0:
40,254,33495,2,0,P|91:298|131:287,1,94,0|8,0:0|0:0,0:0:0:0:
326,271,33859,1,0,0:0:0:0:
326,271,33950,1,0,0:0:0:0:
326,271,34041,6,0,P|280:276|252:312,1,94,6|0,0:0|0:0,0:0:0:0:
221,88,34404,2,0,L|229:200,1,94,8|0,0:0|0:0,0:0:0:0:
338,50,34768,1,2,0:0:0:0:
110,168,34950,1,0,0:0:0:0:
332,177,35131,2,0,L|324:289,1,94,8|0,0:0|0:0,0:0:0:0:
338,50,35495,5,6,0:0:0:0:
221,88,35677,1,0,0:0:0:0:
414,184,35859,1,8,0:0:0:0:
414,184,35950,1,0,0:0:0:0:
414,184,36041,1,0,0:0:0:0:
234,290,36222,1,2,0:0:0:0:
369,78,36404,2,0,L|429:65,1,47
302,181,36586,2,0,L|242:168,1,47,8|0,0:0|0:0,0:0:0:0:
154,55,36768,2,0,L|214:42,1,47
360,297,36950,6,0,B|381:165|381:165|302:187,1,188,6|8,0:0|0:0,0:0:0:0:
94,200,37495,2,0,L|190:217,1,94,0|2,0:0|0:0,0:0:0:0:
191,213,37768,1,0,0:0:0:0:
196,210,37859,1,0,0:0:0:0:
322,46,38041,2,0,L|226:63,1,94,8|0,0:0|0:0,0:0:0:0:
360,297,38404,6,0,P|406:323|504:234,1,188,6|8,0:0|0:0,0:0:0:0:
388,115,38950,1,0,0:0:0:0:
388,115,39041,1,0,0:0:0:0:
388,115,39131,2,0,P|380:169|373:216,1,94,2|0,0:0|0:0,0:0:0:0:
265,260,39404,2,0,P|258:213|251:167,1,94,2|0,0:0|0:0,0:0:0:0:
127,116,39677,2,0,P|133:162|140:208,1,94,2|6,0:0|0:0,0:0:0:0:
140,208,39950,5,0,0:0:0:0:
140,208,40041,1,0,0:0:0:0:
87,301,40222,1,8,0:0:0:0:
31,187,40404,1,0,0:0:0:0:
10,363,40586,1,2,0:0:0:0:
127,116,40768,1,0,0:0:0:0:
273,260,40950,2,0,P|324:250|382:237,1,94,8|0,0:0|0:0,0:0:0:0:
405,9,41313,6,0,L|425:100,1,70.5000026893617,10|0,0:0|0:0,0:0:0:0:
312,128,41495,2,0,P|260:119|217:117,1,70.5000026893617,8|0,0:0|0:0,0:0:0:0:
103,252,41677,2,0,P|136:211|160:175,1,70.5000026893617,8|0,0:0|0:0,0:0:0:0:
100,9,41859,2,0,P|118:58|137:96,1,70.5000026893617,8|0,0:0|0:0,0:0:0:0:
334,49,42222,5,8,0:0:0:0:
329,64,42312,1,8,0:0:0:0:
325,80,42403,1,8,0:0:0:0:
321,96,42494,1,8,0:0:0:0:
316,112,42585,1,8,0:0:0:0:
312,128,42676,1,8,0:0:0:0:
346,217,42768,6,0,L|408:201,3,47,4|0|0|0,0:0|0:0|0:0|0:0,0:0:0:0:
266,116,43131,2,0,L|311:127,3,47
313,312,43495,2,0,L|375:296,3,47
134,256,43859,6,0,L|119:192,1,47,8|0,0:0|0:0,0:0:0:0:
118,236,44041,2,0,L|120:170,1,47,8|0,0:0|0:0,0:0:0:0:
107,212,44222,6,0,L|126:149,3,47,4|0|0|0,0:0|0:0|0:0|0:0,0:0:0:0:
194,80,44586,2,0,L|174:17,3,47
45,135,44950,2,0,L|64:72,3,47
134,256,45313,6,0,B|179:260|219:239|219:239|212:254|212:254|246:233|327:232,1,183.299991609192,8|0,0:1|0:0,0:0:0:0:
373,219,45677,6,0,L|363:288,3,47,4|0|0|0,0:0|0:0|0:0|0:0,0:0:0:0:
445,108,46041,2,0,L|455:177,3,47
451,286,46404,2,0,L|441:355,3,47
287,233,46768,6,0,L|219:243,1,47,8|0,0:0|0:0,0:0:0:0:
257,217,46950,2,0,L|196:249,1,47,8|0,0:0|0:0,0:0:0:0:
223,212,47131,6,0,L|177:263,3,47,4|0|0|0,0:0|0:0|0:0|0:0,0:0:0:0:
108,231,47495,2,0,L|82:294,3,47
211,78,47859,2,0,L|209:146,3,47
268,310,48222,6,0,B|393:297|393:297|373:220,1,183.299991609192,8|0,0:1|0:0,0:0:0:0:
373,157,48586,6,0,L|456:171,3,47,4|0|0|0,0:0|0:0|0:0|0:0,0:0:0:0:
461,65,48950,2,0,L|507:57,3,47
349,46,49313,2,0,L|342:0,3,47
218,132,49677,6,0,L|224:85,1,47,8|0,0:0|0:0,0:0:0:0:
245,181,49859,2,0,L|235:134,1,47,8|0,0:0|0:0,0:0:0:0:
218,230,50041,6,0,L|227:183,3,47,4|0|0|0,0:0|0:0|0:0|0:0,0:0:0:0:
256,320,50404,2,0,L|303:329,3,47
152,312,50768,2,0,L|143:359,3,47
24,255,51131,6,0,P|28:183|153:179,1,183.299991609192,8|0,0:1|0:0,0:0:0:0:
218,137,51495,6,0,L|227:184,3,47,4|0|0|0,0:0|0:0|0:0|0:0,0:0:0:0:
348,35,51859,2,0,L|339:82,3,47
314,193,52222,2,0,L|323:240,3,47
239,374,52586,6,0,L|161:364,1,47,8|0,0:0|0:0,0:0:0:0:
96,224,52768,2,0,L|49:229,1,47,8|0,0:0|0:0,0:0:0:0:
259,358,52950,5,4,0:3:0:0:
314,193,53131,1,8,0:3:0:0:
227,36,53313,1,8,0:3:0:0:
452,135,53495,1,8,0:3:0:0:
452,135,53586,1,8,0:3:0:0:
452,135,53677,2,8,L|463:207,1,47,8|8,0:3|0:3,0:3:0:0:
416,256,53859,2,8,L|423:209,1,47,8|8,0:3|0:3,0:3:0:0:
347,72,54041,2,8,L|358:144,1,47,8|8,0:3|0:3,0:3:0:0:
275,260,54222,2,8,L|282:213,1,47,8|8,0:3|0:3,0:3:0:0:
200,59,54404,6,0,B|75:34|75:34|0:100,1,211.500008068085,4|0,0:0|0:0,0:0:0:0:
0,171,54768,2,0,P|17:235|26:286,1,94,8|0,0:0|0:0,0:0:0:0:
200,59,55131,2,0,P|183:123|174:174,1,94,2|0,0:0|0:0,0:0:0:0:
255,361,55495,1,8,0:0:0:0:
423,251,55677,1,0,0:0:0:0:
255,361,55859,6,0,L|262:235,1,94,2|0,0:0|0:0,0:0:0:0:
352,165,56222,2,0,L|345:39,1,94,8|0,0:0|0:0,0:0:0:0:
72,185,56586,2,0,P|119:224|176:236,1,94,10|0,0:0|0:0,0:0:0:0:
248,179,56859,2,0,P|258:118|240:63,1,94,8|0,0:0|0:0,0:0:0:0:
154,29,57131,2,0,P|96:50|57:93,1,94,8|2,0:0|0:0,0:0:0:0:
72,71,57404,5,0,0:0:0:0:
72,71,57495,1,0,0:0:0:0:
149,233,57677,1,8,0:0:0:0:
72,71,57859,2,0,L|62:176,1,94,0|2,0:0|0:0,0:0:0:0:
251,87,58222,1,0,0:0:0:0:
251,87,58313,1,0,0:0:0:0:
251,87,58404,1,8,0:0:0:0:
21,329,58586,6,0,B|92:311|92:311|126:329|126:329|228:308,1,188,6|0,0:0|0:0,0:0:0:0:
390,183,59131,2,0,P|312:165|276:230,1,141,8|0,0:0|0:0,0:0:0:0:
269,281,59495,5,2,0:0:0:0:
251,87,59677,1,0,0:0:0:0:
198,210,59859,1,8,0:0:0:0:
251,87,60041,1,0,0:0:0:0:
87,207,60222,5,4,0:0:0:0:
390,183,60404,1,8,0:0:0:0:
177,52,60586,6,0,L|186:-3,1,47
196,83,60950,2,0,L|187:28,1,47
177,114,61313,2,0,L|186:59,1,47,0|8,0:0|0:0,0:0:0:0:
184,67,61586,1,8,0:0:0:0:
184,67,61677,5,12,0:0:0:0:
296,339,61859,1,8,0:0:0:0:
404,154,62041,6,0,L|342:171,1,47
358,166,62313,1,0,0:0:0:0:
358,166,62404,1,0,0:0:0:0:
402,79,62586,2,0,L|419:141,1,47
414,124,62950,1,0,0:0:0:0:
277,316,63131,5,4,0:0:0:0:
489,233,63313,2,0,B|381:193|381:193|265:243,1,211.500008068085,8|0,0:0|0:0,0:0:0:0:
186,264,63677,2,0,P|145:188|243:186,1,211.500008068085,8|0,0:0|0:0,0:0:0:0:
171,289,64041,2,0,L|71:294,1,70.5000026893617,8|0,0:0|0:0,0:0:0:0:
0,172,64222,2,0,L|100:177,1,70.5000026893617,8|0,0:0|0:0,0:0:0:0:
309,121,64404,6,0,B|174:132|174:132|269:200,1,211.500008068085,12|0,0:0|0:0,0:0:0:0:
345,31,64768,2,0,L|236:40,1,70.5000026893617,8|0,0:0|0:0,0:0:0:0:
68,13,64950,2,0,B|83:100|83:100|81:198|81:198|101:298,1,282.000010757447,8|0,0:0|0:0,0:0:0:0:
99,291,65404,1,0,0:0:0:0:
99,291,65495,1,2,0:0:0:0:
236,375,65677,1,2,0:0:0:0:
404,261,65859,1,2,0:0:0:0:
405,15,66041,6,0,P|331:8|341:142,1,211.500008068085,4|0,0:0|0:0,0:0:0:0:
308,120,66404,2,0,P|258:88|220:90,1,94,8|0,0:0|0:0,0:0:0:0:
68,13,66768,2,0,P|77:68|84:115,1,94,2|0,0:0|0:0,0:0:0:0:
243,164,67131,2,0,P|234:219|227:266,1,94,8|0,0:0|0:0,0:0:0:0:
42,367,67495,5,2,0:0:0:0:
153,236,67677,1,0,0:0:0:0:
42,367,67859,1,8,0:0:0:0:
66,149,68041,5,0,0:0:0:0:
190,358,68222,1,2,0:0:0:0:
66,149,68404,2,0,L|184:127,1,94,0|8,0:0|0:0,0:0:0:0:
451,261,68768,1,0,0:0:0:0:
451,261,68859,1,0,0:0:0:0:
451,261,68950,6,0,B|404:278|404:278|416:167,1,141,6|0,0:0|0:0,0:0:0:0:
424,98,69313,1,8,0:0:0:0:
424,98,69495,1,0,0:0:0:0:
287,159,69677,1,2,0:0:0:0:
424,98,69859,1,0,0:0:0:0:
229,61,70041,1,8,0:0:0:0:
413,187,70222,1,0,0:0:0:0:
211,283,70404,6,0,L|41:274,1,141,2|0,0:0|0:0,0:0:0:0:
189,137,70768,2,0,L|173:200,1,47,8|0,0:0|0:0,0:0:0:0:
35,189,70950,2,0,L|205:180,1,141,2|0,0:0|0:0,0:0:0:0:
303,243,71313,6,0,P|295:194|289:151,1,70.5000026893617,8|0,0:0|0:0,0:0:0:0:
427,262,71495,2,0,P|435:213|441:170,1,70.5000026893617,8|0,0:0|0:0,0:0:0:0:
280,227,71677,2,0,P|274:192|269:157,1,70.5000026893617,8|0,0:0|0:0,0:0:0:0:
454,70,71859,6,0,P|401:71|357:112,1,94,2|0,0:0|0:0,0:0:0:0:
141,46,72222,2,0,P|194:45|238:4,1,94,8|0,0:0|0:0,0:0:0:0:
368,93,72586,2,0,L|352:203,1,94,2|0,0:0|0:0,0:0:0:0:
381,347,72950,1,8,0:0:0:0:
384,353,73041,1,0,0:0:0:0:
387,359,73131,2,0,L|324:367,1,47
224,256,73313,2,0,L|287:264,1,47,6|0,0:0|0:0,0:0:0:0:
118,312,73495,6,0,P|104:265|116:218,1,70.5000026893617,8|0,0:0|0:0,0:0:0:0:
19,224,73677,2,0,P|26:175|56:137,1,70.5000026893617,10|0,0:0|0:0,0:0:0:0:
126,104,73859,2,0,P|173:90|220:102,1,70.5000026893617,8|0,0:0|0:0,0:0:0:0:
214,5,74041,2,0,P|262:12|300:42,1,70.5000026893617,10|0,0:0|0:0,0:0:0:0:
407,204,74222,1,0,0:0:0:0:
381,56,74404,1,10,0:0:0:0:
270,261,74586,1,0,0:0:0:0:
270,261,74677,1,0,0:0:0:0:
270,261,74768,6,0,B|343:301|343:301|490:270,1,211.500008068085,6|0,0:0|0:0,0:0:0:0:
480,261,75131,2,0,P|378:257|376:367,1,211.500008068085,10|0,0:0|0:0,0:0:0:0:
347,372,75495,2,0,L|259:364,1,70.5000026893617,2|0,0:0|0:0,0:0:0:0:
180,339,75677,2,0,L|92:331,1,70.5000026893617
32,128,75859,1,10,0:0:0:0:
33,144,75949,1,0,0:0:0:0:
35,160,76040,1,0,0:0:0:0:
76,48,76222,5,6,0:0:0:0:
2,242,76404,1,0,0:0:0:0:
67,32,76586,1,10,0:0:0:0:
214,161,76768,1,0,0:0:0:0:
214,161,76859,1,0,0:0:0:0:
214,161,76950,1,2,0:0:0:0:
35,160,77131,2,8,L|104:143,1,47
200,41,77313,2,8,L|131:24,1,47,10|8,0:0|0:0,0:0:0:0:
237,186,77495,2,8,L|306:169,1,47
444,0,77677,6,0,B|427:76|427:76|444:126|444:126|427:214,1,211.500008068085,6|0,0:0|0:0,0:0:0:0:
421,232,78041,2,0,L|525:223,1,94,8|0,0:0|0:0,0:0:0:0:
257,92,78404,2,0,L|350:100,1,94,2|0,0:0|0:0,0:0:0:0:
197,304,78768,2,0,P|150:314|110:281,1,94,8|0,0:0|0:0,0:0:0:0:
73,140,79131,5,2,0:0:0:0:
36,346,79313,1,0,0:0:0:0:
73,140,79495,1,8,0:0:0:0:
197,304,79677,5,0,0:0:0:0:
1,212,79859,1,2,0:0:0:0:
197,304,80041,2,0,L|314:292,1,94,0|8,0:0|0:0,0:0:0:0:
467,164,80404,1,0,0:0:0:0:
467,164,80495,1,0,0:0:0:0:
467,164,80586,6,0,P|413:133|319:158,1,141,6|0,0:0|0:0,0:0:0:0:
278,190,80950,2,0,P|216:201|171:186,1,94,8|0,0:0|0:0,0:0:0:0:
352,32,81313,2,0,P|363:94|348:139,1,94,2|0,0:0|0:0,0:0:0:0:
186,193,81677,1,8,0:0:0:0:
355,123,81859,1,0,0:0:0:0:
291,348,82041,6,0,B|243:306|169:318|169:318|115:364,1,188,2|8,0:0|0:0,0:0:0:0:
105,124,82586,2,0,P|128:194|197:183,1,141,2|0,0:0|0:0,0:0:0:0:
290,150,82950,6,0,L|275:229,1,70.5000026893617,8|0,0:0|0:0,0:0:0:0:
243,49,83131,2,0,L|182:-3,1,70.5000026893617,8|0,0:0|0:0,0:0:0:0:
353,58,83313,2,0,L|428:31,1,70.5000026893617,8|0,0:0|0:0,0:0:0:0:
302,169,83495,6,0,L|282:276,1,94,6|0,0:0|0:0,0:0:0:0:
452,359,83859,2,0,L|434:266,1,94,8|0,0:0|0:0,0:0:0:0:
185,192,84222,2,0,P|128:189|91:213,1,94,2|0,0:0|0:0,0:0:0:0:
143,355,84586,1,8,0:0:0:0:
145,341,84677,1,0,0:0:0:0:
148,327,84768,2,0,L|157:271,1,47
202,174,84950,2,0,L|193:118,1,47,6|0,0:0|0:0,0:0:0:0:
281,0,85131,6,0,P|312:30|314:80,1,70.5000026893617,8|0,0:0|0:0,0:0:0:0:
422,77,85313,2,0,P|430:119|403:161,1,70.5000026893617,8|0,0:0|0:0,0:0:0:0:
423,246,85495,2,0,P|381:257|337:234,1,70.5000026893617,8|0,0:0|0:0,0:0:0:0:
285,329,85677,2,0,P|244:314|221:270,1,70.5000026893617,8|0,0:0|0:0,0:0:0:0:
194,127,85859,1,0,0:0:0:0:
148,327,86041,1,8,0:0:0:0:
350,263,86222,1,0,0:0:0:0:
353,256,86313,1,0,0:0:0:0:
356,249,86404,6,0,B|305:211|258:232|258:232|185:255|142:188,1,211.500008068085,6|0,0:0|0:0,0:0:0:0:
58,118,86768,2,0,L|72:207,1,70.5000026893617,8|0,0:0|0:0,0:0:0:0:
203,116,86950,1,0,0:0:0:0:
203,116,87041,1,0,0:0:0:0:
203,116,87131,2,0,L|213:46,1,70.5000026893617,2|0,0:0|0:0,0:0:0:0:
159,210,87313,2,0,P|128:251|101:269,1,70.5000026893617
25,38,87495,2,0,P|75:30|107:37,1,70.5000026893617,8|0,0:0|0:0,0:0:0:0:
317,106,87677,1,0,0:0:0:0:
350,113,87767,1,0,0:0:0:0:
383,110,87859,6,0,L|374:32,1,70.5000026893617,6|0,0:0|0:0,0:0:0:0:
512,162,88041,2,0,L|503:231,1,70.5000026893617
386,329,88222,2,0,B|312:306|312:306|261:320|261:320|179:294,1,211.500008068085,8|0,0:0|0:0,0:0:0:0:
112,262,88586,2,0,P|162:189|261:254,1,211.500008068085,2|0,0:0|0:0,0:0:0:0:
168,374,88950,2,0,L|123:358,3,47,8|0|0|0,0:0|0:0|0:0|0:0,0:0:0:0:
20,230,89313,5,6,0:0:0:0:
22,223,89404,1,0,0:0:0:0:
23,216,89495,1,0,0:0:0:0:
24,209,89586,1,0,0:0:0:0:
25,202,89677,5,0,0:0:0:0:
61,173,89767,1,0,0:0:0:0:
107,171,89858,1,0,0:0:0:0:
146,197,89949,1,0,0:0:0:0:
181,228,90041,1,0,0:0:0:0:
217,256,90131,1,0,0:0:0:0:
263,258,90222,1,0,0:0:0:0:
302,232,90313,1,0,0:0:0:0:
308,185,90404,1,0,0:0:0:0:
280,146,90495,1,0,0:0:0:0:
232,146,90586,1,0,0:0:0:0:
199,180,90677,1,0,0:0:0:0:
201,226,90768,5,6,0:0:0:0:
199,236,90859,1,0,0:0:0:0:
197,246,90950,1,0,0:0:0:0:
195,256,91041,1,0,0:0:0:0:
193,266,91131,5,0,0:0:0:0:
229,294,91221,1,0,0:0:0:0:
275,296,91312,1,0,0:0:0:0:
314,270,91403,1,0,0:0:0:0:
357,250,91495,1,0,0:0:0:0:
403,254,91586,1,0,0:0:0:0:
440,281,91677,1,0,0:0:0:0:
486,278,91768,1,0,0:0:0:0:
507,236,91859,1,0,0:0:0:0:
500,189,91950,1,0,0:0:0:0:
462,160,92041,1,0,0:0:0:0:
416,171,92131,1,0,0:0:0:0:
370,159,92222,5,6,0:0:0:0:
367,152,92313,1,0,0:0:0:0:
364,145,92404,1,0,0:0:0:0:
361,138,92495,1,0,0:0:0:0:
358,131,92586,5,0,0:0:0:0:
339,173,92676,1,0,0:0:0:0:
345,219,92767,1,0,0:0:0:0:
374,256,92858,1,0,0:0:0:0:
389,301,92950,1,0,0:0:0:0:
368,343,93041,1,0,0:0:0:0:
324,359,93131,1,0,0:0:0:0:
278,345,93222,1,0,0:0:0:0:
253,305,93313,1,0,0:0:0:0:
213,278,93404,1,0,0:0:0:0:
165,278,93495,1,0,0:0:0:0:
125,303,93586,1,0,0:0:0:0:
107,346,93677,5,6,0:0:0:0:
68,189,93859,1,0,0:0:0:0:
213,278,94041,1,10,0:0:0:0:
28,278,94222,5,0,0:0:0:0:
121,95,94404,1,2,0:0:0:0:
234,262,94586,1,0,0:0:0:0:
0,143,94768,5,10,0:0:0:0:
0,143,94859,1,8,0:0:0:0:
0,143,94950,1,8,0:0:0:0:
0,143,95041,1,8,0:0:0:0:
0,143,95131,6,0,P|53:108|156:177,1,183.299991609192,6|0,0:0|0:0,0:0:0:0:
229,150,95495,2,0,P|219:214|213:267,1,94,8|0,0:0|0:0,0:0:0:0:
413,329,95859,2,0,P|407:282|399:235,1,94,2|0,0:0|0:0,0:0:0:0:
426,39,96222,1,8,0:0:0:0:
399,235,96404,1,0,0:0:0:0:
426,39,96586,5,2,0:0:0:0:
261,139,96768,1,0,0:0:0:0:
431,232,96950,2,0,B|364:231|364:231|323:254|323:254|232:247,1,188,8|2,0:0|0:0,0:0:0:0:
245,253,97404,1,0,0:0:0:0:
241,258,97495,1,0,0:0:0:0:
54,51,97677,2,0,L|66:204,1,141,8|0,0:0|0:0,0:0:0:0:
65,191,98041,6,0,P|130:155|148:163,1,84.599997418213,6|0,0:0|0:0,0:0:0:0:
167,170,98404,6,0,P|210:225|129:335,1,211.500008068085,8|0,0:0|0:0,0:0:0:0:
67,357,98768,1,2,0:0:0:0:
283,293,98950,1,0,0:0:0:0:
406,365,99131,1,8,0:0:0:0:
367,123,99313,6,0,L|376:234,1,94,0|2,0:0|0:0,0:0:0:0:
375,114,99677,1,0,0:0:0:0:
256,32,99859,1,8,0:0:0:0:
256,32,99950,1,0,0:0:0:0:
256,32,100041,2,0,L|248:108,3,47,0|0|2|0,0:0|0:0|0:0|0:0,0:0:0:0:
209,199,100404,1,0,0:0:0:0:
209,199,100495,1,0,0:0:0:0:
209,199,100586,2,0,P|151:182|177:110,1,141,8|0,0:0|0:0,0:0:0:0:
228,215,100950,6,0,P|160:206|30:215,1,188,6|8,0:0|0:0,0:0:0:0:
183,326,101495,1,0,0:0:0:0:
164,115,101677,1,2,0:0:0:0:
183,326,101859,1,0,0:0:0:0:
357,205,102041,2,0,B|331:121|331:121|362:44,1,141,8|0,0:0|0:0,0:0:0:0:
465,50,102404,6,0,P|432:111|397:129,1,94,2|0,0:0|0:0,0:0:0:0:
251,167,102768,1,8,0:0:0:0:
440,233,102950,2,0,L|426:341,1,94,0|2,0:0|0:0,0:0:0:0:
281,383,103313,2,0,L|268:289,1,94,0|8,0:0|0:0,0:0:0:0:
251,167,103677,6,0,P|189:135|146:145,1,94,0|2,0:0|0:0,0:0:0:0:
66,179,104041,1,0,0:0:0:0:
167,27,104222,5,8,0:0:0:0:
167,27,104313,1,0,0:0:0:0:
167,27,104404,1,0,0:0:0:0:
185,222,104586,1,2,0:0:0:0:
22,148,104768,1,0,0:0:0:0:
246,58,104950,1,8,0:0:0:0:
70,267,105131,5,0,0:0:0:0:
344,333,105313,2,0,L|461:314,1,94,2|0,0:0|0:0,0:0:0:0:
420,158,105677,2,0,L|512:173,1,94,8|0,0:0|0:0,0:0:0:0:
216,241,106041,2,0,L|333:222,1,94,2|0,0:0|0:0,0:0:0:0:
116,42,106404,2,0,L|106:98,1,47,8|0,0:0|0:0,0:0:0:0:
39,195,106586,2,0,L|49:251,1,47
5,74,106768,5,6,0:0:0:0:
194,177,106950,1,0,0:0:0:0:
116,42,107131,5,10,0:0:0:0:
143,283,107313,1,0,0:0:0:0:
349,153,107495,5,2,0:0:0:0:
114,192,107677,1,0,0:0:0:0:
313,378,107859,1,10,0:0:0:0:
305,331,107949,1,0,0:0:0:0:
298,285,108040,1,0,0:0:0:0:
412,45,108222,5,6,0:0:0:0:
290,238,108404,1,0,0:0:0:0:
252,19,108586,5,10,0:0:0:0:
408,244,108768,1,0,0:0:0:0:
131,349,108950,5,2,0:0:0:0:
257,122,109131,1,0,0:0:0:0:
437,341,109313,1,10,0:0:0:0:
168,182,109495,1,0,0:0:0:0:
168,182,109586,1,0,0:0:0:0:
168,182,109677,6,0,B|117:224|65:188|65:188|46:147|96:111,1,188,6|8,0:0|0:0,0:0:0:0:
277,98,110222,1,0,0:0:0:0:
277,98,110313,1,0,0:0:0:0:
277,98,110404,1,2,0:0:0:0:
233,260,110586,1,0,0:0:0:0:
191,66,110768,1,8,0:0:0:0:
393,116,110950,6,0,L|380:217,1,94,6|0,0:0|0:0,0:0:0:0:
462,355,111313,1,0,0:0:0:0:
462,355,111404,1,0,0:0:0:0:
462,355,111495,1,8,0:0:0:0:
317,273,111677,1,0,0:0:0:0:
479,340,111859,2,0,L|414:351,1,47,8|0,0:0|0:0,0:0:0:0:
342,374,112041,2,0,L|295:366,1,47,8|0,0:0|0:0,0:0:0:0:
205,340,112222,2,0,L|158:347,1,47,8|0,0:0|0:0,0:0:0:0:
68,374,112404,2,0,L|21:366,1,47,8|0,0:0|0:0,0:0:0:0:
172,121,112586,5,4,0:0:0:0:
256,192,112677,12,0,113859,0:0:0:0:
