osu file format v14

[General]
AudioFilename: audio.mp3
AudioLeadIn: 0
PreviewTime: 67539
Countdown: 0
SampleSet: Soft
StackLeniency: 0.7
Mode: 3
LetterboxInBreaks: 0
SpecialStyle: 0
WidescreenStoryboard: 0

[Editor]
Bookmarks: 27900,48300,67500,86700,125100,144300,153900,163500,182700,204300
DistanceSpacing: 1
BeatDivisor: 12
GridSize: 4
TimelineZoom: 2.699999

[Metadata]
Title:Summer
TitleUnicode:サマー
Artist:CY8ER
ArtistUnicode:CY8ER
Creator:lenpai
Version:4K Ichigo
Source:
Tags:japanese idol electronic pop jpop ICIGOSTYLE KOTONOHOUSE Yunomi famoss IGS-0009 コトノハウス ゆのみ j-pop
BeatmapID:2386587
BeatmapSetID:1142802

[Difficulty]
HPDrainRate:8.5
CircleSize:4
OverallDifficulty:8.5
ApproachRate:5
SliderMultiplier:1.4
SliderTickRate:1

[Events]
//Background and Video events
0,0,"cb97c004-bf07-48be-9f94-7d76a1fe2fd8.png",0,0
//Break Periods
//Storyboard Layer 0 (Background)
//Storyboard Layer 1 (Fail)
//Storyboard Layer 2 (Pass)
//Storyboard Layer 3 (Foreground)
//Storyboard Layer 4 (Overlay)
//Storyboard Sound Samples

[TimingPoints]
339,600,4,2,1,70,1,0
48339,-100,4,2,1,40,0,0
57939,-100,4,2,1,50,0,0
62739,-100,4,2,1,60,0,0
67539,-100,4,2,1,70,0,1
86739,-100,4,2,1,70,0,0
125139,-100,4,2,1,40,0,0
143139,-100,4,2,1,50,0,0
144339,-100,4,2,1,60,0,0
162939,-20,4,2,1,70,0,0
162976,-153.846153846154,4,2,1,70,0,0
163539,-100,4,2,1,70,0,1
182139,-100,4,2,1,70,0,0
182739,-100,4,2,1,70,0,1
201939,-100,4,2,1,70,0,0

[HitObjects]
192,192,339,128,0,489:0:0:0:70:Cymatics - Future Bass Clap 3.wav
320,192,339,1,0,0:0:0:0:
320,192,639,1,0,0:0:0:70:Cymatics - Future Bass Clap 3.wav
192,192,789,128,0,939:0:0:0:0:
320,192,939,1,0,0:0:0:70:Cymatics - Future Bass Clap 3.wav
448,192,939,1,0,0:0:0:0:
192,192,1239,128,0,1389:0:0:0:0:
320,192,1539,1,0,0:0:0:70:Cymatics - Future Bass Clap 3.wav
64,192,1839,128,0,1989:0:0:0:70:Cymatics - Future Bass Clap 3.wav
320,192,1839,1,0,0:0:0:0:
192,192,1989,1,0,0:0:0:70:Cymatics - Future Bass Clap 3.wav
64,192,2139,128,0,2289:0:0:0:70:Cymatics - Future Bass Clap 3.wav
320,192,2139,1,0,0:0:0:0:
448,192,2139,1,0,0:0:0:0:
192,192,2739,1,0,0:0:0:70:Cymatics - Future Bass Clap 3.wav
320,192,2739,128,0,2889:0:0:0:0:
192,192,3039,1,0,0:0:0:70:Cymatics - Future Bass Clap 3.wav
320,192,3189,128,0,3339:0:0:0:0:
64,192,3339,1,0,0:0:0:70:Cymatics - Future Bass Clap 3.wav
192,192,3339,1,0,0:0:0:0:
320,192,3639,128,0,3789:0:0:0:0:
192,192,3939,1,0,0:0:0:70:Cymatics - Future Bass Clap 3.wav
192,192,4239,1,0,0:0:0:70:Cymatics - Future Bass Clap 3.wav
448,192,4239,128,0,4389:0:0:0:0:
320,192,4389,1,0,0:0:0:70:Cymatics - Future Bass Clap 3.wav
64,192,4539,1,0,0:0:0:70:Cymatics - Future Bass Clap 3.wav
192,192,4539,1,0,0:0:0:0:
448,192,4539,128,0,4689:0:0:0:0:
192,192,5139,128,0,5289:0:0:0:70:Cymatics - Future Bass Clap 3.wav
320,192,5139,1,0,0:0:0:0:
320,192,5439,1,0,0:0:0:70:Cymatics - Future Bass Clap 3.wav
192,192,5589,128,0,5739:0:0:0:0:
320,192,5739,1,0,0:0:0:70:Cymatics - Future Bass Clap 3.wav
448,192,5739,1,0,0:0:0:0:
192,192,6039,128,0,6189:0:0:0:0:
320,192,6339,1,0,0:0:0:70:Cymatics - Future Bass Clap 3.wav
64,192,6639,128,0,6789:0:0:0:70:Cymatics - Future Bass Clap 3.wav
320,192,6639,1,0,0:0:0:0:
192,192,6789,1,0,0:0:0:70:Cymatics - Future Bass Clap 3.wav
64,192,6939,128,0,7089:0:0:0:70:Cymatics - Future Bass Clap 3.wav
320,192,6939,1,0,0:0:0:0:
448,192,6939,1,0,0:0:0:0:
192,192,7539,1,0,0:0:0:70:Cymatics - Future Bass Clap 3.wav
448,192,7539,128,0,7689:0:0:0:0:
192,192,7839,1,0,0:0:0:70:Cymatics - Future Bass Clap 3.wav
448,192,7989,128,0,8139:0:0:0:0:
64,192,8139,1,0,0:0:0:70:Cymatics - Future Bass Clap 3.wav
192,192,8139,1,0,0:0:0:0:
448,192,8439,128,0,8589:0:0:0:0:
192,192,8739,1,0,0:0:0:70:Cymatics - Future Bass Clap 3.wav
64,192,9039,1,0,0:0:0:70:Cymatics - Future Bass Clap 3.wav
320,192,9039,128,0,9189:0:0:0:0:
192,192,9189,1,0,0:0:0:70:Cymatics - Future Bass Clap 3.wav
64,192,9339,1,0,0:0:0:70:Cymatics - Future Bass Clap 3.wav
320,192,9339,128,0,9489:0:0:0:0:
448,192,9339,1,0,0:0:0:0:
64,192,9939,1,0,0:0:0:100:LR4_DrumRevBassImpact.wav
192,192,9939,128,0,10089:0:0:0:0:
448,192,9939,1,0,0:0:0:0:
320,192,10239,1,0,0:0:0:70:Cymatics - Future Bass Clap 3.wav
192,192,10389,128,0,10539:0:0:0:0:
64,192,10539,1,8,0:0:0:0:
448,192,10539,1,0,0:0:0:70:Cymatics - Future Bass Clap 3.wav
192,192,10839,128,0,10989:0:0:0:0:
320,192,11139,1,0,0:0:0:70:Cymatics - Future Bass Clap 3.wav
64,192,11439,128,8,11589:0:0:0:0:
192,192,11439,1,0,0:0:0:70:Cymatics - Future Bass Clap 3.wav
448,192,11514,1,8,0:0:0:0:
320,192,11589,1,8,0:0:0:0:
192,192,11664,1,8,0:0:0:0:
64,192,11739,128,8,11889:0:0:0:0:
448,192,11739,1,0,0:0:0:70:Cymatics - Future Bass Clap 3.wav
192,192,12339,1,0,0:0:0:70:Cymatics - Future Bass Clap 3.wav
320,192,12339,128,0,12489:0:0:0:0:
192,192,12639,1,0,0:0:0:70:Cymatics - Future Bass Clap 3.wav
320,192,12789,128,0,12939:0:0:0:0:
64,192,12939,1,8,0:0:0:0:
448,192,12939,1,0,0:0:0:70:Cymatics - Future Bass Clap 3.wav
320,192,13239,128,0,13389:0:0:0:0:
64,192,13389,1,8,0:0:0:0:
448,192,13389,1,0,0:0:0:0:
192,192,13539,1,0,0:0:0:70:Cymatics - Future Bass Clap 3.wav
320,192,13839,1,8,0:0:0:0:
448,192,13839,128,0,13989:0:0:0:70:Cymatics - Future Bass Clap 3.wav
64,192,13914,1,8,0:0:0:0:
192,192,13989,1,8,0:0:0:0:
320,192,14064,1,8,0:0:0:0:
64,192,14139,1,8,0:0:0:0:
448,192,14139,128,0,14289:0:0:0:70:Cymatics - Future Bass Clap 3.wav
192,192,14739,128,0,14889:0:0:0:70:Cymatics - Future Bass Clap 3.wav
320,192,14739,1,0,0:0:0:0:
320,192,15039,1,0,0:0:0:70:Cymatics - Future Bass Clap 3.wav
192,192,15189,128,0,15339:0:0:0:0:
64,192,15339,1,8,0:0:0:0:
448,192,15339,1,0,0:0:0:70:Cymatics - Future Bass Clap 3.wav
192,192,15639,128,0,15789:0:0:0:0:
320,192,15939,1,0,0:0:0:70:Cymatics - Future Bass Clap 3.wav
64,192,16239,128,8,16389:0:0:0:0:
192,192,16239,1,0,0:0:0:70:Cymatics - Future Bass Clap 3.wav
320,192,16314,1,8,0:0:0:0:
448,192,16389,1,8,0:0:0:0:
192,192,16464,1,8,0:0:0:0:
64,192,16539,128,8,16689:0:0:0:0:
320,192,16539,1,0,0:0:0:70:Cymatics - Future Bass Clap 3.wav
192,192,17139,1,0,0:0:0:70:Cymatics - Future Bass Clap 3.wav
448,192,17139,128,0,17289:0:0:0:0:
192,192,17439,1,0,0:0:0:70:Cymatics - Future Bass Clap 3.wav
448,192,17589,128,0,17739:0:0:0:0:
64,192,17739,1,8,0:0:0:0:
320,192,17739,1,0,0:0:0:70:Cymatics - Future Bass Clap 3.wav
448,192,18039,128,0,18189:0:0:0:0:
64,192,18189,1,8,0:0:0:0:
320,192,18189,1,0,0:0:0:0:
192,192,18339,1,0,0:0:0:70:Cymatics - Future Bass Clap 3.wav
64,192,18489,1,8,0:0:0:0:
320,192,18489,1,0,0:0:0:0:
320,192,18639,128,0,18789:0:0:0:70:Cymatics - Future Bass Clap 3.wav
448,192,18639,1,0,0:0:0:0:
192,192,18789,1,0,0:0:0:70:Cymatics - Future Bass Clap 3.wav
64,192,18939,1,8,0:0:0:0:
320,192,18939,128,0,19089:0:0:0:70:Cymatics - Future Bass Clap 3.wav
192,192,19539,128,0,19689:0:0:0:100:LR4_DrumRevBassImpact.wav
320,192,19539,1,0,0:0:0:0:
448,192,19539,1,0,0:0:0:0:
64,192,19839,1,0,0:0:0:100:LR4_DrumRevBassImpact.wav
192,192,19839,1,0,0:0:0:0:
192,192,19989,128,0,20139:0:0:0:0:
320,192,19989,1,0,0:0:0:0:
64,192,20139,1,8,0:0:0:0:
448,192,20139,1,0,0:0:0:70:Cymatics - Future Bass Clap 3.wav
192,192,20439,128,0,20589:0:0:0:0:
448,192,20439,1,0,0:0:0:0:
320,192,20739,1,0,0:0:0:70:Cymatics - Future Bass Clap 3.wav
64,192,21039,128,8,21189:0:0:0:0:
192,192,21039,1,0,0:0:0:100:LR4_DrumRevBassImpact.wav
448,192,21114,1,8,0:0:0:0:
320,192,21189,1,8,0:0:0:0:
192,192,21264,1,8,0:0:0:0:
64,192,21339,128,8,21489:0:0:0:0:
448,192,21339,1,0,0:0:0:70:Cymatics - Future Bass Clap 3.wav
192,192,21639,1,0,0:0:0:0:
64,192,21939,1,0,0:0:0:100:LR4_DrumRevBassImpact.wav
192,192,21939,1,0,0:0:0:0:
320,192,21939,128,0,22089:0:0:0:0:
320,192,22239,1,0,0:0:0:100:LR4_DrumRevBassImpact.wav
448,192,22239,1,0,0:0:0:0:
192,192,22389,1,0,0:0:0:0:
320,192,22389,128,0,22539:0:0:0:0:
64,192,22539,1,8,0:0:0:0:
448,192,22539,1,0,0:0:0:70:Cymatics - Future Bass Clap 3.wav
320,192,22839,128,0,22989:0:0:0:0:
64,192,22989,1,8,0:0:0:0:
448,192,22989,1,0,0:0:0:0:
64,192,23139,1,0,0:0:0:70:Cymatics - Future Bass Clap 3.wav
192,192,23139,1,0,0:0:0:0:
320,192,23439,1,8,0:0:0:0:
448,192,23439,128,0,23589:0:0:0:100:LR4_DrumRevBassImpact.wav
64,192,23514,1,8,0:0:0:0:
192,192,23589,1,8,0:0:0:0:
320,192,23664,1,8,0:0:0:0:
64,192,23739,1,8,0:0:0:0:
448,192,23739,128,0,23889:0:0:0:70:Cymatics - Future Bass Clap 3.wav
320,192,24039,1,0,0:0:0:0:
192,192,24339,128,0,24489:0:0:0:100:LR4_DrumRevBassImpact.wav
320,192,24339,1,0,0:0:0:0:
448,192,24339,1,0,0:0:0:0:
64,192,24639,1,0,0:0:0:100:LR4_DrumRevBassImpact.wav
192,192,24639,1,0,0:0:0:0:
192,192,24789,128,0,24939:0:0:0:0:
320,192,24789,1,0,0:0:0:0:
64,192,24939,1,8,0:0:0:0:
448,192,24939,1,0,0:0:0:70:Cymatics - Future Bass Clap 3.wav
192,192,25239,128,0,25389:0:0:0:0:
448,192,25239,1,0,0:0:0:0:
320,192,25539,1,0,0:0:0:70:Cymatics - Future Bass Clap 3.wav
64,192,25839,128,8,25989:0:0:0:0:
192,192,25839,1,0,0:0:0:100:LR4_DrumRevBassImpact.wav
320,192,25914,1,8,0:0:0:0:
448,192,25989,1,8,0:0:0:0:
192,192,26064,1,8,0:0:0:0:
64,192,26139,128,8,26289:0:0:0:0:
320,192,26139,1,0,0:0:0:70:Cymatics - Future Bass Clap 3.wav
320,192,26439,1,0,0:0:0:0:
448,192,26439,1,0,0:0:0:0:
64,192,26739,1,0,0:0:0:100:LR4_DrumRevBassImpact.wav
192,192,26739,1,0,0:0:0:0:
448,192,26739,128,0,26889:0:0:0:0:
64,192,27039,1,0,0:0:0:100:LR4_DrumRevBassImpact.wav
192,192,27039,1,0,0:0:0:0:
320,192,27189,1,0,0:0:0:0:
448,192,27189,128,0,27339:0:0:0:0:
64,192,27339,1,8,0:0:0:0:
320,192,27339,1,0,0:0:0:0:
448,192,27639,128,0,27789:0:0:0:0:
64,192,27789,1,8,0:0:0:0:
320,192,27789,1,0,0:0:0:100:LR4_DrumRevBassImpact.wav
64,192,27939,1,0,0:0:0:70:Cymatics - Future Bass Clap 3.wav
192,192,27939,1,0,0:0:0:100:LR4_DrumRevBassImpact.wav
448,192,27939,1,0,0:0:0:0:
64,192,29139,1,2,0:0:0:0:
320,192,29139,1,0,0:0:0:0:
448,192,29139,1,0,0:0:0:0:
320,192,29439,1,2,0:0:0:0:
448,192,29439,1,0,0:0:0:0:
64,192,29589,1,0,0:0:0:0:
192,192,29739,1,8,0:0:0:0:
448,192,29739,1,0,0:0:0:0:
64,192,30039,1,2,0:0:0:0:
320,192,30039,1,0,0:0:0:0:
448,192,30039,1,0,0:0:0:0:
192,192,30189,1,8,0:0:0:0:
448,192,30189,1,0,0:0:0:0:
64,192,30489,1,2,0:0:0:0:
320,192,30489,1,8,0:0:0:0:
192,192,30639,1,2,0:0:0:0:
320,192,30639,1,0,0:0:0:0:
448,192,30639,1,0,0:0:0:0:
64,192,30939,1,8,0:0:0:0:
192,192,30939,1,0,0:0:0:0:
448,192,30939,1,0,0:0:0:0:
64,192,31539,1,2,0:0:0:0:
192,192,31539,1,0,0:0:0:0:
320,192,31539,1,0,0:0:0:0:
64,192,31839,1,2,0:0:0:0:
192,192,31839,1,0,0:0:0:0:
320,192,31989,1,2,0:0:0:0:
448,192,31989,1,0,0:0:0:0:
192,192,32139,1,8,0:0:0:0:
448,192,32139,1,0,0:0:0:0:
64,192,32439,1,2,0:0:0:0:
192,192,32439,1,0,0:0:0:0:
320,192,32439,1,0,0:0:0:0:
192,192,32589,1,8,0:0:0:0:
448,192,32589,1,0,0:0:0:0:
64,192,32889,1,8,0:0:0:0:
320,192,32889,1,0,0:0:0:0:
64,192,33039,1,2,0:0:0:0:
192,192,33039,1,0,0:0:0:0:
448,192,33039,1,0,0:0:0:0:
64,192,33339,1,8,0:0:0:0:
320,192,33339,1,0,0:0:0:0:
448,192,33339,1,0,0:0:0:0:
64,192,33939,1,2,0:0:0:0:
320,192,33939,1,0,0:0:0:0:
448,192,33939,1,0,0:0:0:0:
320,192,34239,1,2,0:0:0:0:
448,192,34239,1,0,0:0:0:0:
64,192,34389,1,0,0:0:0:0:
192,192,34539,1,8,0:0:0:0:
448,192,34539,1,0,0:0:0:0:
64,192,34839,1,2,0:0:0:0:
320,192,34839,1,0,0:0:0:0:
448,192,34839,1,0,0:0:0:0:
192,192,34989,1,8,0:0:0:0:
448,192,34989,1,0,0:0:0:0:
64,192,35289,1,2,0:0:0:0:
320,192,35289,1,8,0:0:0:0:
192,192,35439,1,2,0:0:0:0:
320,192,35439,1,0,0:0:0:0:
448,192,35439,1,0,0:0:0:0:
64,192,35739,1,8,0:0:0:0:
192,192,35739,1,0,0:0:0:0:
448,192,35739,1,0,0:0:0:0:
64,192,36339,1,2,0:0:0:0:
448,192,36339,1,0,0:0:0:0:
320,192,36489,1,0,0:0:0:70:LR_Snare Hat.wav
64,192,36639,1,2,0:0:0:0:
320,192,36639,1,0,0:0:0:70:LR_Snare Hat.wav
448,192,36639,1,0,0:0:0:0:
64,192,36789,1,2,0:0:0:0:
192,192,36789,1,0,0:0:0:0:
192,192,36939,1,8,0:0:0:0:
448,192,36939,1,0,0:0:0:0:
320,192,37089,1,0,0:0:0:70:LR_Snare Hat.wav
64,192,37239,1,2,0:0:0:0:
192,192,37239,1,0,0:0:0:0:
192,192,37389,1,8,0:0:0:0:
448,192,37389,1,0,0:0:0:0:
64,192,37539,1,2,0:0:0:0:
192,192,37539,1,0,0:0:0:0:
64,192,37689,1,8,0:0:0:0:
320,192,37689,1,2,0:0:0:0:
448,192,37689,1,0,0:0:0:0:
320,192,37839,1,2,0:0:0:0:
448,192,37839,1,0,0:0:0:0:
192,192,37989,1,0,0:0:0:0:
64,192,38139,1,2,0:0:0:0:
320,192,38139,1,0,0:0:0:100:clap layer 2.wav
448,192,38139,1,0,0:0:0:0:
64,192,38289,1,0,0:0:0:70:Cymatics - Future Bass Clap 3.wav
192,192,38289,1,0,0:0:0:0:
320,192,38364,1,0,0:0:0:70:Cymatics - Future Bass Clap 3.wav
448,192,38364,1,0,0:0:0:0:
64,192,38439,1,0,0:0:0:70:Cymatics - Future Bass Clap 3.wav
192,192,38439,1,0,0:0:0:0:
320,192,38589,1,0,0:0:0:70:Cymatics - Future Bass Clap 3.wav
448,192,38589,1,0,0:0:0:0:
64,192,38739,1,2,0:0:0:0:
320,192,38739,1,0,0:0:0:40:LR_CymbalRDW.wav
448,192,38739,1,0,0:0:0:0:
192,192,38889,1,0,0:0:0:0:
320,192,39039,1,2,0:0:0:0:
448,192,39039,1,0,0:0:0:0:
192,192,39189,1,0,0:0:0:0:
320,192,39239,1,0,0:0:0:0:
448,192,39289,1,0,0:0:0:0:
64,192,39339,1,8,0:0:0:0:
192,192,39339,1,0,0:0:0:0:
320,192,39489,1,0,0:0:0:0:
64,192,39639,1,2,0:0:0:0:
192,192,39639,1,0,0:0:0:0:
192,192,39789,1,8,0:0:0:0:
448,192,39789,1,0,0:0:0:0:
320,192,39939,1,0,0:0:0:0:
192,192,40089,1,2,0:0:0:0:
448,192,40089,1,8,0:0:0:0:
320,192,40164,1,0,0:0:0:0:
64,192,40239,1,2,0:0:0:0:
192,192,40239,1,0,0:0:0:0:
320,192,40389,1,0,0:0:0:0:
192,192,40439,1,0,0:0:0:0:
64,192,40489,1,0,0:0:0:0:
320,192,40539,1,8,0:0:0:0:
448,192,40539,1,0,0:0:0:0:
320,192,40839,1,0,0:0:0:0:
320,192,40989,1,0,0:0:0:0:
64,192,41139,1,2,0:0:0:0:
192,192,41139,1,0,0:0:0:0:
320,192,41289,1,0,0:0:0:0:
64,192,41439,1,2,0:0:0:0:
192,192,41439,1,0,0:0:0:0:
320,192,41589,1,2,0:0:0:0:
448,192,41589,1,0,0:0:0:0:
192,192,41639,1,0,0:0:0:0:
64,192,41689,1,0,0:0:0:0:
320,192,41739,1,8,0:0:0:0:
448,192,41739,1,0,0:0:0:0:
192,192,41889,1,0,0:0:0:0:
320,192,42039,1,2,0:0:0:0:
448,192,42039,1,0,0:0:0:0:
64,192,42189,1,8,0:0:0:0:
320,192,42189,1,0,0:0:0:0:
192,192,42339,1,0,0:0:0:0:
192,192,42489,1,8,0:0:0:0:
448,192,42489,1,0,0:0:0:0:
320,192,42564,1,0,0:0:0:0:
64,192,42639,1,2,0:0:0:0:
192,192,42639,1,0,0:0:0:0:
320,192,42789,1,0,0:0:0:0:
192,192,42839,1,0,0:0:0:0:
64,192,42889,1,0,0:0:0:0:
320,192,42939,1,8,0:0:0:0:
448,192,42939,1,0,0:0:0:0:
192,192,43039,1,0,0:0:0:0:
320,192,43139,1,0,0:0:0:0:
192,192,43239,1,0,0:0:0:0:
448,192,43339,1,0,0:0:0:0:
192,192,43389,1,0,0:0:0:0:
320,192,43539,1,2,0:0:0:0:
448,192,43539,1,0,0:0:0:0:
192,192,43689,1,0,0:0:0:0:
320,192,43839,1,2,0:0:0:0:
448,192,43839,1,0,0:0:0:0:
64,192,43989,1,0,0:0:0:0:
192,192,43989,1,0,0:0:0:0:
320,192,44039,1,0,0:0:0:0:
448,192,44089,1,0,0:0:0:0:
64,192,44139,1,8,0:0:0:0:
192,192,44139,1,0,0:0:0:0:
192,192,44289,1,0,0:0:0:0:
320,192,44439,1,2,0:0:0:0:
448,192,44439,1,0,0:0:0:0:
64,192,44589,1,8,0:0:0:0:
320,192,44589,1,0,0:0:0:0:
192,192,44739,1,0,0:0:0:0:
64,192,44889,1,8,0:0:0:0:
320,192,44889,1,2,0:0:0:0:
192,192,44964,1,0,0:0:0:0:
320,192,45039,1,2,0:0:0:0:
448,192,45039,1,0,0:0:0:0:
192,192,45189,1,0,0:0:0:0:
320,192,45239,1,0,0:0:0:0:
448,192,45289,1,0,0:0:0:0:
64,192,45339,1,8,0:0:0:0:
192,192,45339,1,0,0:0:0:0:
320,192,45639,1,0,0:0:0:0:
320,192,45789,1,0,0:0:0:0:
64,192,45939,1,2,0:0:0:0:
192,192,45939,1,0,0:0:0:0:
320,192,46089,1,0,0:0:0:70:LR_Snare Hat.wav
448,192,46089,1,0,0:0:0:0:
320,192,46239,1,2,0:0:0:0:
448,192,46239,1,0,0:0:0:70:LR_Snare Hat.wav
64,192,46389,1,2,0:0:0:0:
192,192,46389,1,0,0:0:0:0:
320,192,46439,1,0,0:0:0:0:
448,192,46489,1,0,0:0:0:0:
64,192,46539,1,8,0:0:0:0:
192,192,46539,1,0,0:0:0:0:
320,192,46689,1,0,0:0:0:70:LR_Snare Hat.wav
448,192,46689,1,0,0:0:0:0:
192,192,46839,1,2,0:0:0:0:
320,192,46839,1,0,0:0:0:0:
64,192,46989,1,8,0:0:0:0:
192,192,46989,1,0,0:0:0:0:
320,192,47139,1,2,0:0:0:0:
448,192,47139,1,0,0:0:0:0:
320,192,48339,128,0,49539:0:0:0:0:
192,192,48939,1,0,0:0:0:70:clap01.wav
448,192,49539,128,0,50739:0:0:0:0:
192,192,50139,1,0,0:0:0:70:clap01.wav
64,192,50739,128,0,51939:0:0:0:0:
192,192,51339,1,0,0:0:0:70:clap01.wav
320,192,51939,128,0,53139:0:0:0:0:
192,192,52539,1,0,0:0:0:70:clap01.wav
192,192,53139,128,0,54339:0:0:0:0:
448,192,53739,1,0,0:0:0:70:clap01.wav
320,192,54339,128,0,55539:0:0:0:0:
448,192,54939,1,0,0:0:0:70:clap01.wav
64,192,55539,128,0,56139:0:0:0:0:
192,192,56139,128,0,56739:0:0:0:70:clap01.wav
448,192,56139,1,0,0:0:0:0:
320,192,56739,128,0,57939:0:0:0:0:
448,192,57339,1,0,0:0:0:70:clap01.wav
64,192,57939,1,0,0:0:0:70:Cymatics - Future Bass Clap 3.wav
64,192,58239,1,0,0:0:0:70:Cymatics - Future Bass Clap 3.wav
64,192,58539,1,8,0:0:0:0:
320,192,58539,1,0,0:0:0:70:Cymatics - Future Bass Clap 3.wav
448,192,58539,1,0,0:0:0:0:
64,192,58839,1,0,0:0:0:70:Cymatics - Future Bass Clap 3.wav
64,192,59139,1,0,0:0:0:70:Cymatics - Future Bass Clap 3.wav
64,192,59439,1,0,0:0:0:70:Cymatics - Future Bass Clap 3.wav
320,192,59439,1,0,0:0:0:0:
192,192,59514,1,0,0:0:0:0:
448,192,59589,1,8,0:0:0:0:
192,192,59664,1,8,0:0:0:0:
64,192,59739,1,8,0:0:0:0:
320,192,59739,1,0,0:0:0:70:Cymatics - Future Bass Clap 3.wav
64,192,60039,1,0,0:0:0:70:Cymatics - Future Bass Clap 3.wav
448,192,60339,1,8,0:0:0:0:
448,192,60639,1,0,0:0:0:70:Cymatics - Future Bass Clap 3.wav
64,192,60939,1,8,0:0:0:0:
320,192,60939,1,0,0:0:0:70:Cymatics - Future Bass Clap 3.wav
448,192,60939,1,0,0:0:0:0:
448,192,61239,1,0,0:0:0:70:Cymatics - Future Bass Clap 3.wav
64,192,61389,1,8,0:0:0:0:
320,192,61389,1,0,0:0:0:0:
448,192,61539,1,0,0:0:0:70:Cymatics - Future Bass Clap 3.wav
192,192,61839,1,0,0:0:0:70:Cymatics - Future Bass Clap 3.wav
448,192,61839,1,0,0:0:0:0:
320,192,61914,1,0,0:0:0:0:
64,192,61989,1,8,0:0:0:0:
320,192,62064,1,8,0:0:0:0:
192,192,62139,1,8,0:0:0:0:
448,192,62139,1,0,0:0:0:70:Cymatics - Future Bass Clap 3.wav
448,192,62439,1,0,0:0:0:70:Cymatics - Future Bass Clap 3.wav
64,192,62739,128,0,65139:0:0:0:70:Cymatics - Future Bass Clap 3.wav
192,192,62739,1,0,0:0:0:0:
192,192,62889,1,0,0:0:0:70:Cymatics - Future Bass Clap 3.wav
192,192,63039,1,0,0:0:0:70:Cymatics - Future Bass Clap 3.wav
320,192,63339,1,8,0:0:0:0:
448,192,63339,1,0,0:0:0:70:Cymatics - Future Bass Clap 3.wav
192,192,63639,1,0,0:0:0:70:Cymatics - Future Bass Clap 3.wav
192,192,63789,1,0,0:0:0:70:Cymatics - Future Bass Clap 3.wav
448,192,63864,1,0,0:0:0:70:Cymatics - Future Bass Clap 3.wav
320,192,63939,1,0,0:0:0:70:Cymatics - Future Bass Clap 3.wav
320,192,64089,1,0,0:0:0:70:Cymatics - Future Bass Clap 3.wav
192,192,64239,1,0,0:0:0:70:Cymatics - Future Bass Clap 3.wav
448,192,64314,1,0,0:0:0:0:
192,192,64389,1,8,0:0:0:0:
320,192,64464,1,8,0:0:0:0:
192,192,64539,1,8,0:0:0:0:
448,192,64539,1,0,0:0:0:70:Cymatics - Future Bass Clap 3.wav
320,192,64839,1,0,0:0:0:70:Cymatics - Future Bass Clap 3.wav
320,192,64989,1,0,0:0:0:70:Cymatics - Future Bass Clap 3.wav
192,192,65139,1,0,0:0:0:70:Cymatics - Future Bass Clap 3.wav
448,192,65139,1,0,0:0:0:0:
320,192,66039,1,0,0:0:0:0:
64,192,66114,1,0,0:0:0:70:LR_Snare Drum.wav
192,192,66189,1,0,0:0:0:70:LR_Snare Drum.wav
448,192,66189,1,0,0:0:0:0:
64,192,66264,1,0,0:0:0:70:LR_Snare Drum 3.wav
320,192,66339,1,0,0:0:0:70:LR_Snare Drum 2.wav
448,192,66339,1,0,0:0:0:0:
64,192,66489,1,0,0:0:0:70:LR_Snare Drum 3.wav
320,192,66489,1,0,0:0:0:0:
64,192,66639,1,0,0:0:0:70:LR_Drum Rpd x2.wav
192,192,66639,1,0,0:0:0:0:
64,192,66939,1,0,0:0:0:100:clap layer 2.wav
192,192,66939,1,0,0:0:0:0:
448,192,66939,1,0,0:0:0:0:
448,192,67089,1,0,0:0:0:0:
448,192,67239,1,0,0:0:0:0:
448,192,67389,1,0,0:0:0:0:
64,192,67539,1,2,0:0:0:0:
192,192,67539,1,4,0:0:0:0:
448,192,67539,1,0,0:0:0:0:
320,192,67689,1,0,0:0:0:0:
192,192,67839,1,2,0:0:0:0:
320,192,67839,1,0,0:0:0:0:
448,192,67839,1,0,0:0:0:0:
64,192,67989,1,0,0:0:0:0:
448,192,67989,1,0,0:0:0:0:
64,192,68139,1,8,0:0:0:0:
192,192,68139,1,0,0:0:0:0:
320,192,68139,1,0,0:0:0:0:
192,192,68289,1,0,0:0:0:0:
64,192,68439,1,2,0:0:0:0:
320,192,68439,1,0,0:0:0:0:
448,192,68439,1,0,0:0:0:0:
192,192,68589,1,8,0:0:0:0:
448,192,68589,1,0,0:0:0:0:
320,192,68739,1,0,0:0:0:0:
192,192,68889,1,2,0:0:0:0:
448,192,68889,1,8,0:0:0:0:
64,192,69039,1,2,0:0:0:0:
192,192,69039,1,0,0:0:0:0:
320,192,69039,1,0,0:0:0:0:
320,192,69189,1,0,0:0:0:0:
64,192,69339,1,8,0:0:0:0:
192,192,69339,1,0,0:0:0:0:
448,192,69339,1,0,0:0:0:0:
64,192,69489,1,0,0:0:0:0:
320,192,69639,1,0,0:0:0:100:LR4_DrumRevBassImpact.wav
448,192,69639,1,0,0:0:0:0:
64,192,69789,1,0,0:0:0:0:
192,192,69789,1,0,0:0:0:0:
192,192,69939,1,2,0:0:0:0:
320,192,69939,1,0,0:0:0:0:
448,192,69939,1,0,0:0:0:0:
64,192,70089,1,0,0:0:0:0:
320,192,70089,1,0,0:0:0:0:
64,192,70239,1,2,0:0:0:0:
192,192,70239,1,0,0:0:0:0:
448,192,70239,1,0,0:0:0:0:
64,192,70389,1,2,0:0:0:0:
320,192,70389,1,0,0:0:0:0:
448,192,70389,1,0,0:0:0:0:
192,192,70539,1,8,0:0:0:0:
320,192,70539,1,0,0:0:0:0:
448,192,70539,1,0,0:0:0:0:
192,192,70689,1,0,0:0:0:0:
64,192,70839,1,2,0:0:0:0:
320,192,70839,1,0,0:0:0:0:
448,192,70839,1,0,0:0:0:0:
192,192,70989,1,8,0:0:0:0:
320,192,70989,1,0,0:0:0:0:
448,192,71139,1,0,0:0:0:0:
192,192,71289,1,8,0:0:0:0:
448,192,71289,1,0,0:0:0:0:
64,192,71439,1,2,0:0:0:0:
192,192,71439,1,0,0:0:0:0:
320,192,71439,1,0,0:0:0:0:
64,192,71589,1,0,0:0:0:0:
64,192,71739,1,8,0:0:0:0:
320,192,71739,128,0,72339:0:0:0:0:
448,192,71739,1,0,0:0:0:0:
192,192,72039,1,0,0:0:0:100:LR4_DrumRevBassImpact_F#3.wav
192,192,72189,1,0,0:0:0:100:LR4_DrumRevBassImpact.wav
64,192,72339,1,2,0:0:0:0:
192,192,72339,1,0,0:0:0:0:
448,192,72339,1,0,0:0:0:0:
320,192,72489,1,0,0:0:0:0:
64,192,72639,1,2,0:0:0:0:
192,192,72639,1,0,0:0:0:0:
448,192,72639,1,0,0:0:0:0:
192,192,72789,1,0,0:0:0:0:
448,192,72789,1,0,0:0:0:0:
64,192,72939,1,8,0:0:0:0:
320,192,72939,1,0,0:0:0:0:
448,192,72939,1,0,0:0:0:0:
192,192,73089,1,0,0:0:0:0:
64,192,73239,1,2,0:0:0:0:
192,192,73239,1,0,0:0:0:0:
448,192,73239,1,0,0:0:0:0:
64,192,73389,1,8,0:0:0:0:
320,192,73389,1,0,0:0:0:0:
448,192,73539,1,0,0:0:0:0:
64,192,73689,1,2,0:0:0:0:
320,192,73689,1,8,0:0:0:0:
192,192,73839,1,2,0:0:0:0:
320,192,73839,1,0,0:0:0:0:
448,192,73839,1,0,0:0:0:0:
448,192,73989,1,0,0:0:0:0:
64,192,74139,1,8,0:0:0:0:
192,192,74139,1,0,0:0:0:0:
320,192,74139,1,0,0:0:0:0:
192,192,74289,1,0,0:0:0:0:
320,192,74439,1,0,0:0:0:100:LR4_DrumRevBassImpact.wav
448,192,74439,1,0,0:0:0:0:
64,192,74589,1,0,0:0:0:0:
192,192,74589,1,0,0:0:0:0:
64,192,74739,1,2,0:0:0:0:
320,192,74739,1,8,0:0:0:0:
448,192,74739,1,0,0:0:0:0:
320,192,74889,1,8,0:0:0:0:
448,192,74889,1,2,0:0:0:0:
64,192,75039,1,8,0:0:0:0:
192,192,75039,1,0,0:0:0:0:
448,192,75039,1,0,0:0:0:0:
320,192,75189,1,2,0:0:0:0:
448,192,75189,1,8,0:0:0:0:
192,192,75264,1,10,0:0:0:0:
64,192,75339,1,8,0:0:0:0:
320,192,75339,1,2,0:0:0:0:
448,192,75339,1,0,0:0:0:0:
64,192,75489,1,2,0:0:0:0:
192,192,75489,1,8,0:0:0:0:
448,192,75489,1,0,0:0:0:0:
192,192,75639,1,2,0:0:0:0:
320,192,75639,1,0,0:0:0:0:
64,192,75789,1,8,0:0:0:0:
320,192,75789,1,0,0:0:0:0:
448,192,75789,1,0,0:0:0:0:
64,192,75939,1,2,0:0:0:0:
192,192,75939,1,0,0:0:0:0:
448,192,75939,1,0,0:0:0:0:
192,192,76089,1,2,0:0:0:0:
448,192,76089,1,8,0:0:0:0:
64,192,76239,1,2,0:0:0:0:
192,192,76239,1,0,0:0:0:0:
320,192,76239,1,0,0:0:0:0:
64,192,76539,1,2,0:0:0:0:
192,192,76539,1,0,0:0:0:100:clap layer 2.wav
320,192,76539,128,0,77139:0:0:0:0:
192,192,76689,1,0,0:0:0:70:Cymatics - Future Bass Clap 3.wav
448,192,76764,1,0,0:0:0:70:Cymatics - Future Bass Clap 3.wav
192,192,76839,1,0,0:0:0:70:Cymatics - Future Bass Clap 3.wav
192,192,76989,1,0,0:0:0:70:Cymatics - Future Bass Clap 3.wav
64,192,77139,1,2,0:0:0:0:
192,192,77139,1,4,0:0:0:0:
448,192,77139,1,0,0:0:0:0:
320,192,77289,1,0,0:0:0:0:
64,192,77439,1,2,0:0:0:0:
192,192,77439,1,0,0:0:0:0:
448,192,77439,1,0,0:0:0:0:
320,192,77589,1,0,0:0:0:0:
192,192,77639,1,0,0:0:0:0:
64,192,77689,1,0,0:0:0:0:
320,192,77739,1,8,0:0:0:0:
448,192,77739,1,0,0:0:0:0:
192,192,77889,1,0,0:0:0:0:
64,192,78039,1,2,0:0:0:0:
192,192,78039,1,0,0:0:0:0:
448,192,78039,1,0,0:0:0:0:
64,192,78189,1,8,0:0:0:0:
320,192,78189,1,0,0:0:0:0:
192,192,78339,1,0,0:0:0:0:
448,192,78339,1,0,0:0:0:0:
64,192,78489,1,2,0:0:0:0:
192,192,78489,1,8,0:0:0:0:
448,192,78564,1,0,0:0:0:0:
64,192,78639,1,2,0:0:0:0:
192,192,78639,1,0,0:0:0:0:
320,192,78789,1,0,0:0:0:0:
192,192,78839,1,0,0:0:0:0:
64,192,78889,1,0,0:0:0:0:
320,192,78939,1,8,0:0:0:0:
448,192,78939,1,0,0:0:0:0:
192,192,79089,1,0,0:0:0:0:
320,192,79239,1,0,0:0:0:100:LR4_DrumRevBassImpact.wav
448,192,79239,128,0,79389:0:0:0:0:
64,192,79389,1,0,0:0:0:0:
192,192,79389,1,0,0:0:0:0:
64,192,79539,1,2,0:0:0:0:
320,192,79539,1,0,0:0:0:0:
448,192,79539,1,0,0:0:0:0:
192,192,79689,1,0,0:0:0:0:
320,192,79689,1,0,0:0:0:0:
64,192,79839,1,2,0:0:0:0:
320,192,79839,1,0,0:0:0:0:
448,192,79839,1,0,0:0:0:0:
192,192,79989,1,2,0:0:0:0:
320,192,80039,1,0,0:0:0:0:
448,192,80089,1,0,0:0:0:0:
64,192,80139,1,8,0:0:0:0:
192,192,80139,1,0,0:0:0:0:
320,192,80289,1,0,0:0:0:0:
64,192,80439,1,2,0:0:0:0:
192,192,80439,1,0,0:0:0:0:
320,192,80439,1,0,0:0:0:0:
192,192,80589,1,8,0:0:0:0:
448,192,80589,1,0,0:0:0:0:
320,192,80739,1,0,0:0:0:0:
64,192,80889,1,8,0:0:0:0:
320,192,80889,1,0,0:0:0:0:
192,192,80939,1,0,0:0:0:0:
320,192,81039,1,2,0:0:0:0:
448,192,81039,1,0,0:0:0:0:
192,192,81189,1,0,0:0:0:0:
320,192,81239,1,0,0:0:0:0:
448,192,81289,1,0,0:0:0:0:
64,192,81339,1,8,0:0:0:0:
192,192,81339,128,0,81939:0:0:0:0:
320,192,81439,1,0,0:0:0:0:
320,192,81539,1,0,0:0:0:0:
64,192,81639,1,0,0:0:0:100:LR4_DrumRevBassImpact_F#3.wav
320,192,81789,1,0,0:0:0:100:LR4_DrumRevBassImpact.wav
64,192,81939,1,2,0:0:0:0:
320,192,81939,1,0,0:0:0:0:
448,192,81939,1,0,0:0:0:0:
192,192,82089,1,0,0:0:0:0:
64,192,82239,1,2,0:0:0:0:
320,192,82239,1,0,0:0:0:0:
448,192,82239,1,0,0:0:0:0:
192,192,82389,1,0,0:0:0:0:
320,192,82439,1,0,0:0:0:0:
448,192,82489,1,0,0:0:0:0:
64,192,82539,1,8,0:0:0:0:
192,192,82539,1,0,0:0:0:0:
320,192,82689,1,0,0:0:0:0:
64,192,82839,1,2,0:0:0:0:
192,192,82839,1,0,0:0:0:0:
448,192,82839,1,0,0:0:0:0:
64,192,82989,1,8,0:0:0:0:
320,192,82989,1,0,0:0:0:0:
192,192,83139,1,0,0:0:0:0:
448,192,83139,1,0,0:0:0:0:
64,192,83289,1,2,0:0:0:0:
192,192,83289,1,8,0:0:0:0:
448,192,83364,1,0,0:0:0:0:
64,192,83439,1,2,0:0:0:0:
192,192,83439,1,0,0:0:0:0:
320,192,83589,1,0,0:0:0:0:
192,192,83639,1,0,0:0:0:0:
64,192,83689,1,0,0:0:0:0:
320,192,83739,1,8,0:0:0:0:
448,192,83739,1,0,0:0:0:0:
192,192,83889,1,0,0:0:0:0:
320,192,84039,1,0,0:0:0:100:LR4_DrumRevBassImpact.wav
448,192,84039,1,0,0:0:0:0:
64,192,84189,1,0,0:0:0:0:
192,192,84189,1,0,0:0:0:0:
64,192,84339,1,2,0:0:0:0:
320,192,84339,1,8,0:0:0:0:
192,192,84489,1,8,0:0:0:0:
448,192,84489,1,0,0:0:0:0:
64,192,84564,1,8,0:0:0:0:
320,192,84564,1,0,0:0:0:0:
192,192,84639,1,2,0:0:0:0:
448,192,84639,1,0,0:0:0:0:
64,192,84789,1,2,0:0:0:0:
192,192,84789,1,8,0:0:0:0:
320,192,84864,1,0,0:0:0:0:
64,192,84939,1,0,0:0:0:100:clap layer 2.wav
192,192,84939,1,0,0:0:0:0:
448,192,84939,1,0,0:0:0:0:
64,192,85089,1,8,0:0:0:0:
320,192,85089,1,0,0:0:0:0:
192,192,85164,1,8,0:0:0:0:
64,192,85239,1,8,0:0:0:0:
320,192,85239,1,2,0:0:0:0:
448,192,85239,1,0,0:0:0:0:
192,192,85389,1,8,0:0:0:0:
320,192,85389,1,0,0:0:0:0:
64,192,85539,1,2,0:0:0:0:
192,192,85539,1,0,0:0:0:0:
448,192,85539,1,0,0:0:0:0:
64,192,85689,1,2,0:0:0:0:
320,192,85689,1,8,0:0:0:0:
192,192,85764,1,0,0:0:0:0:
320,192,85839,1,2,0:0:0:0:
448,192,85839,1,0,0:0:0:0:
192,192,85989,1,0,0:0:0:0:
320,192,86039,1,0,0:0:0:0:
448,192,86089,1,0,0:0:0:0:
64,192,86139,1,2,0:0:0:0:
192,192,86139,128,0,86739:0:0:0:100:clap layer 2.wav
320,192,86739,1,2,0:0:0:0:
448,192,86739,1,0,0:0:0:0:
192,192,86889,1,0,0:0:0:0:
320,192,87039,1,2,0:0:0:0:
448,192,87039,1,0,0:0:0:0:
192,192,87189,1,0,0:0:0:0:
192,192,87339,1,8,0:0:0:0:
448,192,87339,1,0,0:0:0:0:
64,192,87639,1,2,0:0:0:0:
192,192,87639,1,0,0:0:0:0:
192,192,87789,1,8,0:0:0:0:
448,192,87789,1,0,0:0:0:0:
192,192,88089,1,2,0:0:0:0:
448,192,88089,1,8,0:0:0:0:
64,192,88239,1,2,0:0:0:0:
192,192,88239,1,0,0:0:0:0:
64,192,88539,1,8,0:0:0:0:
320,192,88539,1,0,0:0:0:0:
448,192,88539,1,0,0:0:0:0:
64,192,89139,1,2,0:0:0:0:
192,192,89139,1,0,0:0:0:0:
320,192,89289,1,0,0:0:0:0:
64,192,89439,1,2,0:0:0:0:
192,192,89439,1,0,0:0:0:0:
320,192,89589,1,2,0:0:0:0:
448,192,89589,1,0,0:0:0:0:
64,192,89739,1,8,0:0:0:0:
320,192,89739,1,0,0:0:0:0:
320,192,90039,1,2,0:0:0:0:
448,192,90039,1,0,0:0:0:0:
64,192,90189,1,8,0:0:0:0:
320,192,90189,1,0,0:0:0:0:
192,192,90489,128,0,90639:0:0:0:0:
448,192,90639,128,0,90789:0:0:0:0:
64,192,90789,128,0,90939:0:0:0:0:
320,192,90939,128,0,91239:0:0:0:0:
64,192,91239,1,0,0:0:0:70:LR_Snare Hat.wav
192,192,91239,1,0,0:0:0:0:
320,192,91539,1,2,0:0:0:0:
448,192,91539,1,0,0:0:0:0:
192,192,91689,1,0,0:0:0:0:
320,192,91839,1,2,0:0:0:0:
448,192,91839,1,0,0:0:0:0:
192,192,91989,1,0,0:0:0:0:
192,192,92139,1,8,0:0:0:0:
448,192,92139,1,0,0:0:0:0:
320,192,92439,1,2,0:0:0:0:
448,192,92439,1,0,0:0:0:0:
64,192,92589,1,8,0:0:0:0:
320,192,92589,1,0,0:0:0:0:
64,192,92889,1,2,0:0:0:0:
320,192,92889,1,8,0:0:0:0:
320,192,93039,1,2,0:0:0:0:
448,192,93039,1,0,0:0:0:0:
64,192,93339,1,8,0:0:0:0:
192,192,93339,1,0,0:0:0:0:
448,192,93339,1,0,0:0:0:0:
64,192,93939,1,2,0:0:0:0:
192,192,93939,1,0,0:0:0:0:
320,192,94089,1,0,0:0:0:70:LR_Snare Hat.wav
448,192,94089,1,0,0:0:0:0:
320,192,94239,1,2,0:0:0:0:
448,192,94239,1,0,0:0:0:70:LR_Snare Hat.wav
64,192,94389,1,2,0:0:0:0:
192,192,94389,1,0,0:0:0:0:
64,192,94539,1,8,0:0:0:0:
192,192,94539,1,0,0:0:0:0:
448,192,94539,1,0,0:0:0:0:
320,192,94689,1,0,0:0:0:70:LR_Snare Hat.wav
448,192,94689,1,0,0:0:0:0:
64,192,94839,1,2,0:0:0:0:
192,192,94839,1,0,0:0:0:0:
320,192,94989,1,8,0:0:0:0:
448,192,94989,1,0,0:0:0:0:
64,192,95139,1,0,0:0:0:0:
192,192,95176,1,0,0:0:0:0:
192,192,95389,1,0,0:0:0:0:
448,192,95489,1,0,0:0:0:0:
320,192,95539,1,0,0:0:0:0:
64,192,95739,1,0,0:0:0:100:clap layer 2.wav
192,192,95739,1,0,0:0:0:0:
320,192,95739,1,0,0:0:0:0:
448,192,95739,1,0,0:0:0:0:
448,192,96039,1,0,0:0:0:0:
192,192,96114,1,0,0:0:0:0:
320,192,96239,1,0,0:0:0:0:
64,192,96339,1,2,0:0:0:0:
192,192,96339,1,0,0:0:0:0:
320,192,96489,1,0,0:0:0:0:
64,192,96639,1,2,0:0:0:0:
192,192,96639,1,0,0:0:0:0:
320,192,96789,1,0,0:0:0:0:
192,192,96839,1,0,0:0:0:0:
64,192,96889,1,0,0:0:0:0:
320,192,96939,1,8,0:0:0:0:
448,192,96939,1,0,0:0:0:0:
192,192,97089,1,0,0:0:0:0:
192,192,97239,1,2,0:0:0:0:
448,192,97239,1,0,0:0:0:0:
64,192,97389,1,8,0:0:0:0:
320,192,97389,1,0,0:0:0:0:
320,192,97539,1,0,0:0:0:0:
192,192,97689,1,2,0:0:0:0:
448,192,97689,1,8,0:0:0:0:
320,192,97764,1,0,0:0:0:0:
64,192,97839,1,2,0:0:0:0:
192,192,97839,1,0,0:0:0:0:
320,192,97989,1,0,0:0:0:0:
192,192,98039,1,0,0:0:0:0:
64,192,98089,1,0,0:0:0:0:
320,192,98139,1,8,0:0:0:0:
448,192,98139,1,0,0:0:0:0:
320,192,98439,1,0,0:0:0:0:
192,192,98589,1,0,0:0:0:0:
320,192,98739,1,2,0:0:0:0:
448,192,98739,1,0,0:0:0:0:
192,192,98889,1,0,0:0:0:0:
320,192,99039,1,2,0:0:0:0:
448,192,99039,1,0,0:0:0:0:
192,192,99189,1,2,0:0:0:0:
320,192,99239,1,0,0:0:0:0:
448,192,99289,1,0,0:0:0:0:
64,192,99339,1,8,0:0:0:0:
192,192,99339,1,0,0:0:0:0:
320,192,99489,1,0,0:0:0:0:
64,192,99639,1,2,0:0:0:0:
192,192,99639,1,0,0:0:0:0:
192,192,99789,1,8,0:0:0:0:
448,192,99789,1,0,0:0:0:0:
320,192,99939,1,0,0:0:0:0:
192,192,100089,1,8,0:0:0:0:
448,192,100089,1,0,0:0:0:0:
320,192,100164,1,0,0:0:0:0:
64,192,100239,1,2,0:0:0:0:
192,192,100239,1,0,0:0:0:0:
320,192,100389,1,0,0:0:0:0:
192,192,100439,1,0,0:0:0:0:
64,192,100489,1,0,0:0:0:0:
320,192,100539,1,8,0:0:0:0:
448,192,100539,1,0,0:0:0:0:
192,192,100639,1,0,0:0:0:0:
64,192,100739,1,0,0:0:0:0:
320,192,100839,1,0,0:0:0:0:
448,192,100939,1,0,0:0:0:0:
192,192,100989,1,0,0:0:0:0:
320,192,101139,1,2,0:0:0:0:
448,192,101139,1,0,0:0:0:0:
192,192,101289,1,0,0:0:0:0:
320,192,101439,1,2,0:0:0:0:
448,192,101439,1,0,0:0:0:0:
192,192,101589,1,0,0:0:0:0:
320,192,101639,1,0,0:0:0:0:
448,192,101689,1,0,0:0:0:0:
64,192,101739,1,8,0:0:0:0:
192,192,101739,1,0,0:0:0:0:
320,192,101889,1,0,0:0:0:0:
64,192,102039,1,2,0:0:0:0:
192,192,102039,1,0,0:0:0:0:
192,192,102189,1,8,0:0:0:0:
448,192,102189,1,0,0:0:0:0:
320,192,102339,1,0,0:0:0:0:
192,192,102489,1,2,0:0:0:0:
448,192,102489,1,8,0:0:0:0:
320,192,102564,1,0,0:0:0:0:
64,192,102639,1,2,0:0:0:0:
192,192,102639,1,0,0:0:0:0:
320,192,102789,1,0,0:0:0:0:
192,192,102839,1,0,0:0:0:0:
64,192,102889,1,0,0:0:0:0:
320,192,102939,1,8,0:0:0:0:
448,192,102939,1,0,0:0:0:0:
320,192,103239,1,0,0:0:0:0:
192,192,103389,1,0,0:0:0:0:
64,192,103539,1,2,0:0:0:0:
192,192,103539,1,0,0:0:0:0:
320,192,103689,1,0,0:0:0:70:Cymatics - Future Bass Clap 3.wav
448,192,103689,1,0,0:0:0:0:
320,192,103839,1,2,0:0:0:0:
448,192,103839,1,0,0:0:0:70:Cymatics - Future Bass Clap 3.wav
64,192,103989,1,2,0:0:0:0:
192,192,103989,1,0,0:0:0:0:
320,192,104039,1,0,0:0:0:0:
448,192,104089,1,0,0:0:0:0:
64,192,104139,1,8,0:0:0:0:
192,192,104139,1,0,0:0:0:0:
320,192,104289,1,0,0:0:0:70:LR_Snare Hat.wav
448,192,104289,1,0,0:0:0:0:
64,192,104439,1,2,0:0:0:0:
192,192,104439,1,0,0:0:0:70:Cymatics - Future Bass Clap 3.wav
64,192,104589,1,8,0:0:0:0:
320,192,104589,1,0,0:0:0:70:Cymatics - Future Bass Clap 3.wav
448,192,104589,1,0,0:0:0:0:
192,192,104889,128,0,105039:0:0:0:0:
448,192,105039,128,0,105189:0:0:0:0:
64,192,105189,128,0,105339:0:0:0:0:
320,192,105339,128,0,105639:0:0:0:0:
64,192,105939,1,2,0:0:0:0:
192,192,105939,1,0,0:0:0:0:
448,192,106339,1,0,0:0:0:100:Slapachair_EDIT.wav
64,192,106389,1,2,0:0:0:0:
192,192,106389,1,0,0:0:0:100:Slapachair_EDIT.wav
320,192,106464,1,0,0:0:0:100:Slapachair_EDIT.wav
448,192,106539,1,0,0:0:0:100:Slapachair_EDIT.wav
64,192,106839,1,2,0:0:0:0:
192,192,106839,1,0,0:0:0:0:
192,192,106989,1,0,0:0:0:100:Slapachair_EDIT.wav
448,192,106989,1,0,0:0:0:0:
320,192,107289,1,0,0:0:0:0:
64,192,107439,1,2,0:0:0:0:
192,192,107439,1,0,0:0:0:100:Slapachair_EDIT.wav
64,192,108339,1,2,0:0:0:0:
192,192,108339,1,0,0:0:0:0:
448,192,108639,1,0,0:0:0:100:Slapachair_EDIT.wav
192,192,108714,1,0,0:0:0:100:Slapachair_EDIT.wav
320,192,108789,1,2,0:0:0:0:
448,192,108789,1,0,0:0:0:100:Slapachair_EDIT.wav
192,192,108864,1,0,0:0:0:100:Slapachair_EDIT.wav
64,192,108939,1,0,0:0:0:100:Slapachair_EDIT.wav
320,192,109239,1,2,0:0:0:0:
448,192,109239,1,0,0:0:0:0:
64,192,109389,1,0,0:0:0:100:Slapachair_EDIT.wav
320,192,109389,1,0,0:0:0:0:
64,192,109539,1,2,0:0:0:0:
192,192,109539,1,0,0:0:0:0:
192,192,109689,1,0,0:0:0:100:Slapachair_EDIT.wav
448,192,109689,1,0,0:0:0:0:
320,192,109989,1,2,0:0:0:0:
448,192,109989,1,0,0:0:0:0:
64,192,110139,1,0,0:0:0:100:Slapachair_EDIT.wav
320,192,110139,1,0,0:0:0:0:
64,192,110439,1,2,0:0:0:0:
192,192,110439,1,0,0:0:0:0:
320,192,110589,1,0,0:0:0:100:Slapachair_EDIT.wav
448,192,110589,1,0,0:0:0:0:
64,192,110739,1,2,0:0:0:0:
192,192,110739,1,0,0:0:0:0:
320,192,111039,1,0,0:0:0:0:
192,192,111114,1,0,0:0:0:0:
320,192,111189,1,2,0:0:0:0:
448,192,111189,1,0,0:0:0:0:
64,192,111264,1,0,0:0:0:100:Slapachair_EDIT.wav
448,192,111339,1,0,0:0:0:100:Slapachair_EDIT.wav
64,192,111639,1,2,0:0:0:0:
192,192,111639,1,0,0:0:0:0:
192,192,111789,1,0,0:0:0:100:Slapachair_EDIT.wav
448,192,111789,1,0,0:0:0:0:
64,192,112239,1,2,0:0:0:0:
192,192,112239,1,0,0:0:0:100:Slapachair_EDIT.wav
64,192,113139,1,2,0:0:0:0:
192,192,113139,1,0,0:0:0:0:
192,192,113514,1,0,0:0:0:70:Slapachair_EDIT.wav
320,192,113589,1,2,0:0:0:0:
448,192,113589,1,0,0:0:0:70:Slapachair_EDIT.wav
64,192,113664,1,0,0:0:0:70:Slapachair_EDIT.wav
192,192,113739,1,0,0:0:0:100:Slapachair_EDIT.wav
64,192,114039,1,2,0:0:0:0:
192,192,114039,1,0,0:0:0:0:
192,192,114189,1,0,0:0:0:100:Slapachair_EDIT.wav
448,192,114189,1,0,0:0:0:0:
320,192,114339,1,0,0:0:0:70:LR_Tom Hit.wav
448,192,114339,1,0,0:0:0:0:
64,192,114564,1,0,0:0:0:70:LR_Tom Hit.wav
192,192,114639,1,0,0:0:0:70:LR_Tom Hit.wav
320,192,114789,1,0,0:0:0:70:LR_Tom Hit.wav
448,192,114789,1,0,0:0:0:0:
64,192,114939,1,0,0:0:0:70:LR_Tom Normal.wav
320,192,114939,1,0,0:0:0:0:
448,192,114939,1,0,0:0:0:0:
192,192,115089,1,0,0:0:0:70:LR_Tom Normal.wav
320,192,115239,128,0,115389:0:0:0:70:tom03.wav
448,192,115239,128,0,115389:0:0:0:0:
192,192,115389,1,0,0:0:0:70:tom04.wav
64,192,115539,1,2,0:0:0:0:
192,192,115539,1,0,0:0:0:0:
448,192,115539,1,0,0:0:0:0:
320,192,115689,1,0,0:0:0:0:
64,192,115839,1,0,0:0:0:0:
320,192,115839,1,0,0:0:0:0:
64,192,115989,1,2,0:0:0:0:
192,192,115989,1,0,0:0:0:100:Slapachair_EDIT.wav
320,192,116064,1,0,0:0:0:100:Slapachair_EDIT.wav
192,192,116139,1,0,0:0:0:100:Slapachair_EDIT.wav
448,192,116139,1,0,0:0:0:0:
64,192,116439,1,2,0:0:0:0:
192,192,116439,1,0,0:0:0:0:
192,192,116589,1,0,0:0:0:100:Slapachair_EDIT.wav
448,192,116589,1,0,0:0:0:0:
320,192,116739,1,2,0:0:0:0:
448,192,116739,1,0,0:0:0:0:
192,192,117039,1,0,0:0:0:100:Slapachair_EDIT.wav
448,192,117039,1,0,0:0:0:0:
64,192,117189,1,2,0:0:0:0:
192,192,117189,1,0,0:0:0:100:Slapachair_EDIT.wav
320,192,117339,1,0,0:0:0:0:
320,192,117639,1,0,0:0:0:70:clap01.wav
448,192,117639,1,0,0:0:0:0:
64,192,117939,1,2,0:0:0:0:
320,192,117939,1,0,0:0:0:0:
448,192,117939,1,0,0:0:0:0:
192,192,118089,1,0,0:0:0:0:
192,192,118239,1,0,0:0:0:0:
320,192,118389,1,2,0:0:0:0:
448,192,118389,1,0,0:0:0:100:Slapachair_EDIT.wav
192,192,118464,1,0,0:0:0:100:Slapachair_EDIT.wav
64,192,118539,1,0,0:0:0:100:Slapachair_EDIT.wav
320,192,118539,1,0,0:0:0:0:
320,192,118839,1,2,0:0:0:0:
448,192,118839,1,0,0:0:0:0:
64,192,118989,1,0,0:0:0:100:Slapachair_EDIT.wav
320,192,118989,1,0,0:0:0:0:
64,192,119139,1,2,0:0:0:0:
192,192,119139,1,0,0:0:0:0:
192,192,119289,1,0,0:0:0:100:Slapachair_EDIT.wav
448,192,119289,1,0,0:0:0:0:
320,192,119439,1,0,0:0:0:0:
320,192,119589,1,2,0:0:0:0:
448,192,119589,1,0,0:0:0:0:
192,192,119739,1,0,0:0:0:70:clap01.wav
448,192,119739,1,0,0:0:0:0:
320,192,120039,1,0,0:0:0:70:clap01.wav
192,192,120189,1,0,0:0:0:100:Slapachair_EDIT.wav
64,192,120339,1,2,0:0:0:0:
192,192,120339,1,0,0:0:0:0:
448,192,120339,1,0,0:0:0:0:
320,192,120489,1,0,0:0:0:0:
320,192,120639,1,0,0:0:0:0:
64,192,120789,1,2,0:0:0:0:
192,192,120789,1,0,0:0:0:100:Slapachair_EDIT.wav
320,192,120864,1,0,0:0:0:100:Slapachair_EDIT.wav
192,192,120939,1,0,0:0:0:100:Slapachair_EDIT.wav
448,192,120939,1,0,0:0:0:0:
64,192,121239,1,2,0:0:0:0:
192,192,121239,1,0,0:0:0:0:
192,192,121389,1,0,0:0:0:100:Slapachair_EDIT.wav
448,192,121389,1,0,0:0:0:0:
320,192,121539,1,2,0:0:0:0:
448,192,121539,1,0,0:0:0:0:
192,192,121689,1,0,0:0:0:0:
192,192,121839,1,0,0:0:0:100:Slapachair_EDIT.wav
448,192,121839,1,0,0:0:0:0:
320,192,121989,1,2,0:0:0:0:
448,192,121989,1,0,0:0:0:100:Slapachair_EDIT.wav
64,192,122139,1,0,0:0:0:0:
320,192,122139,1,0,0:0:0:0:
64,192,122439,1,0,0:0:0:70:clap01.wav
192,192,122439,1,0,0:0:0:0:
64,192,122739,1,2,0:0:0:0:
320,192,122739,1,0,0:0:0:0:
448,192,122739,1,0,0:0:0:0:
192,192,122889,1,0,0:0:0:0:
192,192,123039,1,0,0:0:0:0:
448,192,123039,1,0,0:0:0:0:
320,192,123189,1,2,0:0:0:0:
448,192,123189,1,0,0:0:0:100:Slapachair_EDIT.wav
192,192,123264,1,0,0:0:0:100:Slapachair_EDIT.wav
64,192,123339,1,0,0:0:0:100:Slapachair_EDIT.wav
320,192,123339,1,0,0:0:0:0:
320,192,123639,1,2,0:0:0:0:
448,192,123639,1,0,0:0:0:0:
64,192,123789,1,0,0:0:0:100:Slapachair_EDIT.wav
320,192,123789,1,0,0:0:0:0:
192,192,123939,128,0,124089:0:0:0:0:
448,192,124089,128,0,124339:0:0:0:0:
320,192,124339,128,0,124539:0:0:0:0:
64,192,124539,128,0,124689:0:0:0:0:
192,192,124839,128,0,124989:0:0:0:0:
448,192,124989,128,0,125139:0:0:0:0:
64,192,125139,128,0,129939:0:0:0:0:
192,192,125139,128,0,125439:0:0:0:0:
320,192,125739,128,0,125889:0:0:0:0:
320,192,126039,128,0,126189:0:0:0:0:
448,192,126339,128,0,126639:0:0:0:0:
320,192,126939,128,0,127089:0:0:0:0:
192,192,127239,128,0,127389:0:0:0:0:
448,192,127539,128,0,127989:0:0:0:0:
320,192,127989,128,0,128139:0:0:0:0:
192,192,128139,128,0,128589:0:0:0:0:
320,192,128589,128,0,128739:0:0:0:0:
448,192,128739,128,0,129339:0:0:0:0:
192,192,129639,128,0,129789:0:0:0:0:
448,192,129789,128,0,129939:0:0:0:0:
192,192,129939,128,0,134739:0:0:0:0:
320,192,129939,128,0,130239:0:0:0:0:
64,192,130539,128,0,130764:0:0:0:0:
448,192,130764,128,0,131139:0:0:0:0:
320,192,131139,128,0,131439:0:0:0:0:
64,192,131739,128,0,132039:0:0:0:0:
448,192,132039,128,0,132339:0:0:0:0:
320,192,132339,128,0,132789:0:0:0:0:
448,192,132789,128,0,132939:0:0:0:0:
320,192,132939,128,0,133289:0:0:0:0:
448,192,133289,1,0,0:0:0:0:
448,192,133389,128,0,133539:0:0:0:0:
64,192,133539,128,0,134139:0:0:0:0:
64,192,134439,128,0,134589:0:0:0:0:
448,192,134589,128,0,134739:0:0:0:0:
64,192,134739,128,2,135039:0:0:0:0:
320,192,134739,1,0,0:0:0:0:
320,192,135039,1,0,0:0:0:0:
64,192,135339,1,0,0:0:0:70:clap01.wav
192,192,135339,128,0,135639:0:0:0:0:
448,192,135339,1,0,0:0:0:0:
64,192,135639,1,0,0:0:0:0:
320,192,135639,128,0,135939:0:0:0:0:
192,192,135939,1,2,0:0:0:0:
448,192,135939,128,0,136539:0:0:0:0:
192,192,136239,1,0,0:0:0:0:
64,192,136539,1,0,0:0:0:70:clap01.wav
192,192,136539,1,0,0:0:0:0:
320,192,136539,128,0,136839:0:0:0:0:
64,192,136839,128,0,137139:0:0:0:0:
448,192,136839,1,0,0:0:0:0:
192,192,137139,1,2,0:0:0:0:
448,192,137139,128,0,137439:0:0:0:0:
192,192,137439,1,0,0:0:0:0:
64,192,137739,1,0,0:0:0:70:clap01.wav
320,192,137739,128,0,138139:0:0:0:0:
448,192,137739,1,0,0:0:0:0:
64,192,138039,1,0,0:0:0:0:
192,192,138139,128,0,138339:0:0:0:0:
64,192,138339,128,2,138939:0:0:0:0:
448,192,138339,1,0,0:0:0:0:
448,192,138639,1,0,0:0:0:0:
192,192,138939,1,0,0:0:0:70:clap01.wav
448,192,138939,1,0,0:0:0:0:
64,192,139239,1,0,0:0:0:0:
192,192,139239,128,0,139389:0:0:0:0:
448,192,139389,128,0,139539:0:0:0:0:
64,192,139539,1,2,0:0:0:0:
320,192,139539,128,0,139689:0:0:0:0:
192,192,139839,1,0,0:0:0:0:
64,192,140139,1,0,0:0:0:70:clap01.wav
192,192,140139,128,0,140439:0:0:0:0:
448,192,140139,1,0,0:0:0:0:
320,192,140439,1,0,0:0:0:0:
448,192,140439,128,0,140589:0:0:0:0:
64,192,140739,128,2,141039:0:0:0:0:
192,192,140739,1,0,0:0:0:0:
320,192,141039,1,0,0:0:0:0:
64,192,141339,128,0,141639:0:0:0:70:clap01.wav
320,192,141339,1,0,0:0:0:0:
448,192,141339,1,0,0:0:0:0:
192,192,141639,128,0,141939:0:0:0:0:
448,192,141639,1,0,0:0:0:0:
64,192,141939,1,2,0:0:0:0:
320,192,141939,128,0,142339:0:0:0:0:
192,192,142239,1,0,0:0:0:0:
448,192,142339,128,0,142539:0:0:0:0:
64,192,142539,1,0,0:0:0:70:clap01.wav
192,192,142539,128,0,142989:0:0:0:0:
320,192,142539,1,0,0:0:0:0:
448,192,142839,1,0,0:0:0:0:
320,192,142989,128,0,143139:0:0:0:0:
64,192,143139,128,2,143889:0:0:0:0:
192,192,143139,1,0,0:0:0:0:
448,192,143139,128,0,144189:0:0:0:0:
192,192,143739,128,0,143889:0:0:0:70:LR_Snare Drum 3.wav
320,192,143889,128,0,144039:0:0:0:70:LR_Snare Drum 3.wav
64,192,144039,128,0,144189:0:0:0:70:LR_Snare Drum 2.wav
192,192,144189,128,0,144339:0:0:0:70:LR_Snare Drum 2.wav
64,192,144339,1,4,0:0:0:0:
320,192,144339,1,0,0:0:0:100:LR4_DrumRevBassImpact.wav
448,192,144339,1,0,0:0:0:0:
192,192,144489,1,0,0:0:0:0:
64,192,144639,1,0,0:0:0:100:LR4_DrumRevBassImpact.wav
320,192,144639,1,0,0:0:0:0:
448,192,144639,1,0,0:0:0:0:
192,192,144789,1,0,0:0:0:0:
64,192,144939,1,0,0:0:0:70:Cymatics - Future Bass Clap 3.wav
192,192,144939,1,0,0:0:0:0:
448,192,144939,1,0,0:0:0:0:
320,192,145239,1,0,0:0:0:0:
64,192,145539,1,0,0:0:0:100:LR4_DrumRevBassImpact.wav
192,192,145539,1,0,0:0:0:0:
448,192,145539,1,0,0:0:0:0:
64,192,145839,1,0,0:0:0:100:LR4_DrumRevBassImpact.wav
192,192,145839,1,0,0:0:0:0:
448,192,145839,1,0,0:0:0:0:
320,192,145989,1,0,0:0:0:70:Cymatics - Future Bass Clap 3.wav
448,192,145989,1,0,0:0:0:0:
64,192,146139,1,0,0:0:0:70:Cymatics - Future Bass Clap 3.wav
320,192,146139,1,0,0:0:0:0:
448,192,146139,1,0,0:0:0:0:
192,192,146439,1,0,0:0:0:0:
64,192,146739,1,0,0:0:0:100:LR4_DrumRevBassImpact.wav
192,192,146739,1,0,0:0:0:0:
448,192,146739,1,0,0:0:0:0:
320,192,146889,1,0,0:0:0:0:
64,192,147039,1,0,0:0:0:100:LR4_DrumRevBassImpact.wav
192,192,147039,1,0,0:0:0:0:
448,192,147039,1,0,0:0:0:0:
320,192,147189,1,0,0:0:0:0:
64,192,147339,1,0,0:0:0:70:Cymatics - Future Bass Clap 3.wav
320,192,147339,1,0,0:0:0:0:
448,192,147339,1,0,0:0:0:0:
320,192,147639,1,0,0:0:0:0:
64,192,147939,1,0,0:0:0:100:LR4_DrumRevBassImpact.wav
320,192,147939,1,0,0:0:0:0:
448,192,147939,1,0,0:0:0:0:
64,192,148239,1,0,0:0:0:100:LR4_DrumRevBassImpact.wav
320,192,148239,1,0,0:0:0:0:
448,192,148239,1,0,0:0:0:0:
64,192,148389,1,0,0:0:0:70:Cymatics - Future Bass Clap 3.wav
192,192,148389,1,0,0:0:0:0:
64,192,148539,1,0,0:0:0:70:Cymatics - Future Bass Clap 3.wav
192,192,148539,1,0,0:0:0:0:
448,192,148539,1,0,0:0:0:0:
192,192,148839,1,0,0:0:0:0:
64,192,149139,1,0,0:0:0:100:LR4_DrumRevBassImpact.wav
320,192,149139,1,0,0:0:0:0:
448,192,149139,1,0,0:0:0:0:
192,192,149289,1,0,0:0:0:0:
64,192,149439,1,0,0:0:0:100:LR4_DrumRevBassImpact.wav
320,192,149439,1,0,0:0:0:0:
448,192,149439,1,0,0:0:0:0:
192,192,149589,1,0,0:0:0:0:
64,192,149739,1,0,0:0:0:70:Cymatics - Future Bass Clap 3.wav
192,192,149739,1,0,0:0:0:0:
320,192,149739,1,0,0:0:0:0:
320,192,150039,1,0,0:0:0:0:
64,192,150339,1,0,0:0:0:100:LR4_DrumRevBassImpact.wav
192,192,150339,1,0,0:0:0:0:
448,192,150339,1,0,0:0:0:0:
64,192,150639,1,0,0:0:0:100:LR4_DrumRevBassImpact.wav
192,192,150639,1,0,0:0:0:0:
448,192,150639,1,0,0:0:0:0:
64,192,150789,1,0,0:0:0:70:Cymatics - Future Bass Clap 3.wav
320,192,150789,1,0,0:0:0:0:
64,192,150939,1,0,0:0:0:70:Cymatics - Future Bass Clap 3.wav
320,192,150939,1,0,0:0:0:0:
448,192,150939,1,0,0:0:0:0:
192,192,151239,1,0,0:0:0:0:
64,192,151539,1,0,0:0:0:100:LR4_DrumRevBassImpact.wav
192,192,151539,1,0,0:0:0:0:
448,192,151539,1,0,0:0:0:0:
320,192,151689,1,0,0:0:0:0:
64,192,151839,1,0,0:0:0:100:LR4_DrumRevBassImpact.wav
192,192,151839,1,0,0:0:0:0:
448,192,151839,1,0,0:0:0:0:
320,192,151989,1,0,0:0:0:0:
192,192,152139,1,0,0:0:0:70:Cymatics - Future Bass Clap 3.wav
320,192,152139,1,0,0:0:0:0:
448,192,152139,1,0,0:0:0:0:
64,192,152439,1,0,0:0:0:100:LR4_DrumRevBassImpact.wav
320,192,152439,1,0,0:0:0:0:
320,192,152589,1,0,0:0:0:0:
64,192,152739,1,0,0:0:0:100:LR4_DrumRevBassImpact.wav
192,192,152739,1,0,0:0:0:0:
448,192,152739,1,0,0:0:0:0:
320,192,152889,1,0,0:0:0:0:
64,192,153039,1,0,0:0:0:100:LR4_DrumRevBassImpact.wav
192,192,153039,1,0,0:0:0:0:
448,192,153039,1,0,0:0:0:0:
64,192,153189,1,0,0:0:0:70:Cymatics - Future Bass Clap 3.wav
320,192,153189,1,0,0:0:0:0:
64,192,153339,1,0,0:0:0:70:Cymatics - Future Bass Clap 3.wav
320,192,153339,1,0,0:0:0:0:
448,192,153339,1,0,0:0:0:0:
320,192,153639,1,0,0:0:0:0:
64,192,153939,1,2,0:0:0:0:
192,192,153939,1,0,0:0:0:40:LR_CymbalRDW.wav
448,192,153939,1,0,0:0:0:0:
192,192,154239,1,2,0:0:0:0:
448,192,154239,1,0,0:0:0:0:
192,192,154389,1,0,0:0:0:0:
448,192,154389,1,0,0:0:0:0:
64,192,154539,1,8,0:0:0:0:
320,192,154539,1,2,0:0:0:0:
448,192,154539,1,0,0:0:0:0:
64,192,154839,1,2,0:0:0:0:
192,192,154839,1,0,0:0:0:0:
320,192,155139,1,2,0:0:0:0:
448,192,155139,1,0,0:0:0:0:
320,192,155439,1,2,0:0:0:0:
448,192,155439,1,0,0:0:0:0:
192,192,155514,1,8,0:0:0:0:
320,192,155589,1,8,0:0:0:0:
448,192,155589,1,0,0:0:0:0:
64,192,155664,1,8,0:0:0:0:
192,192,155664,1,0,0:0:0:0:
320,192,155739,1,8,0:0:0:0:
448,192,155739,1,2,0:0:0:0:
64,192,156039,1,2,0:0:0:0:
192,192,156039,1,0,0:0:0:0:
320,192,156339,1,2,0:0:0:0:
448,192,156339,1,0,0:0:0:0:
64,192,156639,1,2,0:0:0:0:
320,192,156639,1,0,0:0:0:0:
64,192,156789,1,0,0:0:0:0:
320,192,156789,1,0,0:0:0:0:
64,192,156939,1,8,0:0:0:0:
192,192,156939,1,2,0:0:0:0:
448,192,156939,1,0,0:0:0:0:
64,192,157239,1,2,0:0:0:0:
192,192,157239,1,0,0:0:0:0:
192,192,157389,1,8,0:0:0:0:
320,192,157389,1,0,0:0:0:0:
448,192,157389,1,0,0:0:0:0:
64,192,157539,1,2,0:0:0:0:
192,192,157539,1,0,0:0:0:0:
320,192,157839,1,2,0:0:0:0:
448,192,157839,1,0,0:0:0:0:
192,192,157914,1,8,0:0:0:0:
320,192,157989,1,8,0:0:0:0:
448,192,157989,1,0,0:0:0:0:
64,192,158064,1,8,0:0:0:0:
192,192,158064,1,0,0:0:0:0:
320,192,158139,1,8,0:0:0:0:
448,192,158139,1,2,0:0:0:0:
64,192,158439,1,2,0:0:0:0:
192,192,158439,1,0,0:0:0:0:
320,192,158739,1,2,0:0:0:0:
448,192,158739,1,8,0:0:0:0:
64,192,158889,1,2,0:0:0:0:
320,192,158889,1,8,0:0:0:0:
448,192,158889,1,0,0:0:0:0:
64,192,159039,1,2,0:0:0:0:
192,192,159039,1,0,0:0:0:0:
320,192,159189,1,2,0:0:0:0:
448,192,159189,1,0,0:0:0:0:
64,192,159339,1,8,0:0:0:0:
192,192,159339,1,2,0:0:0:0:
448,192,159339,1,0,0:0:0:0:
64,192,159489,1,2,0:0:0:0:
192,192,159489,1,0,0:0:0:0:
192,192,159639,1,2,0:0:0:0:
320,192,159639,1,0,0:0:0:0:
448,192,159639,1,0,0:0:0:0:
320,192,159789,1,8,0:0:0:0:
448,192,159789,1,2,0:0:0:0:
64,192,159864,1,8,0:0:0:0:
192,192,159864,1,0,0:0:0:0:
320,192,159939,1,2,0:0:0:0:
448,192,159939,1,0,0:0:0:0:
64,192,160089,1,2,0:0:0:0:
192,192,160089,1,8,0:0:0:0:
320,192,160164,1,8,0:0:0:0:
448,192,160164,1,2,0:0:0:0:
64,192,160239,1,2,0:0:0:0:
192,192,160239,1,0,0:0:0:0:
320,192,160389,1,8,0:0:0:0:
448,192,160389,1,2,0:0:0:0:
192,192,160464,1,8,0:0:0:0:
64,192,160539,1,8,0:0:0:0:
320,192,160539,1,2,0:0:0:0:
448,192,160539,1,0,0:0:0:0:
64,192,160689,1,2,0:0:0:0:
192,192,160689,1,0,0:0:0:0:
64,192,160839,1,2,0:0:0:0:
192,192,160839,1,0,0:0:0:0:
320,192,160839,1,0,0:0:0:0:
192,192,160989,1,2,0:0:0:0:
320,192,160989,1,0,0:0:0:0:
448,192,160989,1,0,0:0:0:0:
320,192,161139,128,2,162264:0:0:0:0:
448,192,161139,128,0,162264:0:0:0:70:Cymatics - Future Bass Clap 3.wav
64,192,162189,1,0,0:0:0:70:LR_Snare Drum 3.wav
192,192,162264,1,0,0:0:0:70:LR_Snare Drum 3.wav
320,192,162339,1,0,0:0:0:100:Slapachair_EDIT.wav
448,192,162339,1,0,0:0:0:0:
64,192,162489,1,0,0:0:0:70:LR_Snare Drum.wav
320,192,162489,1,0,0:0:0:0:
192,192,162639,1,0,0:0:0:70:LR_Drum Rpd x2.wav
64,192,162939,1,0,0:0:0:100:clap layer 2.wav
192,192,162939,1,0,0:0:0:0:
320,192,162939,1,0,0:0:0:0:
448,192,162939,1,0,0:0:0:0:
64,192,163539,128,2,163614:0:0:0:0:
192,192,163539,1,4,0:0:0:0:
448,192,163539,1,0,0:0:0:0:
320,192,163689,128,0,163764:0:0:0:0:
64,192,163839,128,2,163914:0:0:0:0:
192,192,163839,1,0,0:0:0:0:
448,192,163839,1,0,0:0:0:0:
64,192,163989,128,0,164064:0:0:0:0:
64,192,164139,1,8,0:0:0:0:
320,192,164139,128,0,164364:0:0:0:0:
448,192,164139,1,0,0:0:0:0:
64,192,164439,1,2,0:0:0:0:
192,192,164439,1,0,0:0:0:0:
320,192,164439,128,0,164739:0:0:0:0:
64,192,164589,1,8,0:0:0:0:
448,192,164589,1,0,0:0:0:0:
192,192,164739,1,0,0:0:0:0:
64,192,164889,1,2,0:0:0:0:
192,192,164889,128,8,164964:0:0:0:0:
448,192,164889,1,0,0:0:0:0:
64,192,165039,1,2,0:0:0:0:
320,192,165039,128,0,165114:0:0:0:0:
448,192,165039,1,0,0:0:0:0:
64,192,165339,1,8,0:0:0:0:
320,192,165339,128,0,165414:0:0:0:0:
448,192,165339,1,0,0:0:0:0:
192,192,165639,1,0,0:0:0:100:LR4_DrumRevBassImpact.wav
192,192,165789,1,0,0:0:0:0:
64,192,165939,1,2,0:0:0:0:
320,192,165939,1,0,0:0:0:0:
448,192,165939,128,0,166014:0:0:0:0:
192,192,166089,128,0,166164:0:0:0:0:
64,192,166239,1,2,0:0:0:0:
192,192,166239,1,0,0:0:0:0:
448,192,166239,128,0,166314:0:0:0:0:
64,192,166389,1,2,0:0:0:0:
192,192,166389,1,0,0:0:0:0:
448,192,166389,128,0,166464:0:0:0:0:
64,192,166539,1,8,0:0:0:0:
320,192,166539,1,0,0:0:0:0:
448,192,166539,128,0,166764:0:0:0:0:
64,192,166839,1,2,0:0:0:0:
192,192,166839,1,0,0:0:0:0:
448,192,166839,128,0,167139:0:0:0:0:
64,192,166989,1,8,0:0:0:0:
320,192,166989,1,0,0:0:0:0:
192,192,167139,1,0,0:0:0:0:
192,192,167289,128,8,167364:0:0:0:0:
448,192,167289,1,0,0:0:0:0:
64,192,167439,1,2,0:0:0:0:
192,192,167439,1,0,0:0:0:0:
320,192,167439,128,0,167514:0:0:0:0:
192,192,167739,1,8,0:0:0:0:
320,192,167739,128,0,167814:0:0:0:0:
448,192,167739,1,0,0:0:0:0:
320,192,168039,1,0,0:0:0:100:LR4_DrumRevBassImpact_F#3.wav
448,192,168039,1,0,0:0:0:0:
64,192,168189,1,0,0:0:0:100:LR4_DrumRevBassImpact.wav
192,192,168189,1,0,0:0:0:0:
64,192,168339,1,2,0:0:0:0:
320,192,168339,128,4,168414:0:0:0:0:
448,192,168339,1,0,0:0:0:0:
192,192,168489,128,0,168564:0:0:0:0:
64,192,168639,1,2,0:0:0:0:
320,192,168639,128,0,168714:0:0:0:0:
448,192,168639,1,0,0:0:0:0:
320,192,168789,128,0,168864:0:0:0:0:
64,192,168939,1,8,0:0:0:0:
192,192,168939,128,0,169164:0:0:0:0:
448,192,168939,1,0,0:0:0:0:
192,192,169239,128,2,169539:0:0:0:0:
320,192,169239,1,0,0:0:0:0:
448,192,169239,1,0,0:0:0:0:
64,192,169389,1,8,0:0:0:0:
448,192,169389,1,0,0:0:0:0:
320,192,169539,1,0,0:0:0:0:
192,192,169689,1,2,0:0:0:0:
320,192,169689,1,8,0:0:0:0:
448,192,169689,128,0,169764:0:0:0:0:
64,192,169839,1,2,0:0:0:0:
192,192,169839,1,0,0:0:0:0:
448,192,169839,128,0,169914:0:0:0:0:
64,192,170139,1,8,0:0:0:0:
320,192,170139,1,0,0:0:0:0:
448,192,170139,128,0,170214:0:0:0:0:
192,192,170439,1,0,0:0:0:100:LR4_DrumRevBassImpact.wav
192,192,170589,1,0,0:0:0:0:
64,192,170739,1,2,0:0:0:0:
320,192,170739,128,8,170814:0:0:0:0:
448,192,170739,128,0,170814:0:0:0:0:
192,192,170889,1,2,0:0:0:0:
320,192,170889,1,8,0:0:0:0:
64,192,171039,1,2,0:0:0:0:
320,192,171039,128,8,171114:0:0:0:0:
448,192,171039,128,0,171114:0:0:0:0:
64,192,171189,1,2,0:0:0:0:
320,192,171189,128,8,171264:0:0:0:0:
448,192,171189,128,0,171264:0:0:0:0:
192,192,171264,1,10,0:0:0:0:
64,192,171339,1,2,0:0:0:0:
320,192,171339,128,8,171414:0:0:0:0:
448,192,171339,128,0,171414:0:0:0:0:
64,192,171489,1,2,0:0:0:0:
192,192,171489,1,8,0:0:0:0:
192,192,171639,1,2,0:0:0:0:
320,192,171639,128,0,171714:0:0:0:0:
448,192,171639,128,0,171714:0:0:0:0:
64,192,171789,1,8,0:0:0:0:
192,192,171789,1,2,0:0:0:0:
320,192,171939,1,2,0:0:0:0:
448,192,171939,1,0,0:0:0:0:
64,192,172089,128,2,172164:0:0:0:0:
192,192,172089,128,0,172164:0:0:0:0:
320,192,172089,1,0,0:0:0:0:
64,192,172239,128,2,172314:0:0:0:0:
192,192,172239,128,0,172314:0:0:0:0:
448,192,172239,1,0,0:0:0:0:
64,192,172539,128,2,172614:0:0:0:0:
192,192,172539,128,0,172614:0:0:0:100:clap layer 2.wav
448,192,172539,1,0,0:0:0:0:
192,192,172689,1,0,0:0:0:70:Cymatics - Future Bass Clap 3.wav
320,192,172764,1,0,0:0:0:70:Cymatics - Future Bass Clap 3.wav
192,192,172839,1,0,0:0:0:70:Cymatics - Future Bass Clap 3.wav
192,192,172989,1,0,0:0:0:70:Cymatics - Future Bass Clap 3.wav
64,192,173139,128,4,173214:0:0:0:0:
192,192,173139,1,2,0:0:0:0:
448,192,173139,1,0,0:0:0:0:
320,192,173289,128,0,173364:0:0:0:0:
64,192,173439,128,2,173514:0:0:0:0:
192,192,173439,1,0,0:0:0:0:
448,192,173439,1,0,0:0:0:0:
64,192,173589,128,0,173664:0:0:0:0:
448,192,173589,1,0,0:0:0:0:
320,192,173639,1,0,0:0:0:0:
192,192,173689,1,0,0:0:0:0:
320,192,173739,128,8,173964:0:0:0:0:
448,192,173739,1,0,0:0:0:0:
192,192,173889,1,0,0:0:0:0:
64,192,174039,1,2,0:0:0:0:
192,192,174039,1,0,0:0:0:0:
320,192,174039,128,0,174264:0:0:0:0:
64,192,174189,1,8,0:0:0:0:
448,192,174189,1,0,0:0:0:0:
192,192,174339,1,0,0:0:0:0:
64,192,174489,1,2,0:0:0:0:
192,192,174489,128,8,174564:0:0:0:0:
448,192,174489,1,0,0:0:0:0:
320,192,174564,1,0,0:0:0:0:
64,192,174639,1,2,0:0:0:0:
192,192,174639,128,0,174714:0:0:0:0:
448,192,174639,1,0,0:0:0:0:
320,192,174789,1,0,0:0:0:0:
192,192,174839,1,0,0:0:0:0:
64,192,174889,1,0,0:0:0:0:
320,192,174939,128,8,175014:0:0:0:0:
448,192,174939,1,0,0:0:0:0:
192,192,175239,1,0,0:0:0:100:LR4_DrumRevBassImpact.wav
192,192,175389,1,0,0:0:0:0:
64,192,175539,1,2,0:0:0:0:
320,192,175539,1,0,0:0:0:0:
448,192,175539,128,0,175614:0:0:0:0:
192,192,175689,128,0,175764:0:0:0:0:
64,192,175839,1,2,0:0:0:0:
320,192,175839,1,0,0:0:0:0:
448,192,175839,128,0,175914:0:0:0:0:
320,192,175989,1,2,0:0:0:0:
448,192,175989,128,0,176064:0:0:0:0:
192,192,176039,1,0,0:0:0:0:
64,192,176089,1,0,0:0:0:0:
320,192,176139,1,8,0:0:0:0:
448,192,176139,128,0,176364:0:0:0:0:
192,192,176289,1,0,0:0:0:0:
64,192,176439,1,2,0:0:0:0:
192,192,176439,1,0,0:0:0:0:
448,192,176439,128,0,176739:0:0:0:0:
64,192,176589,1,8,0:0:0:0:
320,192,176589,1,0,0:0:0:0:
192,192,176739,1,0,0:0:0:0:
64,192,176889,128,8,176964:0:0:0:0:
320,192,176889,1,0,0:0:0:0:
448,192,176889,1,0,0:0:0:0:
192,192,176964,1,0,0:0:0:0:
64,192,177039,1,2,0:0:0:0:
320,192,177039,1,0,0:0:0:0:
448,192,177039,128,0,177114:0:0:0:0:
320,192,177189,1,0,0:0:0:0:
192,192,177239,1,0,0:0:0:0:
64,192,177289,1,0,0:0:0:0:
320,192,177339,1,8,0:0:0:0:
448,192,177339,128,0,177414:0:0:0:0:
192,192,177439,1,0,0:0:0:0:
320,192,177539,1,0,0:0:0:0:
64,192,177639,1,0,0:0:0:100:LR4_DrumRevBassImpact_F#3.wav
192,192,177639,1,0,0:0:0:0:
320,192,177789,1,0,0:0:0:100:LR4_DrumRevBassImpact.wav
448,192,177789,1,0,0:0:0:0:
64,192,177939,1,4,0:0:0:0:
320,192,177939,128,2,178014:0:0:0:0:
448,192,177939,1,0,0:0:0:0:
192,192,178089,128,0,178164:0:0:0:0:
64,192,178239,1,2,0:0:0:0:
320,192,178239,128,0,178314:0:0:0:0:
448,192,178239,1,0,0:0:0:0:
64,192,178389,1,0,0:0:0:0:
192,192,178389,128,0,178464:0:0:0:0:
320,192,178439,1,0,0:0:0:0:
448,192,178489,1,0,0:0:0:0:
64,192,178539,1,8,0:0:0:0:
192,192,178539,128,0,178614:0:0:0:0:
64,192,178689,1,0,0:0:0:0:
320,192,178689,128,0,178764:0:0:0:0:
192,192,178839,128,2,178914:0:0:0:0:
448,192,178839,1,0,0:0:0:0:
64,192,178989,1,8,0:0:0:0:
192,192,178989,1,0,0:0:0:0:
320,192,178989,128,0,179064:0:0:0:0:
320,192,179139,1,0,0:0:0:0:
64,192,179289,1,2,0:0:0:0:
192,192,179289,1,8,0:0:0:0:
448,192,179289,128,0,179364:0:0:0:0:
320,192,179364,1,0,0:0:0:0:
64,192,179439,1,2,0:0:0:0:
192,192,179439,1,0,0:0:0:0:
448,192,179439,128,0,179514:0:0:0:0:
320,192,179589,1,0,0:0:0:0:
192,192,179639,1,0,0:0:0:0:
64,192,179689,1,0,0:0:0:0:
320,192,179739,1,8,0:0:0:0:
448,192,179739,128,0,179814:0:0:0:0:
192,192,180039,1,0,0:0:0:100:LR4_DrumRevBassImpact.wav
192,192,180189,1,0,0:0:0:0:
320,192,180339,128,8,180414:0:0:0:0:
448,192,180339,128,2,180414:0:0:0:0:
320,192,180489,1,8,0:0:0:0:
448,192,180489,1,0,0:0:0:0:
64,192,180564,1,8,0:0:0:0:
192,192,180564,1,0,0:0:0:0:
320,192,180639,128,2,180714:0:0:0:0:
448,192,180639,128,0,180714:0:0:0:0:
64,192,180789,1,8,0:0:0:0:
320,192,180789,128,2,180864:0:0:0:0:
448,192,180789,128,0,180864:0:0:0:0:
192,192,180864,1,0,0:0:0:0:
64,192,180939,1,0,0:0:0:100:clap layer 2.wav
320,192,180939,128,0,181014:0:0:0:0:
448,192,180939,128,0,181014:0:0:0:0:
64,192,181089,1,8,0:0:0:0:
192,192,181089,1,0,0:0:0:0:
192,192,181239,1,2,0:0:0:0:
320,192,181239,128,8,181314:0:0:0:0:
448,192,181239,128,0,181314:0:0:0:0:
64,192,181389,1,8,0:0:0:0:
192,192,181389,1,0,0:0:0:0:
320,192,181539,1,2,0:0:0:0:
448,192,181539,1,0,0:0:0:0:
64,192,181689,128,2,181764:0:0:0:0:
192,192,181689,128,0,181764:0:0:0:0:
320,192,181689,1,0,0:0:0:0:
64,192,181839,128,2,181914:0:0:0:0:
192,192,181839,128,0,181914:0:0:0:0:
448,192,181839,1,0,0:0:0:0:
192,192,181989,1,0,0:0:0:0:
320,192,182064,1,0,0:0:0:0:
64,192,182139,128,2,182214:0:0:0:0:
192,192,182139,128,0,182214:0:0:0:100:clap layer 2.wav
448,192,182139,128,0,182214:0:0:0:0:
448,192,182289,128,0,182364:0:0:0:0:
448,192,182439,128,0,182514:0:0:0:0:
448,192,182589,128,0,182664:0:0:0:0:
64,192,182739,128,2,182814:0:0:0:0:
192,192,182739,1,4,0:0:0:0:
448,192,182739,128,0,182814:0:0:0:0:
320,192,182889,128,0,182964:0:0:0:0:
64,192,183039,128,0,183114:0:0:0:0:
192,192,183039,128,0,183114:0:0:0:0:
320,192,183039,1,0,0:0:0:0:
64,192,183189,128,8,183264:0:0:0:0:
448,192,183189,128,0,183264:0:0:0:0:
192,192,183339,1,2,0:0:0:0:
320,192,183339,128,0,183414:0:0:0:0:
448,192,183339,128,0,183414:0:0:0:0:
192,192,183489,128,0,183564:0:0:0:0:
64,192,183639,1,2,0:0:0:0:
320,192,183639,128,8,183714:0:0:0:0:
448,192,183639,128,0,183714:0:0:0:0:
192,192,183789,128,0,183864:0:0:0:0:
64,192,183939,1,2,0:0:0:0:
192,192,183939,1,0,0:0:0:0:
448,192,183939,128,0,184014:0:0:0:0:
64,192,184089,128,0,184164:0:0:0:0:
320,192,184089,128,0,184164:0:0:0:0:
64,192,184239,128,0,184314:0:0:0:0:
192,192,184239,128,0,184314:0:0:0:0:
192,192,184389,1,8,0:0:0:0:
448,192,184389,128,0,184464:0:0:0:0:
64,192,184539,1,2,0:0:0:0:
320,192,184539,128,0,184614:0:0:0:0:
448,192,184539,128,0,184614:0:0:0:0:
192,192,184689,128,0,184764:0:0:0:0:
320,192,184839,128,0,184914:0:0:0:100:LR4_DrumRevBassImpact.wav
448,192,184839,1,0,0:0:0:0:
64,192,184989,1,0,0:0:0:0:
192,192,184989,128,0,185064:0:0:0:0:
64,192,185139,1,2,0:0:0:0:
320,192,185139,128,0,185214:0:0:0:0:
448,192,185139,128,0,185214:0:0:0:0:
192,192,185289,128,0,185364:0:0:0:0:
64,192,185439,128,0,185514:0:0:0:0:
448,192,185439,128,0,185514:0:0:0:0:
320,192,185589,128,8,185664:0:0:0:0:
448,192,185589,128,0,185664:0:0:0:0:
64,192,185739,1,2,0:0:0:0:
192,192,185739,128,0,185814:0:0:0:0:
448,192,185739,128,0,185814:0:0:0:0:
64,192,185889,128,0,185964:0:0:0:0:
192,192,186039,1,8,0:0:0:0:
320,192,186039,128,2,186114:0:0:0:0:
448,192,186039,128,0,186114:0:0:0:0:
64,192,186189,128,0,186264:0:0:0:0:
192,192,186339,1,2,0:0:0:0:
320,192,186339,128,0,186414:0:0:0:0:
448,192,186339,1,0,0:0:0:0:
64,192,186489,128,0,186564:0:0:0:0:
448,192,186489,128,0,186564:0:0:0:0:
64,192,186639,128,0,186714:0:0:0:0:
192,192,186639,128,0,186714:0:0:0:0:
192,192,186789,1,8,0:0:0:0:
320,192,186789,128,0,186864:0:0:0:0:
64,192,186939,128,2,187014:0:0:0:0:
448,192,186939,128,0,187389:0:0:0:0:
320,192,186939,1,0,0:0:0:0:
64,192,187239,1,0,0:0:0:100:LR4_DrumRevBassImpact_F#3.wav
320,192,187239,1,0,0:0:0:0:
192,192,187389,1,0,0:0:0:100:LR4_DrumRevBassImpact.wav
320,192,187464,1,0,0:0:0:0:
64,192,187539,128,2,187614:0:0:0:0:
192,192,187539,1,0,0:0:0:0:
448,192,187539,128,0,187614:0:0:0:0:
320,192,187689,128,0,187764:0:0:0:0:
64,192,187839,128,0,187914:0:0:0:0:
192,192,187839,128,0,187914:0:0:0:0:
320,192,187839,1,0,0:0:0:0:
64,192,187989,128,8,188064:0:0:0:0:
448,192,187989,128,0,188064:0:0:0:0:
192,192,188139,1,2,0:0:0:0:
320,192,188139,128,0,188214:0:0:0:0:
448,192,188139,128,0,188214:0:0:0:0:
192,192,188289,128,0,188364:0:0:0:0:
64,192,188439,1,2,0:0:0:0:
320,192,188439,128,8,188514:0:0:0:0:
448,192,188439,128,0,188514:0:0:0:0:
192,192,188589,128,0,188664:0:0:0:0:
64,192,188739,1,2,0:0:0:0:
192,192,188739,1,0,0:0:0:0:
448,192,188739,128,0,188814:0:0:0:0:
64,192,188889,128,0,188964:0:0:0:0:
320,192,188889,128,0,188964:0:0:0:0:
64,192,189039,128,0,189114:0:0:0:0:
192,192,189039,128,0,189114:0:0:0:0:
192,192,189189,1,8,0:0:0:0:
448,192,189189,128,0,189264:0:0:0:0:
64,192,189339,1,2,0:0:0:0:
320,192,189339,128,0,189414:0:0:0:0:
448,192,189339,128,0,189414:0:0:0:0:
192,192,189489,128,0,189564:0:0:0:0:
320,192,189639,128,0,189714:0:0:0:100:LR4_DrumRevBassImpact.wav
448,192,189639,1,0,0:0:0:0:
64,192,189789,1,0,0:0:0:0:
192,192,189789,128,0,189864:0:0:0:0:
64,192,189939,1,2,0:0:0:0:
320,192,189939,128,0,190014:0:0:0:0:
448,192,189939,128,0,190014:0:0:0:0:
192,192,190089,128,8,190164:0:0:0:0:
320,192,190089,1,0,0:0:0:0:
64,192,190239,128,8,190314:0:0:0:0:
192,192,190239,1,0,0:0:0:0:
448,192,190239,128,0,190314:0:0:0:0:
320,192,190389,128,8,190464:0:0:0:0:
448,192,190389,128,0,190464:0:0:0:0:
64,192,190464,1,8,0:0:0:0:
192,192,190539,128,2,190614:0:0:0:0:
320,192,190539,1,8,0:0:0:0:
448,192,190539,128,0,190614:0:0:0:0:
64,192,190689,128,8,190764:0:0:0:0:
192,192,190689,1,0,0:0:0:0:
192,192,190839,1,2,0:0:0:0:
320,192,190839,128,0,190914:0:0:0:100:clap layer 2.wav
448,192,190839,128,0,190914:0:0:0:0:
64,192,190989,128,8,191064:0:0:0:0:
320,192,190989,1,2,0:0:0:0:
192,192,191139,1,2,0:0:0:0:
320,192,191139,128,0,191214:0:0:0:0:
448,192,191139,1,0,0:0:0:0:
64,192,191289,128,8,191364:0:0:0:0:
448,192,191289,128,0,191364:0:0:0:0:
320,192,191364,1,8,0:0:0:0:
64,192,191439,128,8,191514:0:0:0:0:
192,192,191439,128,0,191514:0:0:0:0:
448,192,191439,1,0,0:0:0:0:
192,192,191589,1,8,0:0:0:0:
320,192,191589,128,0,191664:0:0:0:0:
64,192,191739,128,0,191814:0:0:0:100:clap layer 2.wav
192,192,191739,1,0,0:0:0:0:
448,192,191739,128,0,192189:0:0:0:0:
64,192,192339,128,4,192414:0:0:0:0:
192,192,192339,1,2,0:0:0:0:
448,192,192339,128,0,192414:0:0:0:0:
320,192,192489,128,0,192564:0:0:0:0:
64,192,192639,128,0,192714:0:0:0:0:
192,192,192639,128,0,192714:0:0:0:0:
320,192,192639,1,0,0:0:0:0:
64,192,192789,128,8,192864:0:0:0:0:
448,192,192789,128,0,192864:0:0:0:0:
192,192,192864,1,0,0:0:0:0:
64,192,192939,1,2,0:0:0:0:
320,192,192939,128,0,193014:0:0:0:0:
448,192,192939,128,0,193014:0:0:0:0:
192,192,193089,128,0,193164:0:0:0:0:
64,192,193239,1,8,0:0:0:0:
320,192,193239,128,2,193314:0:0:0:0:
448,192,193239,128,0,193314:0:0:0:0:
192,192,193389,128,0,193464:0:0:0:0:
64,192,193539,1,2,0:0:0:0:
192,192,193539,1,0,0:0:0:0:
448,192,193539,128,0,193614:0:0:0:0:
64,192,193689,128,0,193764:0:0:0:0:
320,192,193689,128,0,193764:0:0:0:0:
448,192,193764,1,0,0:0:0:0:
64,192,193839,128,0,193914:0:0:0:0:
192,192,193839,128,0,193914:0:0:0:0:
64,192,193989,1,8,0:0:0:0:
448,192,193989,128,0,194064:0:0:0:0:
192,192,194064,1,0,0:0:0:0:
64,192,194139,1,2,0:0:0:0:
320,192,194139,128,0,194214:0:0:0:0:
448,192,194139,128,0,194214:0:0:0:0:
192,192,194289,128,0,194364:0:0:0:0:
64,192,194439,1,0,0:0:0:100:LR4_DrumRevBassImpact.wav
320,192,194439,128,0,194514:0:0:0:0:
192,192,194589,128,0,194664:0:0:0:0:
64,192,194739,1,2,0:0:0:0:
320,192,194739,128,0,194814:0:0:0:0:
448,192,194739,128,0,194814:0:0:0:0:
192,192,194889,128,0,194964:0:0:0:0:
64,192,195039,128,0,195114:0:0:0:0:
448,192,195039,128,0,195114:0:0:0:0:
320,192,195189,128,8,195264:0:0:0:0:
448,192,195189,128,0,195264:0:0:0:0:
64,192,195264,1,0,0:0:0:0:
192,192,195339,128,2,195414:0:0:0:0:
320,192,195339,1,0,0:0:0:0:
448,192,195339,128,0,195414:0:0:0:0:
64,192,195489,128,0,195564:0:0:0:0:
192,192,195639,1,2,0:0:0:0:
320,192,195639,128,8,195714:0:0:0:0:
448,192,195639,128,0,195714:0:0:0:0:
64,192,195789,128,0,195864:0:0:0:0:
192,192,195939,1,2,0:0:0:0:
320,192,195939,128,0,196014:0:0:0:0:
448,192,195939,1,0,0:0:0:0:
64,192,196089,128,0,196164:0:0:0:0:
448,192,196089,128,0,196164:0:0:0:0:
320,192,196164,1,0,0:0:0:0:
64,192,196239,128,0,196314:0:0:0:0:
192,192,196239,128,0,196314:0:0:0:0:
64,192,196389,1,8,0:0:0:0:
320,192,196389,128,0,196464:0:0:0:0:
64,192,196539,128,2,196614:0:0:0:0:
192,192,196539,1,0,0:0:0:0:
448,192,196539,128,0,196989:0:0:0:0:
320,192,196639,1,0,0:0:0:0:
192,192,196739,1,0,0:0:0:0:
64,192,196839,1,0,0:0:0:100:LR4_DrumRevBassImpact_F#3.wav
320,192,196839,1,0,0:0:0:0:
192,192,196989,1,0,0:0:0:100:LR4_DrumRevBassImpact.wav
320,192,197064,1,0,0:0:0:0:
64,192,197139,128,2,197214:0:0:0:0:
192,192,197139,1,0,0:0:0:0:
448,192,197139,128,0,197214:0:0:0:0:
320,192,197289,128,0,197364:0:0:0:0:
64,192,197439,128,0,197514:0:0:0:0:
192,192,197439,128,0,197514:0:0:0:0:
320,192,197439,1,0,0:0:0:0:
64,192,197589,128,8,197664:0:0:0:0:
448,192,197589,128,0,197664:0:0:0:0:
192,192,197664,1,0,0:0:0:0:
64,192,197739,1,2,0:0:0:0:
320,192,197739,128,0,197814:0:0:0:0:
448,192,197739,128,0,197814:0:0:0:0:
192,192,197889,128,0,197964:0:0:0:0:
64,192,198039,1,8,0:0:0:0:
320,192,198039,128,2,198114:0:0:0:0:
448,192,198039,128,0,198114:0:0:0:0:
192,192,198189,128,0,198264:0:0:0:0:
64,192,198339,1,2,0:0:0:0:
192,192,198339,1,0,0:0:0:0:
448,192,198339,128,0,198414:0:0:0:0:
64,192,198489,128,0,198564:0:0:0:0:
320,192,198489,128,0,198564:0:0:0:0:
448,192,198564,1,0,0:0:0:0:
64,192,198639,128,0,198714:0:0:0:0:
192,192,198639,128,0,198714:0:0:0:0:
64,192,198789,1,8,0:0:0:0:
448,192,198789,128,0,198864:0:0:0:0:
192,192,198864,1,0,0:0:0:0:
64,192,198939,1,2,0:0:0:0:
320,192,198939,128,0,199014:0:0:0:0:
448,192,198939,128,0,199014:0:0:0:0:
192,192,199089,128,0,199164:0:0:0:0:
64,192,199239,1,0,0:0:0:100:LR4_DrumRevBassImpact.wav
320,192,199239,128,0,199314:0:0:0:0:
192,192,199389,128,0,199464:0:0:0:0:
448,192,199389,1,0,0:0:0:0:
64,192,199539,1,2,0:0:0:0:
320,192,199539,128,0,199614:0:0:0:0:
448,192,199539,128,0,199614:0:0:0:0:
192,192,199689,128,8,199764:0:0:0:0:
448,192,199689,1,0,0:0:0:0:
320,192,199764,1,8,0:0:0:0:
64,192,199839,128,2,199914:0:0:0:0:
192,192,199839,1,0,0:0:0:0:
448,192,199839,128,0,199914:0:0:0:0:
320,192,199989,128,8,200064:0:0:0:0:
448,192,199989,128,0,200064:0:0:0:0:
192,192,200139,128,8,200214:0:0:0:0:
64,192,200139,1,2,0:0:0:0:
448,192,200139,128,0,200214:0:0:0:0:
64,192,200289,128,8,200364:0:0:0:0:
320,192,200289,1,0,0:0:0:0:
192,192,200364,1,8,0:0:0:0:
64,192,200439,1,2,0:0:0:0:
320,192,200439,128,0,200514:0:0:0:0:
448,192,200439,128,0,200514:0:0:0:0:
64,192,200589,128,0,200664:0:0:0:0:
320,192,200589,1,0,0:0:0:0:
192,192,200739,1,2,0:0:0:0:
320,192,200739,128,0,200814:0:0:0:0:
448,192,200739,1,0,0:0:0:0:
64,192,200889,128,0,200964:0:0:0:0:
448,192,200889,128,0,200964:0:0:0:0:
320,192,200964,1,0,0:0:0:0:
64,192,201039,128,0,201114:0:0:0:0:
192,192,201039,128,0,201114:0:0:0:0:
320,192,201189,128,0,201264:0:0:0:0:
448,192,201189,1,0,0:0:0:0:
192,192,201264,1,0,0:0:0:0:
64,192,201339,128,0,201414:0:0:0:100:clap layer 2.wav
320,192,201339,1,0,0:0:0:0:
448,192,201339,128,0,201939:0:0:0:0:
