osu file format v14

[General]
AudioFilename: audio.mp3
AudioLeadIn: 0
PreviewTime: 52254
Countdown: 0
SampleSet: Soft
StackLeniency: 0.7
Mode: 3
LetterboxInBreaks: 0
SpecialStyle: 0
WidescreenStoryboard: 0

[Editor]
DistanceSpacing: 1.2
BeatDivisor: 12
GridSize: 32
TimelineZoom: 3.699999

[Metadata]
Title:My Life
TitleUnicode:マイライフ (My Life)
Artist:CY8ER
ArtistUnicode:CY8ER
Creator:Creallyer
Version:Remap 2.0 from seiran- Graveyard
Source:
Tags:DEATH MATCH~ Tokyo Dome City Hall BPM15q LiveMusic
BeatmapID:4277494
BeatmapSetID:2048771

[Difficulty]
HPDrainRate:8
CircleSize:4
OverallDifficulty:8
ApproachRate:5
SliderMultiplier:1.4
SliderTickRate:1

[Events]
//Background and Video events
0,0,"100413452_p0_master1200.jpg",0,0
//Break Periods
//Storyboard Layer 0 (Background)
//Storyboard Layer 1 (Fail)
//Storyboard Layer 2 (Pass)
//Storyboard Layer 3 (Foreground)
//Storyboard Layer 4 (Overlay)
//Storyboard Sound Samples

[TimingPoints]
945,476.190476190476,4,2,1,20,1,0
54278,476.190476190476,4,2,1,20,1,0
69516,-100,4,2,1,20,0,1
84277,-100,4,2,1,20,0,0
160944,-100,4,2,1,20,0,1
189516,-100,4,2,1,20,0,0

[HitObjects]
448,192,945,128,0,1064:0:0:0:0:
448,192,1421,1,8,0:0:0:0:
64,192,1659,128,0,1778:0:0:0:0:
320,192,1897,128,0,2016:0:0:0:0:
192,192,2294,128,0,2373:0:0:0:0:
448,192,2373,1,8,0:0:0:0:
320,192,2611,128,0,2730:0:0:0:0:
64,192,2849,128,0,2968:0:0:0:0:
64,192,3325,1,8,0:0:0:0:
320,192,3564,128,0,3683:0:0:0:0:
192,192,3802,128,0,3921:0:0:0:0:
320,192,4159,128,0,4278:0:0:0:0:
448,192,4198,128,0,4278:0:0:0:0:
64,192,4278,1,8,0:0:0:0:
320,192,4516,128,0,4635:0:0:0:0:
64,192,4754,128,0,4873:0:0:0:0:
448,192,5230,1,8,0:0:0:0:
192,192,5468,128,0,5587:0:0:0:0:
448,192,5706,128,0,5825:0:0:0:0:
320,192,6103,128,0,6183:0:0:0:0:
64,192,6183,1,8,0:0:0:0:
192,192,6421,128,0,6540:0:0:0:0:
448,192,6659,128,0,6778:0:0:0:0:
448,192,7135,1,8,0:0:0:0:
64,192,7373,128,0,7492:0:0:0:0:
64,192,7611,128,0,7730:0:0:0:0:
320,192,7849,128,0,7968:0:0:0:0:
448,192,7849,128,0,8087:0:0:0:0:
64,192,8087,1,8,0:0:0:0:
192,192,8087,128,0,8246:0:0:0:0:
320,192,8246,128,0,8325:0:0:0:0:
448,192,8325,128,0,8444:0:0:0:0:
320,192,8564,1,0,0:0:0:0:
64,192,8564,128,0,8683:0:0:0:21:bass-drum.wav
448,192,9040,1,8,0:0:0:0:
320,192,9278,128,0,9397:0:0:0:0:
192,192,9516,128,0,9635:0:0:0:0:
320,192,9913,128,0,9992:0:0:0:0:
64,192,9992,1,8,0:0:0:0:
192,192,10230,128,0,10349:0:0:0:0:
64,192,10468,128,0,10587:0:0:0:0:
448,192,10944,1,8,0:0:0:0:
320,192,11183,128,0,11302:0:0:0:0:
192,192,11421,128,0,11540:0:0:0:0:
320,192,11778,128,0,11897:0:0:0:0:
64,192,11818,128,0,11897:0:0:0:0:
448,192,11897,1,8,0:0:0:0:
192,192,12135,128,0,12254:0:0:0:0:
448,192,12373,128,0,12492:0:0:0:0:
64,192,12849,1,8,0:0:0:0:
192,192,13087,128,0,13206:0:0:0:0:
320,192,13325,128,0,13444:0:0:0:0:
192,192,13722,128,0,13802:0:0:0:0:
448,192,13802,1,8,0:0:0:0:
320,192,14040,128,0,14159:0:0:0:0:
448,192,14278,128,0,14397:0:0:0:0:
64,192,14754,1,8,0:0:0:0:
192,192,14992,128,0,15111:0:0:0:0:
320,192,15230,128,0,15349:0:0:0:0:
64,192,15468,128,0,15706:0:0:0:0:
192,192,15468,128,0,15587:0:0:0:0:
448,192,15706,1,8,0:0:0:0:
320,192,15706,128,0,15865:0:0:0:0:
192,192,15865,128,0,15944:0:0:0:0:
64,192,15944,128,0,16064:0:0:0:0:
192,192,16183,1,0,0:0:0:0:
448,192,16183,128,0,16302:0:0:0:21:bass-drum.wav
64,192,16659,1,8,0:0:0:0:
192,192,16897,128,0,17016:0:0:0:0:
320,192,17135,128,0,17254:0:0:0:0:
192,192,17532,128,0,17611:0:0:0:0:
448,192,17611,1,8,0:0:0:0:
320,192,17849,128,0,17968:0:0:0:0:
448,192,18087,128,0,18206:0:0:0:0:
64,192,18564,1,8,0:0:0:0:
192,192,18802,128,0,18921:0:0:0:0:
320,192,19040,128,0,19159:0:0:0:0:
192,192,19397,128,0,19516:0:0:0:0:
448,192,19437,128,0,19516:0:0:0:0:
64,192,19516,1,8,0:0:0:0:
320,192,19754,128,0,19873:0:0:0:0:
64,192,19992,128,0,20111:0:0:0:0:
448,192,20468,1,8,0:0:0:0:
320,192,20706,128,0,20825:0:0:0:0:
192,192,20944,128,0,21064:0:0:0:0:
320,192,21341,128,0,21421:0:0:0:0:
64,192,21421,1,8,0:0:0:0:
192,192,21659,128,0,21778:0:0:0:0:
64,192,21897,128,0,22016:0:0:0:0:
448,192,22373,1,8,0:0:0:0:
320,192,22611,128,0,22730:0:0:0:0:
192,192,22849,128,0,22968:0:0:0:0:
448,192,23087,128,0,23206:0:0:0:0:
64,192,23325,1,8,0:0:0:0:
192,192,23325,128,0,23484:0:0:0:0:
320,192,23484,128,0,23564:0:0:0:0:
448,192,23564,128,0,23683:0:0:0:0:
192,192,23683,128,0,23921:0:0:0:0:
320,192,23802,1,2,0:0:0:0:
64,192,23802,128,0,23921:0:0:0:21:bass-drum.wav
320,192,24040,1,0,0:0:0:0:
448,192,24119,1,0,0:0:0:0:
320,192,24278,1,0,0:0:0:0:
64,192,24278,1,8,0:0:0:0:
64,192,24516,1,0,0:0:0:0:
320,192,24516,128,0,24635:0:0:0:0:
192,192,24635,1,0,0:0:0:0:
64,192,24754,1,0,0:0:0:0:
448,192,24754,128,0,24873:0:0:0:21:drum_clap.wav
64,192,24873,1,0,0:0:0:0:
192,192,24992,1,0,0:0:0:0:
320,192,25111,1,0,0:0:0:0:
448,192,25151,128,0,25230:0:0:0:0:
192,192,25230,1,8,0:0:0:0:
64,192,25230,128,0,25706:0:0:0:0:
320,192,25468,128,0,25587:0:0:0:0:
448,192,25587,1,0,0:0:0:0:
320,192,25706,1,2,0:0:0:0:
192,192,25706,128,0,25825:0:0:0:21:bass-drum.wav
448,192,25944,1,0,0:0:0:0:
320,192,26064,1,0,0:0:0:0:
448,192,26183,1,0,0:0:0:0:
64,192,26183,1,8,0:0:0:0:
64,192,26302,1,0,0:0:0:0:
320,192,26421,1,0,0:0:0:0:
320,192,26540,1,0,0:0:0:0:
64,192,26659,128,0,26778:0:0:0:0:
448,192,26659,1,0,0:0:0:0:
448,192,26778,1,0,0:0:0:0:
320,192,26897,1,0,0:0:0:0:
192,192,27016,1,0,0:0:0:0:
448,192,27056,128,0,27135:0:0:0:0:
64,192,27135,1,8,0:0:0:0:
320,192,27135,128,0,27611:0:0:0:0:
64,192,27373,128,0,27492:0:0:0:0:
448,192,27492,1,0,0:0:0:0:
64,192,27611,1,2,0:0:0:0:
192,192,27611,128,0,27730:0:0:0:21:bass-drum.wav
448,192,27849,1,0,0:0:0:0:
448,192,27968,1,0,0:0:0:0:
320,192,28087,1,0,0:0:0:0:
64,192,28087,1,8,0:0:0:0:
64,192,28206,1,0,0:0:0:0:
448,192,28325,128,0,28444:0:0:0:0:
192,192,28444,1,0,0:0:0:0:
320,192,28564,1,0,0:0:0:0:
64,192,28564,128,0,28683:0:0:0:0:
448,192,28683,1,0,0:0:0:0:
448,192,28802,1,0,0:0:0:0:
320,192,28960,128,0,29040:0:0:0:0:
448,192,29040,1,8,0:0:0:0:
192,192,29040,128,0,29516:0:0:0:21:drum_clap.wav
64,192,29040,1,0,0:0:0:0:
448,192,29278,128,0,29397:0:0:0:0:
320,192,29397,1,0,0:0:0:0:
448,192,29516,1,2,0:0:0:0:
64,192,29516,128,0,29635:0:0:0:21:bass-drum.wav
320,192,29754,1,0,0:0:0:0:
192,192,29992,1,0,0:0:0:0:
64,192,29992,1,8,0:0:0:0:
448,192,30111,1,0,0:0:0:0:
320,192,30230,128,0,30349:0:0:0:0:
64,192,30349,1,0,0:0:0:0:
64,192,30468,1,8,0:0:0:0:
192,192,30468,128,0,30587:0:0:0:21:bass-drum.wav
448,192,30627,1,8,0:0:0:0:
64,192,30706,1,8,0:0:0:0:
192,192,30706,128,0,30825:0:0:0:21:bass-drum.wav
320,192,30865,1,8,0:0:0:0:
64,192,30944,1,8,0:0:0:0:
192,192,30944,1,0,0:0:0:21:bass-drum.wav
192,192,31103,1,8,0:0:0:0:
320,192,31183,1,8,0:0:0:0:
448,192,31183,128,0,31421:0:0:0:21:bass-drum.wav
192,192,31421,1,2,0:0:0:0:
64,192,31421,128,0,31540:0:0:0:21:bass-drum.wav
320,192,31540,1,0,0:0:0:0:
320,192,31659,1,0,0:0:0:0:
320,192,31897,1,0,0:0:0:0:
64,192,31897,1,8,0:0:0:0:
64,192,32016,1,0,0:0:0:0:
192,192,32135,1,0,0:0:0:0:
320,192,32135,128,0,32254:0:0:0:0:
448,192,32254,1,0,0:0:0:0:
320,192,32373,1,0,0:0:0:0:
64,192,32373,128,0,32492:0:0:0:0:
320,192,32611,1,0,0:0:0:0:
192,192,32730,1,0,0:0:0:0:
448,192,32770,128,0,32849:0:0:0:0:
320,192,32849,1,0,0:0:0:0:
64,192,32849,1,8,0:0:0:0:
64,192,33087,1,0,0:0:0:0:
320,192,33087,128,0,33206:0:0:0:0:
448,192,33206,1,0,0:0:0:0:
320,192,33325,1,2,0:0:0:0:
192,192,33325,128,0,33444:0:0:0:21:bass-drum.wav
448,192,33444,1,0,0:0:0:0:
448,192,33564,1,0,0:0:0:0:
320,192,33722,1,0,0:0:0:0:
192,192,33802,1,0,0:0:0:0:
64,192,33802,1,8,0:0:0:0:
448,192,34040,1,0,0:0:0:0:
320,192,34040,128,0,34159:0:0:0:0:
192,192,34159,1,0,0:0:0:0:
448,192,34278,1,0,0:0:0:0:
64,192,34278,128,0,34397:0:0:0:0:
320,192,34516,1,0,0:0:0:0:
192,192,34635,1,0,0:0:0:0:
448,192,34675,128,0,34754:0:0:0:0:
320,192,34754,1,0,0:0:0:0:
64,192,34754,1,8,0:0:0:0:
448,192,34992,1,0,0:0:0:0:
192,192,34992,128,0,35111:0:0:0:0:
192,192,35230,1,2,0:0:0:0:
64,192,35230,128,0,35349:0:0:0:21:bass-drum.wav
320,192,35468,1,0,0:0:0:0:
320,192,35706,1,0,0:0:0:0:
64,192,35706,1,8,0:0:0:0:
192,192,35944,1,0,0:0:0:0:
448,192,35944,128,0,36064:0:0:0:0:
320,192,36183,1,0,0:0:0:0:
448,192,36183,1,0,0:0:0:0:
448,192,36302,1,0,0:0:0:0:
64,192,36421,1,0,0:0:0:0:
192,192,36540,1,0,0:0:0:0:
320,192,36579,128,0,36659:0:0:0:0:
448,192,36659,1,8,0:0:0:0:
64,192,36659,1,0,0:0:0:0:
320,192,36897,1,0,0:0:0:0:
448,192,36897,128,0,37016:0:0:0:0:
192,192,37016,1,0,0:0:0:0:
320,192,37135,1,2,0:0:0:0:
64,192,37135,128,0,37254:0:0:0:21:bass-drum.wav
192,192,37373,1,0,0:0:0:0:
448,192,37373,1,0,0:0:0:0:
320,192,37611,1,8,0:0:0:0:
64,192,37611,1,0,0:0:0:0:
192,192,37730,1,0,0:0:0:0:
448,192,37849,1,8,0:0:0:0:
320,192,37849,128,0,37968:0:0:0:21:bass-drum.wav
64,192,37968,1,8,0:0:0:0:
320,192,38087,128,0,38206:0:0:0:21:bass-drum.wav
192,192,38087,1,8,0:0:0:0:
448,192,38246,1,8,0:0:0:0:
64,192,38325,1,8,0:0:0:0:
192,192,38325,128,0,38444:0:0:0:21:bass-drum.wav
64,192,38564,1,8,0:0:0:0:
192,192,38564,128,0,38722:0:0:0:21:bass-drum.wav
320,192,38722,128,2,38802:0:0:0:0:
448,192,38802,128,2,39040:0:0:0:0:
64,192,39040,1,0,0:0:0:0:
192,192,39040,128,2,39159:0:0:0:0:
192,192,39278,128,0,39397:0:0:0:0:
192,192,39516,128,2,39873:0:0:0:0:
448,192,39516,1,8,0:0:0:0:
320,192,39992,128,2,40111:0:0:0:0:
320,192,40230,128,0,40349:0:0:0:0:
64,192,40468,1,8,0:0:0:0:
320,192,40468,128,2,40825:0:0:0:0:
448,192,40944,128,2,41064:0:0:0:0:
448,192,41183,128,0,41302:0:0:0:0:
320,192,41421,1,8,0:0:0:0:
64,192,41421,128,2,41540:0:0:0:0:
64,192,41659,128,0,41778:0:0:0:0:
448,192,41897,128,2,42016:0:0:0:0:
448,192,42135,128,0,42254:0:0:0:0:
320,192,42373,1,8,0:0:0:0:
64,192,42373,128,2,42611:0:0:0:0:
320,192,42849,128,2,42968:0:0:0:0:
320,192,43087,128,0,43206:0:0:0:0:
448,192,43325,1,8,0:0:0:0:
192,192,43325,128,2,43444:0:0:0:0:
64,192,43564,128,0,43683:0:0:0:0:
64,192,43802,128,2,43921:0:0:0:0:
448,192,44040,128,0,44159:0:0:0:0:
64,192,44278,1,8,0:0:0:0:
192,192,44278,128,2,44516:0:0:0:0:
320,192,44754,128,2,44873:0:0:0:0:
320,192,44992,128,0,45111:0:0:0:0:
448,192,45230,1,8,0:0:0:0:
64,192,45230,128,2,45349:0:0:0:0:
192,192,45468,128,0,45587:0:0:0:0:
448,192,45706,128,2,45825:0:0:0:0:
320,192,45944,128,0,46064:0:0:0:0:
64,192,46183,128,2,46540:0:0:0:0:
320,192,46341,1,10,0:0:0:21:bass-drum.wav
192,192,46421,1,6,0:0:0:21:bass-drum.wav
448,192,46421,1,8,0:0:0:21:bass-drum.wav
320,192,46659,1,8,0:0:0:0:
64,192,46659,1,0,0:0:0:0:
192,192,46659,128,2,46778:0:0:0:21:drum_clap.wav
192,192,46897,128,0,47016:0:0:0:0:
448,192,47135,1,8,0:0:0:0:
192,192,47135,128,2,47492:0:0:0:0:
448,192,47611,1,8,0:0:0:0:
320,192,47611,128,2,47730:0:0:0:0:
320,192,47849,128,0,47968:0:0:0:0:
448,192,47849,1,0,0:0:0:0:
192,192,48087,1,8,0:0:0:0:
320,192,48087,128,2,48444:0:0:0:0:
64,192,48246,1,0,0:0:0:0:
192,192,48325,1,0,0:0:0:0:
64,192,48564,1,8,0:0:0:0:
448,192,48564,128,2,48683:0:0:0:0:
448,192,48802,128,0,48921:0:0:0:0:
320,192,49040,1,8,0:0:0:0:
64,192,49040,128,2,49159:0:0:0:0:
320,192,49278,1,0,0:0:0:0:
64,192,49278,128,0,49397:0:0:0:0:
192,192,49516,1,8,0:0:0:0:
448,192,49516,128,2,49635:0:0:0:0:
192,192,49754,1,0,0:0:0:0:
448,192,49754,128,0,49873:0:0:0:0:
64,192,49992,128,2,50230:0:0:0:0:
320,192,49992,128,8,50111:0:0:0:0:
192,192,50230,1,0,0:0:0:0:
448,192,50468,1,0,0:0:0:0:
64,192,50468,1,8,0:0:0:0:
320,192,50468,128,2,50587:0:0:0:0:
64,192,50706,1,8,0:0:0:0:
320,192,50706,128,2,50825:0:0:0:0:
448,192,50944,1,8,0:0:0:0:
192,192,50944,128,2,51064:0:0:0:0:
320,192,51183,1,8,0:0:0:0:
64,192,51183,128,2,51302:0:0:0:0:
448,192,51421,1,8,0:0:0:0:
192,192,51421,128,2,51540:0:0:0:0:
64,192,51579,1,8,0:0:0:0:
192,192,51659,1,8,0:0:0:0:
448,192,51659,128,2,51897:0:0:0:0:
192,192,51818,1,8,0:0:0:0:
64,192,51897,128,10,52135:0:0:0:0:
320,192,52056,1,8,0:0:0:0:
448,192,52135,1,8,0:0:0:0:
448,192,52294,1,8,0:0:0:0:
320,192,52373,128,10,52492:0:0:0:0:
320,192,52611,128,0,52730:0:0:0:0:
320,192,52849,128,2,52968:0:0:0:0:
64,192,53087,128,0,53206:0:0:0:0:
320,192,53325,128,2,53444:0:0:0:0:
448,192,53564,128,0,53683:0:0:0:0:
320,192,53802,1,8,0:0:0:0:
64,192,53802,128,2,54159:0:0:0:0:
192,192,54040,1,10,0:0:0:70:bass-drum.wav
448,192,54040,1,10,0:0:0:0:
64,192,54278,1,2,0:0:0:0:
448,192,54278,128,8,54516:0:0:0:0:
320,192,54278,128,0,54635:0:0:0:21:bass-drum.wav
192,192,54516,128,4,54635:0:0:0:0:
448,192,54754,1,2,0:0:0:0:
192,192,54754,128,0,54992:0:0:0:21:bass-drum.wav
64,192,54754,128,8,55111:0:0:0:0:
320,192,54992,128,4,55111:0:0:0:0:
448,192,54992,1,0,0:0:0:0:
448,192,55230,1,2,0:0:0:0:
64,192,55230,128,8,55587:0:0:0:21:bass-drum.wav
320,192,55230,1,8,0:0:0:0:
448,192,55389,1,8,0:0:0:0:
192,192,55468,128,4,55587:0:0:0:0:
448,192,55587,128,4,55706:0:0:0:0:
320,192,55587,1,0,0:0:0:0:
64,192,55706,1,2,0:0:0:21:bass-drum.wav
192,192,55706,1,8,0:0:0:0:
192,192,55825,128,4,56063:0:0:0:0:
64,192,55825,128,0,56063:0:0:0:0:
320,192,55944,128,4,56063:0:0:0:0:
448,192,55944,128,0,56063:0:0:0:0:
448,192,56182,1,2,0:0:0:0:
64,192,56182,128,8,56420:0:0:0:0:
192,192,56182,128,0,56539:0:0:0:21:bass-drum.wav
320,192,56420,128,4,56539:0:0:0:0:
64,192,56658,1,2,0:0:0:0:
320,192,56658,128,0,56897:0:0:0:21:bass-drum.wav
448,192,56658,128,8,57016:0:0:0:0:
64,192,56897,1,0,0:0:0:0:
192,192,56897,128,4,57016:0:0:0:0:
64,192,57135,1,2,0:0:0:0:
448,192,57135,128,0,57492:0:0:0:21:bass-drum.wav
192,192,57135,1,8,0:0:0:0:
64,192,57293,1,8,0:0:0:0:
320,192,57373,128,4,57492:0:0:0:0:
64,192,57492,128,4,57611:0:0:0:0:
192,192,57492,1,0,0:0:0:0:
448,192,57611,1,2,0:0:0:21:bass-drum.wav
320,192,57611,1,8,0:0:0:0:
320,192,57730,128,4,57968:0:0:0:0:
448,192,57730,128,0,57968:0:0:0:0:
64,192,57849,128,0,57968:0:0:0:0:
192,192,57849,128,4,57968:0:0:0:0:
320,192,58087,1,2,0:0:0:0:
448,192,58087,128,8,58444:0:0:0:0:
64,192,58087,128,0,58325:0:0:0:21:bass-drum.wav
192,192,58325,128,4,58444:0:0:0:0:
448,192,58563,128,0,58801:0:0:0:21:bass-drum.wav
64,192,58563,1,2,0:0:0:0:
192,192,58563,128,8,58920:0:0:0:0:
320,192,58801,128,4,58920:0:0:0:0:
64,192,58801,1,0,0:0:0:0:
448,192,59039,1,2,0:0:0:0:
192,192,59039,128,8,59397:0:0:0:0:
320,192,59039,1,0,0:0:0:21:bass-drum.wav
448,192,59198,1,8,0:0:0:0:
64,192,59278,128,4,59397:0:0:0:0:
320,192,59397,1,0,0:0:0:0:
448,192,59397,128,4,59516:0:0:0:0:
320,192,59516,1,8,0:0:0:0:
64,192,59516,1,2,0:0:0:21:bass-drum.wav
192,192,59635,128,4,59754:0:0:0:0:
448,192,59635,128,2,59873:0:0:0:0:
64,192,59754,128,0,59873:0:0:0:0:
320,192,59754,128,4,59873:0:0:0:0:
192,192,59873,128,4,59992:0:0:0:0:
320,192,59992,1,2,0:0:0:0:
448,192,59992,128,8,60111:0:0:0:0:
64,192,59992,128,0,60230:0:0:0:21:bass-drum.wav
192,192,60230,128,4,60349:0:0:0:0:
448,192,60230,128,2,60349:0:0:0:0:
448,192,60468,1,2,0:0:0:0:
320,192,60468,128,0,60706:0:0:0:21:bass-drum.wav
64,192,60468,128,8,60587:0:0:0:0:
192,192,60587,128,2,60706:0:0:0:0:
448,192,60706,1,4,0:0:0:0:
64,192,60706,128,2,60825:0:0:0:0:
320,192,60825,128,2,61063:0:0:0:0:
192,192,60944,128,8,61063:0:0:0:21:bass-drum.wav
64,192,60944,1,2,0:0:0:0:
448,192,61063,128,2,61301:0:0:0:0:
64,192,61182,1,2,0:0:0:0:
320,192,61182,128,4,61301:0:0:0:0:
320,192,61420,1,2,0:0:0:0:
192,192,61420,128,2,61539:0:0:0:0:
448,192,61420,128,8,61778:0:0:0:0:
64,192,61539,128,2,61778:0:0:0:0:
192,192,61658,128,10,61778:0:0:0:0:
320,192,61658,128,4,61778:0:0:0:21:bass-drum.wav
448,192,61897,1,2,0:0:0:0:
192,192,61897,128,8,62254:0:0:0:0:
64,192,61897,128,0,62135:0:0:0:21:bass-drum.wav
320,192,62135,128,4,62254:0:0:0:0:
64,192,62373,1,2,0:0:0:0:
448,192,62373,128,0,62730:0:0:0:21:bass-drum.wav
320,192,62373,128,8,62611:0:0:0:0:
192,192,62611,128,4,62730:0:0:0:0:
64,192,62611,1,0,0:0:0:0:
192,192,62849,1,8,0:0:0:0:
64,192,62849,1,2,0:0:0:0:
448,192,62849,128,0,63206:0:0:0:21:bass-drum.wav
64,192,63008,1,8,0:0:0:0:
320,192,63087,128,4,63206:0:0:0:0:
192,192,63206,1,0,0:0:0:0:
64,192,63206,128,4,63325:0:0:0:0:
320,192,63325,1,8,0:0:0:0:
448,192,63325,1,2,0:0:0:21:bass-drum.wav
320,192,63444,128,4,63682:0:0:0:0:
448,192,63444,128,2,63682:0:0:0:0:
192,192,63563,128,4,63682:0:0:0:0:
64,192,63563,128,2,63682:0:0:0:0:
64,192,63801,1,2,0:0:0:0:
320,192,63801,128,8,64158:0:0:0:0:
448,192,63801,128,0,64039:0:0:0:21:bass-drum.wav
192,192,64039,128,4,64158:0:0:0:0:
448,192,64278,1,2,0:0:0:0:
192,192,64278,128,8,64516:0:0:0:0:
64,192,64278,128,0,64635:0:0:0:21:bass-drum.wav
320,192,64516,128,4,64635:0:0:0:0:
448,192,64516,1,0,0:0:0:0:
320,192,64754,1,8,0:0:0:0:
448,192,64754,1,2,0:0:0:0:
64,192,64754,128,0,65111:0:0:0:21:bass-drum.wav
448,192,64912,1,8,0:0:0:0:
192,192,64992,128,4,65111:0:0:0:0:
320,192,65111,1,0,0:0:0:0:
448,192,65111,128,4,65230:0:0:0:0:
64,192,65230,1,2,0:0:0:21:bass-drum.wav
192,192,65230,1,8,0:0:0:0:
192,192,65349,128,4,65587:0:0:0:0:
64,192,65349,128,2,65587:0:0:0:0:
320,192,65468,128,4,65587:0:0:0:0:
448,192,65468,128,2,65587:0:0:0:0:
192,192,65706,1,2,0:0:0:0:
64,192,65706,128,8,66063:0:0:0:0:
448,192,65706,128,0,65944:0:0:0:21:bass-drum.wav
320,192,65944,128,4,66063:0:0:0:0:
448,192,66182,1,2,0:0:0:0:
320,192,66182,128,8,66539:0:0:0:0:
64,192,66182,128,0,66420:0:0:0:21:bass-drum.wav
192,192,66420,128,4,66539:0:0:0:0:
448,192,66420,1,0,0:0:0:0:
192,192,66658,1,0,0:0:0:21:bass-drum.wav
64,192,66658,1,2,0:0:0:0:
320,192,66658,128,8,67016:0:0:0:0:
64,192,66817,1,8,0:0:0:0:
448,192,66897,128,4,67016:0:0:0:0:
192,192,67016,1,0,0:0:0:0:
64,192,67016,128,4,67135:0:0:0:0:
192,192,67135,1,8,0:0:0:0:
448,192,67135,1,2,0:0:0:0:
320,192,67254,128,4,67373:0:0:0:0:
64,192,67254,128,2,67492:0:0:0:0:
448,192,67373,128,2,67492:0:0:0:0:
192,192,67373,128,4,67492:0:0:0:0:
320,192,67492,128,4,67611:0:0:0:0:
192,192,67611,1,8,0:0:0:0:
448,192,67611,1,2,0:0:0:0:
64,192,67611,128,0,67730:0:0:0:21:bass-drum.wav
320,192,67770,1,8,0:0:0:21:bass-drum.wav
192,192,67849,1,12,0:0:0:21:bass-drum.wav
64,192,67849,128,4,67968:0:0:0:0:
64,192,68087,1,2,0:0:0:0:
448,192,68087,128,0,68206:0:0:0:21:bass-drum.wav
320,192,68087,1,8,0:0:0:0:
192,192,68246,1,8,0:0:0:21:bass-drum.wav
448,192,68325,128,4,68444:0:0:0:0:
320,192,68325,1,12,0:0:0:21:bass-drum.wav
64,192,68563,128,10,68682:0:0:0:0:
448,192,68563,1,2,0:0:0:0:
192,192,68563,1,8,0:0:0:21:bass-drum.wav
320,192,68722,1,8,0:0:0:21:bass-drum.wav
192,192,68801,1,0,0:0:0:21:bass-drum.wav
64,192,68801,128,4,68920:0:0:0:0:
448,192,68801,1,4,0:0:0:0:
320,192,68960,1,8,0:0:0:21:bass-drum.wav
448,192,69039,1,6,0:0:0:0:
64,192,69039,128,0,69397:0:0:0:21:bass-drum.wav
192,192,69039,1,10,0:0:0:0:
320,192,69278,1,4,0:0:0:0:
64,192,69516,1,8,0:0:0:0:
192,192,69516,128,0,69873:0:0:0:21:bass-drum.wav
448,192,69516,128,2,69635:0:0:0:0:
320,192,69674,1,8,0:0:0:0:
64,192,69754,128,2,69873:0:0:0:0:
448,192,69754,128,4,69873:0:0:0:0:
320,192,69992,1,2,0:0:0:0:
448,192,69992,128,0,70349:0:0:0:21:bass-drum.wav
64,192,69992,128,8,70230:0:0:0:0:
192,192,70230,128,4,70349:0:0:0:0:
320,192,70468,1,8,0:0:0:0:
64,192,70468,128,2,70587:0:0:0:0:
448,192,70468,128,0,70706:0:0:0:21:bass-drum.wav
320,192,70706,128,4,70825:0:0:0:0:
64,192,70706,128,2,70825:0:0:0:0:
448,192,70825,128,2,70944:0:0:0:0:
192,192,70944,1,8,0:0:0:0:
320,192,70944,128,2,71301:0:0:0:0:
64,192,70944,1,0,0:0:0:21:bass-drum.wav
64,192,71103,128,8,71182:0:0:0:0:
192,192,71182,128,4,71420:0:0:0:0:
320,192,71420,1,0,0:0:0:21:bass-drum.wav
448,192,71420,128,8,71539:0:0:0:0:
64,192,71420,128,2,71658:0:0:0:0:
192,192,71658,128,2,71778:0:0:0:0:
448,192,71658,128,4,71778:0:0:0:0:
192,192,71897,128,8,72254:0:0:0:0:
320,192,71897,128,2,72135:0:0:0:0:
448,192,71897,1,0,0:0:0:21:bass-drum.wav
64,192,72135,128,4,72254:0:0:0:0:
320,192,72254,1,2,0:0:0:0:
448,192,72373,128,2,72492:0:0:0:0:
192,192,72373,128,8,72611:0:0:0:0:
64,192,72373,1,0,0:0:0:21:bass-drum.wav
320,192,72611,128,2,72730:0:0:0:0:
448,192,72611,128,4,72730:0:0:0:0:
192,192,72730,128,2,72849:0:0:0:0:
320,192,72849,1,2,0:0:0:0:
448,192,72849,1,0,0:0:0:21:bass-drum.wav
64,192,72849,128,8,73206:0:0:0:0:
320,192,73008,128,8,73087:0:0:0:0:
192,192,73087,128,4,73325:0:0:0:0:
64,192,73325,1,0,0:0:0:21:bass-drum.wav
320,192,73325,128,2,73444:0:0:0:0:
448,192,73325,128,8,73563:0:0:0:0:
320,192,73563,128,2,73682:0:0:0:0:
64,192,73563,128,4,73682:0:0:0:0:
448,192,73801,1,0,0:0:0:21:bass-drum.wav
64,192,73801,128,2,74158:0:0:0:0:
192,192,73801,128,8,73920:0:0:0:0:
448,192,74039,128,4,74158:0:0:0:0:
192,192,74039,128,2,74158:0:0:0:0:
64,192,74278,1,10,0:0:0:0:
320,192,74278,128,10,74397:0:0:0:0:
192,192,74278,128,0,74516:0:0:0:21:bass-drum.wav
320,192,74516,128,2,74635:0:0:0:0:
64,192,74516,128,4,74635:0:0:0:0:
448,192,74635,128,2,74754:0:0:0:0:
320,192,74754,1,8,0:0:0:0:
64,192,74754,1,2,0:0:0:0:
192,192,74754,128,0,75111:0:0:0:21:bass-drum.wav
448,192,74912,128,8,74992:0:0:0:0:
320,192,74992,128,4,75111:0:0:0:0:
64,192,75111,128,2,75230:0:0:0:0:
192,192,75230,1,2,0:0:0:0:
448,192,75230,128,8,75587:0:0:0:0:
320,192,75230,128,0,75349:0:0:0:21:bass-drum.wav
320,192,75468,128,2,75587:0:0:0:0:
64,192,75468,128,4,75587:0:0:0:0:
448,192,75706,1,0,0:0:0:21:bass-drum.wav
192,192,75706,128,8,75825:0:0:0:0:
64,192,75706,128,2,75825:0:0:0:0:
320,192,75825,128,2,75944:0:0:0:0:
64,192,75944,128,4,76063:0:0:0:0:
192,192,75944,128,2,76182:0:0:0:0:
320,192,76182,1,8,0:0:0:0:
448,192,76182,128,2,76301:0:0:0:0:
64,192,76182,128,0,76539:0:0:0:21:bass-drum.wav
448,192,76420,128,4,76539:0:0:0:0:
192,192,76420,128,2,76539:0:0:0:0:
64,192,76658,1,2,0:0:0:0:
448,192,76658,128,8,77016:0:0:0:0:
192,192,76658,128,0,76817:0:0:0:21:bass-drum.wav
320,192,76817,128,8,76897:0:0:0:21:bass-drum.wav
192,192,76897,1,8,0:0:0:0:
64,192,76897,128,4,77135:0:0:0:21:bass-drum.wav
320,192,77135,1,8,0:0:0:0:
448,192,77135,128,2,77254:0:0:0:0:
192,192,77135,128,0,77492:0:0:0:21:bass-drum.wav
320,192,77293,1,8,0:0:0:0:
448,192,77373,128,2,77492:0:0:0:0:
64,192,77373,128,4,77492:0:0:0:0:
320,192,77611,1,8,0:0:0:0:
448,192,77611,128,0,77968:0:0:0:21:bass-drum.wav
64,192,77611,128,2,77849:0:0:0:0:
192,192,77849,128,4,77968:0:0:0:0:
448,192,78087,128,8,78325:0:0:0:0:
64,192,78087,128,0,78206:0:0:0:21:bass-drum.wav
320,192,78087,1,2,0:0:0:0:
320,192,78325,128,2,78444:0:0:0:0:
64,192,78325,128,4,78444:0:0:0:0:
448,192,78444,128,2,78563:0:0:0:0:
320,192,78563,128,2,78920:0:0:0:0:
192,192,78563,1,8,0:0:0:0:
64,192,78563,1,0,0:0:0:21:bass-drum.wav
64,192,78722,128,8,78801:0:0:0:0:
192,192,78801,128,4,79039:0:0:0:0:
448,192,79039,128,8,79158:0:0:0:0:
320,192,79039,1,2,0:0:0:0:
64,192,79039,128,0,79277:0:0:0:21:bass-drum.wav
192,192,79277,128,4,79397:0:0:0:0:
448,192,79277,128,2,79397:0:0:0:0:
64,192,79516,128,0,79635:0:0:0:21:bass-drum.wav
192,192,79516,128,8,79873:0:0:0:0:
448,192,79516,1,2,0:0:0:0:
64,192,79754,128,4,79873:0:0:0:0:
320,192,79754,128,2,79873:0:0:0:0:
192,192,79992,128,2,80230:0:0:0:0:
448,192,79992,128,0,80111:0:0:0:21:bass-drum.wav
64,192,79992,1,8,0:0:0:0:
320,192,80230,128,2,80349:0:0:0:0:
448,192,80230,128,4,80349:0:0:0:0:
192,192,80349,128,2,80468:0:0:0:0:
320,192,80468,1,2,0:0:0:0:
64,192,80468,128,8,80825:0:0:0:0:
448,192,80468,1,0,0:0:0:21:bass-drum.wav
320,192,80627,128,8,80706:0:0:0:0:
192,192,80706,128,4,80944:0:0:0:0:
64,192,80944,1,0,0:0:0:21:bass-drum.wav
320,192,80944,128,2,81063:0:0:0:0:
448,192,80944,128,8,81182:0:0:0:0:
64,192,81182,128,2,81301:0:0:0:0:
320,192,81182,128,4,81301:0:0:0:0:
64,192,81420,128,0,81777:0:0:0:21:bass-drum.wav
192,192,81420,128,2,81539:0:0:0:0:
448,192,81420,1,8,0:0:0:0:
192,192,81658,128,2,81777:0:0:0:0:
448,192,81658,128,4,81777:0:0:0:0:
64,192,81897,1,8,0:0:0:0:
320,192,81897,128,2,82016:0:0:0:0:
192,192,81897,128,0,82135:0:0:0:21:bass-drum.wav
320,192,82135,128,4,82254:0:0:0:0:
64,192,82135,128,2,82254:0:0:0:0:
448,192,82254,128,2,82373:0:0:0:0:
320,192,82373,1,2,0:0:0:0:
64,192,82373,1,0,0:0:0:21:bass-drum.wav
192,192,82373,128,8,82849:0:0:0:0:
448,192,82531,128,8,82611:0:0:0:0:
320,192,82611,128,4,82849:0:0:0:0:
448,192,82849,128,8,82968:0:0:0:0:
64,192,82849,1,8,0:0:0:21:bass-drum.wav
192,192,83008,1,0,0:0:0:21:bass-drum.wav
448,192,83087,128,4,83206:0:0:0:0:
320,192,83087,1,8,0:0:0:21:bass-drum.wav
64,192,83325,128,10,83444:0:0:0:0:
448,192,83325,1,0,0:0:0:0:
192,192,83325,1,8,0:0:0:21:bass-drum.wav
64,192,83563,128,4,83682:0:0:0:0:
320,192,83563,1,8,0:0:0:21:bass-drum.wav
192,192,83682,1,8,0:0:0:21:bass-drum.wav
448,192,83801,128,2,83920:0:0:0:0:
320,192,83801,1,8,0:0:0:0:
64,192,83801,1,8,0:0:0:21:bass-drum.wav
448,192,84039,128,4,84158:0:0:0:0:
320,192,84039,1,8,0:0:0:21:bass-drum.wav
448,192,84277,128,2,84635:0:0:0:0:
192,192,84277,1,8,0:0:0:0:
64,192,84277,1,8,0:0:0:21:bass-drum.wav
64,192,84436,1,0,0:0:0:21:bass-drum.wav
192,192,84516,1,8,0:0:0:21:bass-drum.wav
320,192,84516,1,4,0:0:0:0:
320,192,84754,1,14,0:0:0:0:
64,192,84754,128,0,84873:0:0:0:21:bass-drum.wav
320,192,85230,1,8,0:0:0:0:
64,192,85230,1,0,0:0:0:0:
448,192,85468,128,4,85587:0:0:0:0:
320,192,85706,1,8,0:0:0:0:
192,192,85706,128,0,85825:0:0:0:21:bass-drum.wav
320,192,86103,128,0,86182:0:0:0:0:
64,192,86182,1,0,0:0:0:0:
448,192,86182,1,8,0:0:0:0:
192,192,86420,128,4,86539:0:0:0:0:
320,192,86658,1,8,0:0:0:0:
448,192,86658,128,0,86777:0:0:0:21:bass-drum.wav
448,192,87135,1,8,0:0:0:0:
64,192,87135,1,0,0:0:0:0:
192,192,87373,128,4,87492:0:0:0:0:
64,192,87611,1,8,0:0:0:0:
320,192,87611,128,0,87730:0:0:0:21:bass-drum.wav
192,192,87968,128,0,88087:0:0:0:0:
64,192,88008,128,0,88087:0:0:0:0:
448,192,88087,1,8,0:0:0:0:
192,192,88325,128,4,88444:0:0:0:0:
64,192,88563,1,8,0:0:0:0:
448,192,88563,128,0,88682:0:0:0:21:bass-drum.wav
64,192,89039,1,0,0:0:0:0:
320,192,89039,1,8,0:0:0:0:
320,192,89277,128,4,89397:0:0:0:0:
192,192,89516,1,8,0:0:0:0:
64,192,89516,128,0,89635:0:0:0:21:bass-drum.wav
192,192,89912,128,0,89992:0:0:0:0:
448,192,89992,1,8,0:0:0:0:
64,192,89992,1,0,0:0:0:0:
320,192,90230,128,4,90349:0:0:0:0:
192,192,90468,1,0,0:0:0:0:
448,192,90468,1,8,0:0:0:0:
64,192,90468,128,0,90587:0:0:0:21:bass-drum.wav
320,192,90706,1,12,0:0:0:0:
64,192,90706,1,0,0:0:0:0:
64,192,90944,1,0,0:0:0:0:
320,192,90944,1,8,0:0:0:0:
448,192,91182,128,4,91301:0:0:0:0:
64,192,91301,1,8,0:0:0:0:
192,192,91381,1,8,0:0:0:0:
320,192,91420,1,8,0:0:0:0:
448,192,91420,128,0,91539:0:0:0:21:bass-drum.wav
64,192,91658,128,0,91897:0:0:0:21:bass-drum.wav
192,192,91658,128,12,91777:0:0:0:0:
448,192,91897,1,8,0:0:0:0:
320,192,91897,128,0,92055:0:0:0:0:
192,192,92055,128,8,92135:0:0:0:0:
64,192,92135,128,12,92254:0:0:0:0:
192,192,92373,1,12,0:0:0:0:
448,192,92373,128,8,92492:0:0:0:21:bass-drum.wav
64,192,92849,1,0,0:0:0:0:
320,192,92849,1,8,0:0:0:0:
448,192,92849,1,0,0:0:0:0:
192,192,93087,128,4,93206:0:0:0:0:
448,192,93325,1,8,0:0:0:0:
320,192,93325,128,0,93444:0:0:0:21:bass-drum.wav
192,192,93722,128,0,93801:0:0:0:0:
448,192,93801,1,8,0:0:0:0:
64,192,93801,1,0,0:0:0:0:
320,192,94039,128,4,94158:0:0:0:0:
448,192,94277,128,0,94397:0:0:0:21:bass-drum.wav
192,192,94277,1,8,0:0:0:0:
64,192,94754,1,0,0:0:0:0:
320,192,94754,1,0,0:0:0:0:
448,192,94754,1,8,0:0:0:0:
192,192,94992,128,4,95111:0:0:0:0:
448,192,95230,1,8,0:0:0:0:
320,192,95230,128,0,95349:0:0:0:21:bass-drum.wav
192,192,95587,128,0,95706:0:0:0:0:
448,192,95627,128,0,95706:0:0:0:0:
64,192,95706,1,8,0:0:0:0:
320,192,95944,128,4,96063:0:0:0:0:
192,192,96182,1,8,0:0:0:0:
64,192,96182,128,0,96301:0:0:0:21:bass-drum.wav
448,192,96658,1,8,0:0:0:0:
192,192,96658,1,0,0:0:0:0:
64,192,96658,1,0,0:0:0:0:
320,192,96897,128,4,97016:0:0:0:0:
64,192,97135,1,8,0:0:0:0:
192,192,97135,128,0,97254:0:0:0:21:bass-drum.wav
320,192,97531,128,0,97611:0:0:0:0:
64,192,97611,1,0,0:0:0:0:
448,192,97611,1,8,0:0:0:0:
192,192,97849,128,4,97968:0:0:0:0:
320,192,98087,1,0,0:0:0:0:
448,192,98087,1,8,0:0:0:0:
64,192,98087,128,0,98206:0:0:0:21:bass-drum.wav
192,192,98563,1,8,0:0:0:0:
448,192,98801,1,12,0:0:0:0:
320,192,98801,128,0,98920:0:0:0:21:bass-drum.wav
320,192,99039,1,8,0:0:0:0:
192,192,99039,128,0,99158:0:0:0:21:bass-drum.wav
64,192,99198,1,8,0:0:0:21:bass-drum.wav
448,192,99277,128,0,99516:0:0:0:21:bass-drum.wav
320,192,99277,128,6,99397:0:0:0:0:
64,192,99436,1,8,0:0:0:21:bass-drum.wav
320,192,99516,1,8,0:0:0:21:bass-drum.wav
192,192,99516,128,10,99674:0:0:0:0:
320,192,99674,128,2,99754:0:0:0:0:
448,192,99754,128,6,99873:0:0:0:0:
320,192,99992,1,8,0:0:0:0:
64,192,99992,128,0,100111:0:0:0:21:bass-drum.wav
448,192,100111,1,2,0:0:0:0:
320,192,100230,1,6,0:0:0:0:
192,192,100349,1,2,0:0:0:0:
64,192,100468,1,0,0:0:0:0:
448,192,100468,1,0,0:0:0:0:
320,192,100468,1,8,0:0:0:0:
192,192,100587,1,2,0:0:0:0:
448,192,100706,1,2,0:0:0:0:
320,192,100706,128,4,100825:0:0:0:0:
192,192,100825,1,2,0:0:0:0:
192,192,100944,128,0,101063:0:0:0:21:bass-drum.wav
64,192,100944,1,8,0:0:0:0:
320,192,101103,1,2,0:0:0:0:
448,192,101182,1,6,0:0:0:0:
192,192,101301,1,2,0:0:0:0:
320,192,101341,128,0,101420:0:0:0:0:
64,192,101420,1,2,0:0:0:0:
448,192,101420,1,8,0:0:0:0:
448,192,101658,1,2,0:0:0:0:
192,192,101658,128,4,101777:0:0:0:0:
64,192,101897,128,0,102016:0:0:0:21:bass-drum.wav
320,192,101897,1,8,0:0:0:0:
448,192,102055,1,2,0:0:0:0:
320,192,102174,1,6,0:0:0:0:
192,192,102293,1,2,0:0:0:0:
448,192,102373,1,8,0:0:0:0:
64,192,102373,1,2,0:0:0:0:
320,192,102373,1,0,0:0:0:0:
192,192,102492,1,2,0:0:0:0:
320,192,102611,128,6,102730:0:0:0:0:
448,192,102730,1,2,0:0:0:0:
64,192,102849,1,8,0:0:0:0:
192,192,102849,128,0,102968:0:0:0:21:bass-drum.wav
320,192,103008,1,2,0:0:0:0:
192,192,103087,1,6,0:0:0:0:
320,192,103206,128,2,103325:0:0:0:0:
64,192,103246,128,2,103325:0:0:0:0:
448,192,103325,1,8,0:0:0:0:
192,192,103563,128,6,103682:0:0:0:0:
320,192,103801,1,8,0:0:0:0:
448,192,103801,128,0,103920:0:0:0:21:bass-drum.wav
192,192,103960,1,2,0:0:0:0:
320,192,104079,1,6,0:0:0:0:
448,192,104198,1,2,0:0:0:0:
64,192,104277,1,0,0:0:0:0:
192,192,104277,1,2,0:0:0:0:
320,192,104277,1,8,0:0:0:0:
192,192,104516,128,4,104635:0:0:0:0:
448,192,104516,1,2,0:0:0:0:
64,192,104635,1,2,0:0:0:0:
320,192,104754,128,0,104873:0:0:0:21:bass-drum.wav
192,192,104754,1,8,0:0:0:0:
448,192,104873,1,2,0:0:0:0:
320,192,104992,1,6,0:0:0:0:
192,192,105151,128,2,105230:0:0:0:0:
448,192,105230,1,8,0:0:0:0:
64,192,105230,1,2,0:0:0:0:
64,192,105468,1,2,0:0:0:0:
320,192,105468,128,4,105587:0:0:0:0:
192,192,105587,1,2,0:0:0:0:
448,192,105706,128,0,105825:0:0:0:21:bass-drum.wav
64,192,105706,1,8,0:0:0:0:
320,192,105825,1,2,0:0:0:0:
192,192,105944,1,6,0:0:0:0:
64,192,106063,1,2,0:0:0:0:
448,192,106182,1,0,0:0:0:0:
320,192,106182,1,8,0:0:0:0:
192,192,106182,1,2,0:0:0:0:
64,192,106301,1,2,0:0:0:0:
192,192,106420,128,4,106539:0:0:0:0:
320,192,106420,1,2,0:0:0:0:
64,192,106539,1,2,0:0:0:0:
448,192,106658,1,8,0:0:0:0:
320,192,106658,128,0,106777:0:0:0:21:bass-drum.wav
448,192,106817,1,2,0:0:0:0:
64,192,106897,128,0,107135:0:0:0:0:
192,192,106897,128,4,107016:0:0:0:0:
320,192,106897,1,8,0:0:0:0:
448,192,107135,1,8,0:0:0:0:
320,192,107135,128,0,107293:0:0:0:21:bass-drum.wav
192,192,107293,128,8,107373:0:0:0:0:
64,192,107373,128,12,107492:0:0:0:0:
320,192,107611,1,8,0:0:0:0:
448,192,107611,128,0,107730:0:0:0:21:bass-drum.wav
192,192,107730,1,2,0:0:0:0:
320,192,107849,1,2,0:0:0:0:
64,192,107849,1,4,0:0:0:0:
448,192,108087,1,2,0:0:0:0:
64,192,108087,1,0,0:0:0:0:
320,192,108087,1,8,0:0:0:0:
192,192,108325,1,2,0:0:0:0:
64,192,108325,128,4,108444:0:0:0:0:
320,192,108444,1,2,0:0:0:0:
192,192,108563,1,8,0:0:0:0:
448,192,108563,128,0,108682:0:0:0:21:bass-drum.wav
320,192,108801,1,6,0:0:0:0:
192,192,108920,128,2,109039:0:0:0:0:
320,192,108960,128,2,109039:0:0:0:0:
448,192,109039,1,8,0:0:0:0:
64,192,109039,1,2,0:0:0:0:
64,192,109277,1,2,0:0:0:0:
320,192,109277,128,4,109397:0:0:0:0:
192,192,109397,1,2,0:0:0:0:
448,192,109516,1,8,0:0:0:0:
64,192,109516,128,0,109635:0:0:0:21:bass-drum.wav
320,192,109635,1,2,0:0:0:0:
192,192,109754,1,2,0:0:0:0:
448,192,109754,1,4,0:0:0:0:
320,192,109873,1,2,0:0:0:0:
64,192,109992,1,0,0:0:0:0:
192,192,109992,1,8,0:0:0:0:
448,192,109992,1,2,0:0:0:0:
320,192,110111,1,2,0:0:0:0:
192,192,110230,128,6,110349:0:0:0:0:
64,192,110349,1,2,0:0:0:0:
448,192,110468,128,0,110587:0:0:0:21:bass-drum.wav
192,192,110468,1,8,0:0:0:0:
320,192,110627,1,2,0:0:0:0:
192,192,110706,1,6,0:0:0:0:
320,192,110825,128,2,110944:0:0:0:0:
448,192,110865,128,2,110944:0:0:0:0:
64,192,110944,1,8,0:0:0:0:
192,192,111182,128,4,111301:0:0:0:0:
320,192,111182,1,2,0:0:0:0:
320,192,111420,1,8,0:0:0:0:
448,192,111420,1,2,0:0:0:0:
64,192,111420,128,0,111539:0:0:0:21:bass-drum.wav
192,192,111658,1,2,0:0:0:0:
320,192,111658,1,4,0:0:0:0:
448,192,111897,1,8,0:0:0:0:
64,192,111897,1,2,0:0:0:0:
192,192,111897,1,2,0:0:0:0:
448,192,112135,1,2,0:0:0:0:
192,192,112135,128,4,112254:0:0:0:0:
64,192,112373,1,2,0:0:0:0:
448,192,112373,128,0,112492:0:0:0:21:bass-drum.wav
320,192,112373,1,8,0:0:0:0:
192,192,112611,1,6,0:0:0:0:
320,192,112770,128,2,112849:0:0:0:0:
64,192,112849,1,8,0:0:0:0:
448,192,112849,1,2,0:0:0:0:
192,192,113008,1,2,0:0:0:0:
320,192,113087,1,4,0:0:0:0:
192,192,113166,1,2,0:0:0:0:
448,192,113325,128,0,113444:0:0:0:21:bass-drum.wav
64,192,113325,1,8,0:0:0:0:
320,192,113325,1,2,0:0:0:0:
192,192,113484,1,4,0:0:0:21:bass-drum.wav
320,192,113563,1,12,0:0:0:0:
64,192,113563,1,0,0:0:0:21:bass-drum.wav
448,192,113801,1,8,0:0:0:0:
192,192,113801,1,0,0:0:0:21:bass-drum.wav
64,192,114039,128,0,114158:0:0:0:21:bass-drum.wav
448,192,114039,1,2,0:0:0:0:
192,192,114039,1,12,0:0:0:0:
320,192,114198,1,4,0:0:0:21:bass-drum.wav
64,192,114277,128,0,114397:0:0:0:21:bass-drum.wav
448,192,114277,1,2,0:0:0:0:
192,192,114277,1,8,0:0:0:0:
448,192,114516,128,2,114754:0:0:0:0:
320,192,114516,128,4,114635:0:0:0:0:
64,192,114754,1,8,0:0:0:0:
192,192,114754,128,2,114912:0:0:0:0:
320,192,114912,128,2,114992:0:0:0:0:
448,192,114992,128,6,115111:0:0:0:0:
192,192,115230,1,2,0:0:0:0:
64,192,115230,1,4,0:0:0:0:
64,192,115706,1,0,0:0:0:0:
192,192,115706,1,8,0:0:0:0:
320,192,115706,128,6,115825:0:0:0:0:
448,192,115944,128,2,116063:0:0:0:0:
320,192,116182,128,2,116301:0:0:0:0:
320,192,116420,128,2,116539:0:0:0:0:
64,192,116658,1,0,0:0:0:0:
192,192,116658,1,8,0:0:0:0:
448,192,116658,128,6,116777:0:0:0:0:
320,192,116897,128,2,117016:0:0:0:0:
64,192,117135,128,6,117254:0:0:0:0:
320,192,117611,1,8,0:0:0:0:
448,192,117611,1,0,0:0:0:0:
192,192,117611,128,6,117730:0:0:0:0:
64,192,117849,128,2,117968:0:0:0:0:
192,192,118087,128,2,118206:0:0:0:0:
192,192,118325,128,2,118444:0:0:0:0:
320,192,118563,1,8,0:0:0:0:
448,192,118563,1,0,0:0:0:0:
64,192,118563,128,6,118682:0:0:0:0:
192,192,118801,128,2,118920:0:0:0:0:
448,192,119039,128,6,119158:0:0:0:0:
320,192,119039,1,0,0:0:0:0:
64,192,119039,1,0,0:0:0:0:
64,192,119516,1,8,0:0:0:0:
320,192,119516,1,4,0:0:0:0:
192,192,119516,128,2,119635:0:0:0:0:
448,192,119754,128,2,119873:0:0:0:0:
320,192,119992,128,2,120111:0:0:0:0:
192,192,120230,128,2,120349:0:0:0:0:
64,192,120468,1,8,0:0:0:0:
320,192,120468,1,4,0:0:0:0:
448,192,120468,128,2,120587:0:0:0:0:
320,192,120706,128,2,120825:0:0:0:0:
192,192,120944,1,4,0:0:0:0:
448,192,120944,1,4,0:0:0:0:
64,192,120944,128,2,121063:0:0:0:0:
192,192,121420,1,4,0:0:0:0:
448,192,121420,1,8,0:0:0:0:
320,192,121420,128,2,121539:0:0:0:0:
448,192,121658,128,2,121777:0:0:0:0:
320,192,121897,128,2,122016:0:0:0:0:
320,192,122135,128,2,122254:0:0:0:0:
192,192,122373,1,8,0:0:0:0:
448,192,122373,128,4,122492:0:0:0:0:
64,192,122373,1,4,0:0:0:0:
320,192,122611,128,2,122730:0:0:0:0:
192,192,122849,128,0,123206:0:0:0:0:
320,192,123087,128,0,123206:0:0:0:0:
448,192,123325,1,8,0:0:0:0:
64,192,123325,128,0,123682:0:0:0:0:
320,192,123325,128,0,123444:0:0:0:0:
192,192,123563,128,0,123682:0:0:0:0:
320,192,123801,128,0,124158:0:0:0:0:
64,192,123801,128,0,123920:0:0:0:0:
192,192,124039,128,0,124158:0:0:0:0:
64,192,124277,1,8,0:0:0:0:
448,192,124277,128,2,124635:0:0:0:0:
192,192,124277,128,0,124397:0:0:0:0:
320,192,124516,128,0,124635:0:0:0:0:
64,192,124754,128,0,125111:0:0:0:0:
448,192,124754,128,0,124873:0:0:0:0:
192,192,124992,128,0,125111:0:0:0:0:
64,192,125230,128,0,125587:0:0:0:0:
320,192,125230,1,8,0:0:0:0:
448,192,125230,128,0,125349:0:0:0:0:
320,192,125468,128,0,125587:0:0:0:0:
192,192,125706,128,0,125944:0:0:0:0:
320,192,125944,128,0,126182:0:0:0:0:
448,192,126182,128,2,126539:0:0:0:0:
192,192,126182,1,8,0:0:0:0:
64,192,126182,128,0,126301:0:0:0:0:
192,192,126420,128,0,126539:0:0:0:0:
192,192,126658,128,0,127016:0:0:0:0:
448,192,126658,128,0,126777:0:0:0:0:
320,192,126897,128,0,127016:0:0:0:0:
64,192,127135,128,0,127492:0:0:0:0:
320,192,127135,1,8,0:0:0:0:
448,192,127135,128,0,127254:0:0:0:0:
192,192,127373,128,0,127492:0:0:0:0:
320,192,127611,128,0,127968:0:0:0:0:
64,192,127611,128,0,127730:0:0:0:0:
192,192,127849,128,0,127968:0:0:0:0:
448,192,128087,128,0,128444:0:0:0:0:
192,192,128087,1,8,0:0:0:0:
64,192,128087,128,0,128206:0:0:0:0:
320,192,128325,128,0,128444:0:0:0:0:
64,192,128563,128,0,129992:0:0:0:0:
192,192,128563,128,0,128682:0:0:0:0:
448,192,128563,128,0,128801:0:0:0:0:
192,192,128801,128,0,128920:0:0:0:0:
448,192,129039,128,0,129158:0:0:0:0:
320,192,129039,1,8,0:0:0:0:
448,192,129277,128,0,129397:0:0:0:0:
320,192,129516,128,0,129635:0:0:0:0:
320,192,129754,128,0,129873:0:0:0:0:
192,192,129992,1,8,0:0:0:0:
448,192,129992,128,6,130111:0:0:0:0:
320,192,130230,128,0,130349:0:0:0:0:
448,192,130468,5,2,0:0:0:0:
64,192,130468,1,8,0:0:0:0:
192,192,130468,128,0,130587:0:0:0:21:bass-drum.wav
192,192,130706,128,6,130825:0:0:0:0:
448,192,130944,1,2,0:0:0:0:
64,192,130944,1,8,0:0:0:0:
192,192,130944,128,0,131301:0:0:0:21:bass-drum.wav
448,192,131182,1,6,0:0:0:0:
448,192,131420,1,10,0:0:0:0:
320,192,131420,128,2,131539:0:0:0:21:bass-drum.wav
64,192,131658,1,2,0:0:0:0:
320,192,131658,128,4,131777:0:0:0:0:
192,192,131897,1,2,0:0:0:0:
448,192,131897,1,8,0:0:0:0:
320,192,131897,128,0,132254:0:0:0:21:bass-drum.wav
64,192,132055,1,0,0:0:0:21:bass-drum.wav
192,192,132135,1,4,0:0:0:21:bass-drum.wav
64,192,132373,1,10,0:0:0:0:
448,192,132373,128,0,132492:0:0:0:21:bass-drum.wav
64,192,132611,1,4,0:0:0:0:
448,192,132611,128,2,132730:0:0:0:0:
320,192,132849,1,2,0:0:0:0:
192,192,132849,1,8,0:0:0:0:
64,192,132849,128,0,132968:0:0:0:21:bass-drum.wav
192,192,133087,1,2,0:0:0:0:
64,192,133087,128,4,133206:0:0:0:0:
320,192,133206,1,2,0:0:0:0:
64,192,133325,1,10,0:0:0:0:
448,192,133325,128,2,133444:0:0:0:21:bass-drum.wav
448,192,133563,128,4,133682:0:0:0:0:
192,192,133563,1,2,0:0:0:0:
64,192,133801,128,0,134039:0:0:0:21:bass-drum.wav
448,192,133801,1,8,0:0:0:0:
320,192,133801,128,2,133960:0:0:0:0:
192,192,133960,1,0,0:0:0:21:bass-drum.wav
448,192,134039,1,6,0:0:0:0:
64,192,134277,1,10,0:0:0:0:
320,192,134277,128,0,134397:0:0:0:21:bass-drum.wav
64,192,134516,1,2,0:0:0:0:
320,192,134516,128,4,134635:0:0:0:0:
320,192,134754,1,2,0:0:0:0:
448,192,134754,1,8,0:0:0:0:
192,192,134754,128,0,134873:0:0:0:21:bass-drum.wav
448,192,134992,1,2,0:0:0:0:
192,192,134992,128,4,135111:0:0:0:0:
64,192,135230,1,8,0:0:0:0:
320,192,135230,128,0,135349:0:0:0:21:bass-drum.wav
64,192,135468,1,2,0:0:0:0:
320,192,135468,128,4,135587:0:0:0:0:
448,192,135706,1,8,0:0:0:0:
192,192,135706,1,2,0:0:0:0:
64,192,135706,128,0,135944:0:0:0:21:bass-drum.wav
320,192,135865,1,8,0:0:0:0:
192,192,135944,1,12,0:0:0:0:
192,192,136103,1,8,0:0:0:0:
448,192,136182,1,10,0:0:0:0:
320,192,136182,128,0,136301:0:0:0:21:bass-drum.wav
320,192,136420,128,6,136539:0:0:0:0:
320,192,136658,1,2,0:0:0:0:
192,192,136658,1,8,0:0:0:0:
64,192,136658,128,0,136777:0:0:0:21:bass-drum.wav
192,192,136897,1,2,0:0:0:0:
64,192,136897,128,4,137016:0:0:0:0:
320,192,137135,1,8,0:0:0:0:
448,192,137135,128,0,137254:0:0:0:21:bass-drum.wav
64,192,137373,1,4,0:0:0:0:
320,192,137373,128,2,137492:0:0:0:0:
192,192,137611,1,8,0:0:0:0:
64,192,137611,128,0,137968:0:0:0:21:bass-drum.wav
448,192,137770,1,0,0:0:0:12:bass-drum.wav
192,192,137849,1,12,0:0:0:0:
320,192,137849,1,8,0:0:0:21:bass-drum.wav
64,192,138087,1,8,0:0:0:0:
320,192,138087,128,0,138444:0:0:0:21:bass-drum.wav
448,192,138087,128,0,138206:0:0:0:0:
64,192,138246,1,2,0:0:0:0:
448,192,138325,128,0,138801:0:0:0:21:bass-drum.wav
192,192,138325,1,12,0:0:0:0:
64,192,138563,1,8,0:0:0:0:
192,192,138563,1,2,0:0:0:0:
320,192,138563,128,0,138920:0:0:0:21:bass-drum.wav
64,192,138801,1,12,0:0:0:0:
192,192,139039,128,0,139397:0:0:0:21:bass-drum.wav
64,192,139039,128,2,139158:0:0:0:0:
448,192,139039,1,8,0:0:0:0:
64,192,139277,128,0,139754:0:0:0:21:bass-drum.wav
448,192,139277,1,14,0:0:0:0:
448,192,139516,1,2,0:0:0:0:
320,192,139516,1,8,0:0:0:0:
192,192,139516,128,0,139873:0:0:0:21:bass-drum.wav
448,192,139674,1,8,0:0:0:0:
320,192,139754,1,12,0:0:0:0:
64,192,139912,1,8,0:0:0:0:
448,192,139992,128,2,140111:0:0:0:0:
320,192,139992,128,0,140349:0:0:0:21:bass-drum.wav
192,192,139992,1,8,0:0:0:0:
448,192,140230,128,0,140587:0:0:0:21:bass-drum.wav
192,192,140230,1,14,0:0:0:0:
64,192,140468,1,8,0:0:0:0:
192,192,140468,1,2,0:0:0:0:
320,192,140468,128,0,140825:0:0:0:21:bass-drum.wav
448,192,140706,128,0,141063:0:0:0:21:bass-drum.wav
64,192,140706,1,14,0:0:0:0:
320,192,140944,128,0,141301:0:0:0:21:bass-drum.wav
192,192,140944,1,10,0:0:0:0:
448,192,141182,128,0,141579:0:0:0:21:bass-drum.wav
192,192,141182,1,14,0:0:0:0:
320,192,141420,128,0,141658:0:0:0:21:bass-drum.wav
64,192,141420,1,8,0:0:0:0:
192,192,141420,1,2,0:0:0:0:
64,192,141579,1,2,0:0:0:0:
192,192,141658,1,4,0:0:0:21:bass-drum.wav
192,192,141817,1,8,0:0:0:0:
448,192,141817,1,8,0:0:0:0:
320,192,141897,1,10,0:0:0:0:
64,192,141897,1,8,0:0:0:0:
320,192,142055,1,8,0:0:0:0:
64,192,142055,1,8,0:0:0:0:
192,192,142135,1,10,0:0:0:0:
448,192,142135,1,4,0:0:0:0:
192,192,142293,1,8,0:0:0:0:
448,192,142293,1,8,0:0:0:0:
64,192,142373,1,2,0:0:0:0:
320,192,142373,1,8,0:0:0:0:
64,192,142531,1,8,0:0:0:0:
320,192,142531,1,8,0:0:0:0:
448,192,142611,1,10,0:0:0:0:
192,192,142611,1,4,0:0:0:0:
320,192,142770,1,8,0:0:0:0:
448,192,142770,1,8,0:0:0:0:
192,192,142849,1,8,0:0:0:0:
64,192,142849,1,2,0:0:0:0:
192,192,143008,1,8,0:0:0:0:
64,192,143008,1,8,0:0:0:0:
320,192,143087,1,10,0:0:0:0:
448,192,143087,1,4,0:0:0:0:
320,192,143246,1,8,0:0:0:0:
448,192,143246,1,8,0:0:0:0:
64,192,143325,1,2,0:0:0:0:
192,192,143325,1,8,0:0:0:0:
192,192,143484,1,8,0:0:0:0:
64,192,143484,1,8,0:0:0:0:
320,192,143563,1,10,0:0:0:0:
448,192,143563,1,4,0:0:0:0:
448,192,143722,1,8,0:0:0:0:
320,192,143722,1,8,0:0:0:0:
192,192,143801,1,8,0:0:0:0:
64,192,143801,1,2,0:0:0:0:
448,192,144039,1,4,0:0:0:0:
320,192,144277,1,2,0:0:0:0:
448,192,144277,1,0,0:0:0:0:
64,192,144516,1,6,0:0:0:0:
320,192,144754,1,2,0:0:0:0:
192,192,144754,1,2,0:0:0:0:
448,192,144992,1,4,0:0:0:0:
64,192,145230,1,4,0:0:0:0:
192,192,145230,1,2,0:0:0:0:
64,192,145706,1,8,0:0:0:0:
448,192,145706,128,2,145944:0:0:0:0:
320,192,145706,128,0,146063:0:0:0:21:bass-drum.wav
192,192,145944,128,4,146063:0:0:0:0:
448,192,146182,1,2,0:0:0:0:
192,192,146182,128,0,146420:0:0:0:21:bass-drum.wav
64,192,146182,128,8,146539:0:0:0:0:
320,192,146420,128,4,146539:0:0:0:0:
448,192,146420,1,0,0:0:0:0:
448,192,146658,1,8,0:0:0:0:
320,192,146658,1,0,0:0:0:21:bass-drum.wav
64,192,146658,128,2,147016:0:0:0:0:
448,192,146817,1,8,0:0:0:0:
192,192,146897,128,4,147016:0:0:0:0:
320,192,147016,1,0,0:0:0:0:
448,192,147016,128,4,147135:0:0:0:0:
192,192,147135,1,8,0:0:0:0:
64,192,147135,1,8,0:0:0:21:bass-drum.wav
192,192,147254,128,4,147492:0:0:0:0:
64,192,147254,128,2,147492:0:0:0:0:
320,192,147373,128,4,147492:0:0:0:0:
448,192,147373,128,2,147492:0:0:0:0:
448,192,147611,1,8,0:0:0:0:
192,192,147611,128,0,147968:0:0:0:21:bass-drum.wav
64,192,147611,128,2,147849:0:0:0:0:
320,192,147849,128,4,147968:0:0:0:0:
64,192,148087,1,8,0:0:0:0:
320,192,148087,128,2,148325:0:0:0:0:
448,192,148087,128,0,148444:0:0:0:21:bass-drum.wav
192,192,148325,128,4,148444:0:0:0:0:
64,192,148325,1,0,0:0:0:0:
64,192,148563,1,0,0:0:0:21:bass-drum.wav
192,192,148563,1,8,0:0:0:0:
448,192,148563,128,2,148920:0:0:0:0:
64,192,148722,1,8,0:0:0:0:
320,192,148801,128,4,148920:0:0:0:0:
64,192,148920,128,4,149039:0:0:0:0:
192,192,148920,1,0,0:0:0:0:
320,192,149039,1,8,0:0:0:21:bass-drum.wav
448,192,149039,1,8,0:0:0:0:
320,192,149158,128,4,149397:0:0:0:0:
448,192,149158,128,2,149397:0:0:0:0:
192,192,149277,128,4,149397:0:0:0:0:
64,192,149277,128,2,149397:0:0:0:0:
320,192,149516,1,8,0:0:0:0:
448,192,149516,128,0,149873:0:0:0:21:bass-drum.wav
64,192,149516,128,2,149754:0:0:0:0:
192,192,149754,128,4,149873:0:0:0:0:
64,192,149992,1,8,0:0:0:0:
448,192,149992,128,2,150230:0:0:0:0:
192,192,149992,128,0,150349:0:0:0:21:bass-drum.wav
320,192,150230,128,4,150349:0:0:0:0:
64,192,150230,1,0,0:0:0:0:
192,192,150468,128,2,150825:0:0:0:0:
320,192,150468,1,8,0:0:0:0:
448,192,150468,1,0,0:0:0:21:bass-drum.wav
448,192,150627,1,8,0:0:0:0:
64,192,150706,128,4,150825:0:0:0:0:
320,192,150825,1,0,0:0:0:0:
448,192,150825,128,4,150944:0:0:0:0:
320,192,150944,1,8,0:0:0:0:
64,192,150944,1,8,0:0:0:21:bass-drum.wav
448,192,151063,128,2,151301:0:0:0:0:
192,192,151063,128,4,151182:0:0:0:0:
64,192,151182,128,2,151301:0:0:0:0:
320,192,151182,128,4,151301:0:0:0:0:
192,192,151301,128,4,151420:0:0:0:0:
320,192,151420,1,8,0:0:0:0:
64,192,151420,128,2,151658:0:0:0:21:bass-drum.wav
448,192,151420,128,2,151539:0:0:0:0:
192,192,151658,128,4,151777:0:0:0:0:
448,192,151658,128,2,151777:0:0:0:0:
64,192,151897,128,2,152016:0:0:0:0:
320,192,151897,128,0,152135:0:0:0:21:bass-drum.wav
448,192,151897,1,8,0:0:0:0:
192,192,152016,128,2,152135:0:0:0:0:
64,192,152135,128,4,152254:0:0:0:0:
448,192,152135,1,0,0:0:0:0:
320,192,152254,128,2,152492:0:0:0:0:
192,192,152373,128,0,152492:0:0:0:21:bass-drum.wav
64,192,152373,1,10,0:0:0:0:
448,192,152492,128,2,152730:0:0:0:0:
320,192,152611,128,4,152730:0:0:0:0:
64,192,152611,1,2,0:0:0:0:
320,192,152849,1,8,0:0:0:0:
192,192,152849,128,2,152968:0:0:0:0:
448,192,152849,128,0,153206:0:0:0:21:bass-drum.wav
64,192,152968,128,2,153206:0:0:0:0:
320,192,153087,128,4,153206:0:0:0:0:
192,192,153087,128,2,153206:0:0:0:21:bass-drum.wav
64,192,153325,128,2,153563:0:0:0:0:
448,192,153325,1,8,0:0:0:0:
192,192,153325,128,0,153682:0:0:0:21:bass-drum.wav
320,192,153563,128,4,153682:0:0:0:0:
320,192,153801,128,2,154039:0:0:0:0:
448,192,153801,128,0,154158:0:0:0:21:bass-drum.wav
64,192,153801,1,8,0:0:0:0:
192,192,154039,128,4,154158:0:0:0:0:
64,192,154039,1,0,0:0:0:0:
64,192,154277,1,0,0:0:0:21:bass-drum.wav
192,192,154277,1,8,0:0:0:0:
448,192,154277,128,2,154635:0:0:0:0:
64,192,154436,1,8,0:0:0:0:
320,192,154516,128,4,154635:0:0:0:0:
192,192,154635,1,0,0:0:0:0:
64,192,154635,128,4,154754:0:0:0:0:
320,192,154754,1,8,0:0:0:21:bass-drum.wav
448,192,154754,1,8,0:0:0:0:
320,192,154873,128,4,155111:0:0:0:0:
448,192,154873,128,2,155111:0:0:0:0:
192,192,154992,128,4,155111:0:0:0:0:
64,192,154992,128,2,155111:0:0:0:0:
320,192,155230,128,0,155587:0:0:0:21:bass-drum.wav
448,192,155230,128,2,155468:0:0:0:0:
64,192,155230,1,8,0:0:0:0:
192,192,155468,128,4,155587:0:0:0:0:
192,192,155706,128,2,155944:0:0:0:0:
448,192,155706,1,8,0:0:0:0:
64,192,155706,128,0,156063:0:0:0:21:bass-drum.wav
320,192,155944,128,4,156063:0:0:0:0:
448,192,155944,1,0,0:0:0:0:
320,192,156182,1,0,0:0:0:21:bass-drum.wav
448,192,156182,1,8,0:0:0:0:
64,192,156182,128,2,156539:0:0:0:0:
448,192,156341,1,8,0:0:0:0:
192,192,156420,128,4,156539:0:0:0:0:
320,192,156539,1,0,0:0:0:0:
448,192,156539,128,4,156658:0:0:0:0:
192,192,156658,1,8,0:0:0:0:
64,192,156658,1,8,0:0:0:21:bass-drum.wav
192,192,156777,128,4,157016:0:0:0:0:
64,192,156777,128,2,157016:0:0:0:0:
320,192,156897,128,4,157016:0:0:0:0:
448,192,156897,128,2,157016:0:0:0:0:
448,192,157135,128,2,157373:0:0:0:0:
64,192,157135,128,0,157492:0:0:0:21:bass-drum.wav
192,192,157135,1,8,0:0:0:0:
320,192,157373,128,4,157492:0:0:0:0:
448,192,157611,1,8,0:0:0:0:
64,192,157611,128,2,157849:0:0:0:0:
320,192,157611,128,0,157968:0:0:0:21:bass-drum.wav
448,192,157849,1,0,0:0:0:0:
192,192,157849,128,4,157968:0:0:0:0:
320,192,158087,128,2,158444:0:0:0:0:
64,192,158087,1,8,0:0:0:0:
192,192,158087,1,0,0:0:0:21:bass-drum.wav
64,192,158246,1,8,0:0:0:0:
448,192,158325,128,4,158444:0:0:0:0:
64,192,158444,128,4,158563:0:0:0:0:
192,192,158444,1,0,0:0:0:0:
192,192,158563,1,8,0:0:0:21:bass-drum.wav
448,192,158563,1,8,0:0:0:0:
320,192,158682,128,4,158801:0:0:0:0:
64,192,158682,128,2,158920:0:0:0:0:
192,192,158801,128,2,158920:0:0:0:0:
448,192,158801,128,4,158920:0:0:0:0:
320,192,158920,128,4,159039:0:0:0:0:
448,192,159039,1,8,0:0:0:0:
192,192,159039,1,2,0:0:0:0:
64,192,159039,128,0,159158:0:0:0:21:bass-drum.wav
320,192,159198,1,8,0:0:0:21:bass-drum.wav
192,192,159277,1,12,0:0:0:0:
64,192,159277,128,0,159397:0:0:0:21:bass-drum.wav
64,192,159516,1,8,0:0:0:0:
320,192,159516,1,2,0:0:0:0:
448,192,159516,128,0,159635:0:0:0:21:bass-drum.wav
192,192,159674,1,8,0:0:0:21:bass-drum.wav
320,192,159754,1,12,0:0:0:0:
448,192,159754,128,0,159873:0:0:0:21:bass-drum.wav
448,192,159992,1,2,0:0:0:0:
192,192,159992,1,8,0:0:0:0:
64,192,159992,128,0,160111:0:0:0:21:bass-drum.wav
320,192,160151,1,8,0:0:0:0:
192,192,160230,1,12,0:0:0:0:
64,192,160230,128,0,160349:0:0:0:21:bass-drum.wav
448,192,160230,1,2,0:0:0:0:
320,192,160389,1,8,0:0:0:0:
448,192,160468,1,8,0:0:0:0:
64,192,160468,128,0,160825:0:0:0:21:bass-drum.wav
192,192,160468,1,2,0:0:0:0:
320,192,160706,1,4,0:0:0:0:
448,192,160944,128,2,161063:0:0:0:0:
192,192,160944,128,0,161182:0:0:0:21:bass-drum.wav
64,192,160944,1,8,0:0:0:0:
320,192,161103,1,8,0:0:0:0:
448,192,161182,128,2,161301:0:0:0:0:
64,192,161182,128,4,161301:0:0:0:0:
320,192,161420,1,8,0:0:0:0:
448,192,161420,128,2,161777:0:0:0:0:
64,192,161420,128,2,161777:0:0:0:21:bass-drum.wav
192,192,161658,128,4,161777:0:0:0:0:
320,192,161897,1,8,0:0:0:0:
64,192,161897,128,2,162016:0:0:0:0:
448,192,161897,128,0,162135:0:0:0:21:bass-drum.wav
64,192,162135,128,2,162254:0:0:0:0:
320,192,162135,128,4,162254:0:0:0:0:
448,192,162254,128,2,162373:0:0:0:0:
320,192,162373,128,2,162730:0:0:0:21:bass-drum.wav
64,192,162373,1,8,0:0:0:0:
192,192,162373,1,2,0:0:0:0:
64,192,162531,128,8,162611:0:0:0:0:
192,192,162611,128,4,162849:0:0:0:0:
320,192,162849,1,8,0:0:0:0:
448,192,162849,128,2,162968:0:0:0:0:
64,192,162849,128,0,163087:0:0:0:21:bass-drum.wav
448,192,163087,128,2,163206:0:0:0:0:
192,192,163087,128,4,163206:0:0:0:0:
448,192,163325,1,8,0:0:0:0:
192,192,163325,128,0,163682:0:0:0:21:bass-drum.wav
320,192,163325,128,2,163563:0:0:0:0:
64,192,163563,128,4,163682:0:0:0:0:
320,192,163682,1,2,0:0:0:0:
448,192,163801,128,2,163920:0:0:0:0:
192,192,163801,128,0,164039:0:0:0:21:bass-drum.wav
64,192,163801,1,8,0:0:0:0:
320,192,164039,128,4,164158:0:0:0:0:
448,192,164039,128,2,164158:0:0:0:0:
192,192,164158,128,2,164277:0:0:0:0:
64,192,164277,128,0,164635:0:0:0:21:bass-drum.wav
320,192,164277,1,2,0:0:0:0:
448,192,164277,1,8,0:0:0:0:
320,192,164436,128,8,164516:0:0:0:0:
192,192,164516,128,4,164754:0:0:0:0:
64,192,164754,1,8,0:0:0:0:
320,192,164754,128,2,164873:0:0:0:0:
448,192,164754,128,0,164992:0:0:0:21:bass-drum.wav
320,192,164992,128,2,165111:0:0:0:0:
64,192,164992,128,4,165111:0:0:0:0:
448,192,165230,1,8,0:0:0:0:
64,192,165230,128,0,165587:0:0:0:21:bass-drum.wav
192,192,165230,128,2,165349:0:0:0:0:
192,192,165468,128,2,165587:0:0:0:0:
448,192,165468,128,4,165587:0:0:0:0:
192,192,165706,128,0,165944:0:0:0:21:bass-drum.wav
64,192,165706,1,8,0:0:0:0:
320,192,165706,128,2,165825:0:0:0:0:
320,192,165944,128,2,166063:0:0:0:0:
64,192,165944,128,4,166063:0:0:0:0:
448,192,166063,128,2,166182:0:0:0:0:
320,192,166182,1,8,0:0:0:0:
64,192,166182,1,2,0:0:0:0:
192,192,166182,128,0,166539:0:0:0:21:bass-drum.wav
448,192,166341,128,8,166420:0:0:0:0:
320,192,166420,128,4,166539:0:0:0:0:
64,192,166539,128,2,166658:0:0:0:0:
320,192,166658,128,2,166777:0:0:0:0:
192,192,166658,1,8,0:0:0:0:
448,192,166658,128,0,167016:0:0:0:21:bass-drum.wav
320,192,166897,128,2,167016:0:0:0:0:
192,192,166897,128,4,167016:0:0:0:0:
448,192,167135,1,8,0:0:0:0:
192,192,167135,128,0,167254:0:0:0:21:bass-drum.wav
64,192,167135,128,2,167254:0:0:0:0:
320,192,167254,128,2,167373:0:0:0:0:
64,192,167373,128,2,167492:0:0:0:0:
192,192,167373,128,4,167611:0:0:0:0:
320,192,167611,1,8,0:0:0:0:
448,192,167611,128,2,167730:0:0:0:0:
64,192,167611,128,0,167968:0:0:0:21:bass-drum.wav
192,192,167849,128,4,167968:0:0:0:0:
448,192,167849,128,2,167968:0:0:0:0:
64,192,168087,1,8,0:0:0:0:
448,192,168087,128,0,168444:0:0:0:0:
192,192,168087,128,0,168246:0:0:0:21:bass-drum.wav
320,192,168246,128,8,168325:0:0:0:12:bass-drum.wav
192,192,168325,1,0,0:0:0:21:bass-drum.wav
64,192,168325,128,4,168563:0:0:0:0:
448,192,168563,128,2,168682:0:0:0:0:
320,192,168563,1,8,0:0:0:0:
192,192,168563,128,0,168801:0:0:0:21:bass-drum.wav
320,192,168722,1,8,0:0:0:0:
448,192,168801,128,2,168920:0:0:0:0:
64,192,168801,128,4,168920:0:0:0:0:
320,192,169039,1,8,0:0:0:0:
64,192,169039,128,0,169397:0:0:0:21:bass-drum.wav
448,192,169039,128,2,169397:0:0:0:0:
192,192,169277,128,4,169397:0:0:0:0:
320,192,169516,1,8,0:0:0:0:
64,192,169516,128,2,169635:0:0:0:0:
448,192,169516,128,0,169754:0:0:0:21:bass-drum.wav
64,192,169754,128,2,169873:0:0:0:0:
320,192,169754,128,4,169873:0:0:0:0:
448,192,169873,128,2,169992:0:0:0:0:
64,192,169992,1,8,0:0:0:0:
192,192,169992,1,2,0:0:0:0:
320,192,169992,128,0,170349:0:0:0:21:bass-drum.wav
64,192,170151,128,8,170230:0:0:0:0:
192,192,170230,128,4,170468:0:0:0:0:
320,192,170468,1,8,0:0:0:0:
448,192,170468,128,2,170587:0:0:0:0:
64,192,170468,128,0,170706:0:0:0:21:bass-drum.wav
448,192,170706,128,2,170825:0:0:0:0:
192,192,170706,128,4,170825:0:0:0:0:
448,192,170944,1,8,0:0:0:0:
192,192,170944,128,0,171301:0:0:0:21:bass-drum.wav
64,192,170944,128,2,171063:0:0:0:0:
64,192,171182,128,4,171301:0:0:0:0:
320,192,171182,128,2,171301:0:0:0:0:
64,192,171420,1,8,0:0:0:0:
192,192,171420,128,0,171658:0:0:0:21:bass-drum.wav
448,192,171420,128,2,171539:0:0:0:0:
320,192,171658,128,2,171777:0:0:0:0:
448,192,171658,128,4,171777:0:0:0:0:
192,192,171777,128,2,171897:0:0:0:0:
320,192,171897,1,2,0:0:0:0:
64,192,171897,128,0,172254:0:0:0:21:bass-drum.wav
448,192,171897,1,8,0:0:0:0:
320,192,172055,128,8,172135:0:0:0:0:
192,192,172135,128,4,172373:0:0:0:0:
64,192,172373,1,8,0:0:0:0:
320,192,172373,128,2,172492:0:0:0:0:
448,192,172373,128,0,172611:0:0:0:21:bass-drum.wav
320,192,172611,128,2,172730:0:0:0:0:
64,192,172611,128,4,172730:0:0:0:0:
448,192,172849,1,8,0:0:0:0:
192,192,172849,128,2,172968:0:0:0:0:
64,192,172849,128,0,173206:0:0:0:21:bass-drum.wav
192,192,173087,128,4,173206:0:0:0:0:
448,192,173087,128,0,173206:0:0:0:0:
64,192,173325,1,8,0:0:0:0:
448,192,173325,128,2,173444:0:0:0:0:
192,192,173325,128,0,173563:0:0:0:21:bass-drum.wav
320,192,173563,128,4,173682:0:0:0:0:
64,192,173563,128,2,173682:0:0:0:0:
448,192,173682,128,2,173801:0:0:0:0:
320,192,173801,1,2,0:0:0:0:
64,192,173801,1,8,0:0:0:0:
192,192,173801,128,0,174039:0:0:0:21:bass-drum.wav
448,192,173960,1,8,0:0:0:0:
320,192,174039,1,12,0:0:0:21:bass-drum.wav
64,192,174119,1,8,0:0:0:21:bass-drum.wav
192,192,174198,1,8,0:0:0:21:bass-drum.wav
64,192,174277,1,8,0:0:0:21:bass-drum.wav
448,192,174277,128,2,174397:0:0:0:0:
192,192,174436,1,0,0:0:0:21:bass-drum.wav
448,192,174516,128,2,174635:0:0:0:0:
320,192,174516,1,8,0:0:0:21:bass-drum.wav
448,192,174754,1,8,0:0:0:0:
64,192,174754,128,0,174873:0:0:0:21:bass-drum.wav
192,192,174754,1,2,0:0:0:0:
64,192,174992,128,4,175111:0:0:0:0:
320,192,174992,1,8,0:0:0:21:bass-drum.wav
192,192,175111,1,8,0:0:0:21:bass-drum.wav
448,192,175230,128,8,175349:0:0:0:0:
64,192,175230,1,8,0:0:0:21:bass-drum.wav
320,192,175230,1,2,0:0:0:0:
448,192,175468,128,0,175587:0:0:0:21:bass-drum.wav
320,192,175468,1,8,0:0:0:0:
64,192,175706,1,8,0:0:0:0:
448,192,175706,128,0,176063:0:0:0:21:bass-drum.wav
192,192,175706,1,2,0:0:0:0:
64,192,175865,1,0,0:0:0:21:bass-drum.wav
320,192,175944,1,12,0:0:0:0:
192,192,175944,1,8,0:0:0:21:bass-drum.wav
448,192,176182,128,8,176361:0:0:0:0:
192,192,176182,128,10,176361:0:0:0:0:
64,192,176182,128,0,176420:0:0:0:21:bass-drum.wav
320,192,176420,128,6,176539:0:0:0:0:
448,192,176420,128,2,176539:0:0:0:0:
448,192,176658,128,8,176897:0:0:0:0:
320,192,176658,128,10,176837:0:0:0:0:
192,192,176658,128,0,176777:0:0:0:21:bass-drum.wav
192,192,176897,128,6,177016:0:0:0:0:
64,192,176897,128,2,177016:0:0:0:0:
320,192,177135,128,10,177313:0:0:0:0:
192,192,177135,128,8,177373:0:0:0:21:bass-drum.wav
64,192,177373,1,8,0:0:0:0:
320,192,177373,128,6,177492:0:0:0:0:
448,192,177373,128,2,177492:0:0:0:0:
192,192,177531,128,2,177690:0:0:0:0:
320,192,177611,1,8,0:0:0:21:bass-drum.wav
448,192,177611,1,8,0:0:0:0:
64,192,177611,1,8,0:0:0:0:
320,192,177770,128,2,177849:0:0:0:0:
192,192,177849,128,6,178087:0:0:0:0:
448,192,177849,128,8,178027:0:0:0:0:
320,192,178087,128,10,178266:0:0:0:0:
448,192,178087,128,8,178325:0:0:0:21:bass-drum.wav
192,192,178325,128,6,178444:0:0:0:0:
64,192,178325,128,2,178444:0:0:0:0:
320,192,178563,128,0,178682:0:0:0:21:bass-drum.wav
192,192,178563,128,10,178742:0:0:0:0:
64,192,178563,128,8,178801:0:0:0:0:
320,192,178801,128,6,178920:0:0:0:0:
448,192,178801,128,2,178920:0:0:0:0:
192,192,179039,128,10,179218:0:0:0:0:
448,192,179039,128,8,179277:0:0:0:21:bass-drum.wav
64,192,179277,128,2,179397:0:0:0:0:
192,192,179277,128,6,179397:0:0:0:0:
320,192,179436,128,2,179595:0:0:0:0:
64,192,179516,1,8,0:0:0:0:
448,192,179516,1,8,0:0:0:0:
192,192,179516,1,8,0:0:0:21:bass-drum.wav
192,192,179674,128,2,179754:0:0:0:0:
320,192,179754,128,8,179932:0:0:0:0:
64,192,179754,128,6,179992:0:0:0:0:
192,192,179992,128,8,180230:0:0:0:21:bass-drum.wav
448,192,179992,128,10,180170:0:0:0:0:
320,192,180230,128,6,180349:0:0:0:0:
448,192,180230,128,2,180349:0:0:0:0:
192,192,180468,128,10,180647:0:0:0:0:
64,192,180468,128,8,180587:0:0:0:0:
320,192,180468,128,0,180706:0:0:0:21:bass-drum.wav
448,192,180706,128,2,180825:0:0:0:0:
64,192,180706,128,6,180825:0:0:0:0:
448,192,180944,128,10,181123:0:0:0:0:
192,192,180944,128,8,181182:0:0:0:21:bass-drum.wav
64,192,181182,128,2,181301:0:0:0:0:
320,192,181182,128,6,181301:0:0:0:0:
192,192,181341,128,2,181500:0:0:0:0:
448,192,181420,1,8,0:0:0:0:
320,192,181420,1,8,0:0:0:21:bass-drum.wav
64,192,181420,1,8,0:0:0:0:
320,192,181579,128,2,181658:0:0:0:0:
448,192,181658,128,6,181897:0:0:0:0:
192,192,181658,128,8,181837:0:0:0:0:
64,192,181897,128,8,182135:0:0:0:21:bass-drum.wav
320,192,181897,128,10,182075:0:0:0:0:
192,192,182135,128,6,182254:0:0:0:0:
448,192,182135,128,2,182254:0:0:0:0:
320,192,182373,128,0,182492:0:0:0:21:bass-drum.wav
192,192,182373,128,10,182551:0:0:0:0:
64,192,182373,128,8,182611:0:0:0:0:
448,192,182492,128,8,182730:0:0:0:0:
320,192,182611,128,6,182849:0:0:0:0:
64,192,182730,128,2,183087:0:0:0:0:
192,192,182849,128,2,183087:0:0:0:21:bass-drum.wav
448,192,182849,128,10,183027:0:0:0:0:
320,192,183087,128,14,183206:0:0:0:0:
448,192,183087,128,2,183206:0:0:0:0:
192,192,183206,1,8,0:0:0:21:bass-drum.wav
64,192,183206,1,8,0:0:0:0:
448,192,183325,1,8,0:0:0:0:
64,192,183325,128,2,183563:0:0:0:0:
192,192,183484,128,2,183563:0:0:0:0:
320,192,183524,128,2,183563:0:0:0:0:
448,192,183563,128,12,183801:0:0:0:0:
192,192,183801,128,10,183980:0:0:0:0:
64,192,183801,128,8,184039:0:0:0:0:
320,192,183801,128,0,183920:0:0:0:21:bass-drum.wav
320,192,184039,128,6,184158:0:0:0:0:
448,192,184039,128,2,184158:0:0:0:0:
192,192,184277,128,0,184397:0:0:0:21:bass-drum.wav
320,192,184277,128,10,184456:0:0:0:0:
448,192,184277,128,8,184516:0:0:0:0:
192,192,184516,128,6,184635:0:0:0:0:
64,192,184516,128,2,184635:0:0:0:0:
320,192,184754,128,10,184932:0:0:0:0:
192,192,184754,128,8,184992:0:0:0:21:bass-drum.wav
64,192,184992,1,8,0:0:0:0:
320,192,184992,128,6,185111:0:0:0:0:
448,192,184992,128,2,185111:0:0:0:0:
192,192,185151,128,2,185309:0:0:0:0:
448,192,185230,1,8,0:0:0:0:
320,192,185230,1,8,0:0:0:21:bass-drum.wav
64,192,185230,1,8,0:0:0:0:
320,192,185389,128,2,185468:0:0:0:0:
448,192,185468,128,8,185647:0:0:0:0:
192,192,185468,128,6,185706:0:0:0:0:
320,192,185706,128,10,185885:0:0:0:0:
448,192,185706,128,8,185944:0:0:0:21:bass-drum.wav
192,192,185944,128,6,186063:0:0:0:0:
64,192,185944,128,2,186063:0:0:0:0:
320,192,186182,128,8,186301:0:0:0:0:
192,192,186182,128,10,186361:0:0:0:0:
64,192,186182,128,0,186420:0:0:0:21:bass-drum.wav
320,192,186420,128,6,186539:0:0:0:0:
448,192,186420,128,2,186539:0:0:0:0:
448,192,186658,128,8,186897:0:0:0:21:bass-drum.wav
192,192,186658,128,10,186837:0:0:0:0:
64,192,186897,128,2,187016:0:0:0:0:
192,192,186897,128,6,187016:0:0:0:0:
320,192,187055,128,2,187214:0:0:0:0:
64,192,187135,1,8,0:0:0:0:
448,192,187135,1,8,0:0:0:0:
192,192,187135,1,8,0:0:0:21:bass-drum.wav
192,192,187293,128,2,187373:0:0:0:0:
64,192,187373,128,8,187611:0:0:0:0:
320,192,187373,128,6,187551:0:0:0:0:
192,192,187611,128,8,187849:0:0:0:21:bass-drum.wav
448,192,187611,128,10,187789:0:0:0:0:
320,192,187849,128,6,187968:0:0:0:0:
448,192,187849,128,2,187968:0:0:0:0:
64,192,188087,128,8,188266:0:0:0:0:
320,192,188087,128,2,188325:0:0:0:0:
64,192,188325,128,2,188444:0:0:0:0:
192,192,188325,128,6,188444:0:0:0:0:
320,192,188563,128,8,188742:0:0:0:0:
192,192,188563,128,2,188801:0:0:0:0:
320,192,188801,128,6,188920:0:0:0:0:
448,192,188801,128,2,188920:0:0:0:0:
192,192,188960,128,2,189119:0:0:0:0:
64,192,189039,1,8,0:0:0:0:
448,192,189039,1,8,0:0:0:0:
320,192,189039,1,8,0:0:0:0:
320,192,189198,128,2,189277:0:0:0:0:
448,192,189277,128,8,189397:0:0:0:0:
192,192,189277,128,6,189516:0:0:0:0:
448,192,189516,128,0,189754:0:0:0:0:
64,192,189516,1,8,0:0:0:0:
64,192,189635,1,8,0:0:0:0:
320,192,189754,128,6,189873:0:0:0:0:
192,192,189754,1,8,0:0:0:0:
192,192,189873,1,8,0:0:0:0:
448,192,189992,128,0,190111:0:0:0:0:
64,192,189992,1,8,0:0:0:0:
320,192,190111,128,0,190230:0:0:0:0:
192,192,190111,1,8,0:0:0:0:
64,192,190230,128,6,190349:0:0:0:0:
448,192,190230,1,8,0:0:0:0:
192,192,190349,128,0,190468:0:0:0:0:
320,192,190349,1,8,0:0:0:0:
64,192,190468,1,8,0:0:0:0:
448,192,190468,128,0,190706:0:0:0:0:
64,192,190587,1,8,0:0:0:0:
320,192,190706,128,6,190825:0:0:0:0:
192,192,190706,1,8,0:0:0:0:
192,192,190825,1,8,0:0:0:0:
320,192,190944,1,8,0:0:0:0:
448,192,190944,1,8,0:0:0:0:
64,192,190944,128,2,191182:0:0:0:0:
192,192,191103,128,2,191182:0:0:0:0:
320,192,191143,128,2,191182:0:0:0:0:
448,192,191182,128,12,191420:0:0:0:0:
320,192,191420,128,10,191897:0:0:0:0:
192,192,191420,128,10,192373:0:0:0:0:
64,192,191420,128,14,193325:0:0:0:21:bass-drum.wav
