osu file format v14

[General]
AudioFilename: audio.ogg
AudioLeadIn: 0
PreviewTime: 68864
Countdown: 0
SampleSet: Normal
StackLeniency: 0.7
Mode: 1
LetterboxInBreaks: 0
WidescreenStoryboard: 0

[Editor]
Bookmarks: 2748,13782,24816,35851,46885,57920,68954,79989,91023,102054,113088,124123
DistanceSpacing: 2.8
BeatDivisor: 4
GridSize: 32
TimelineZoom: 2.599999

[Metadata]
Title:Koinatsu (Cut Ver.)
TitleUnicode:恋夏 (Cut Ver.)
Artist:CY8ER
ArtistUnicode:CY8ER
Creator:komasy
Version:Summer
Source:
Tags:short ver サイバー cyber yunomi ハローニュージェネレーション hello new generation japanese jpop pop electronic kawaii edm 苺りなはむ ichigo rinahamu koinumaru pochi ましろ mashiro 病夢やみい yamiyume yammy 藤城アンナ fujishiro anna
BeatmapID:3212965
BeatmapSetID:1573592

[Difficulty]
HPDrainRate:6
CircleSize:5
OverallDifficulty:6
ApproachRate:10
SliderMultiplier:1.4
SliderTickRate:1

[Events]
//Background and Video events
0,0,"92262175_p0.png",0,100
//Break Periods
2,91219,96776
//Storyboard Layer 0 (Background)
//Storyboard Layer 1 (Fail)
//Storyboard Layer 2 (Pass)
//Storyboard Layer 3 (Foreground)
//Storyboard Layer 4 (Overlay)
//Storyboard Sound Samples

[TimingPoints]
-14,344.827586206897,4,1,0,5,1,0
2744,344.827586206897,4,1,0,80,1,0
2744,-125,4,1,0,80,0,0
11105,-124.033469191327,4,1,0,80,0,0
11191,-123.081770605119,4,1,0,80,0,0
11277,-122.144714614982,4,1,0,80,0,0
11363,-121.221672010522,4,1,0,80,0,0
11449,-120.312475561528,4,1,0,80,0,0
11536,-119.416816037201,4,1,0,80,0,0
11622,-118.534533851092,4,1,0,80,0,0
11708,-117.665054655418,4,1,0,80,0,0
11880,-115.963810014171,4,1,0,80,0,0
12053,-114.31118935077,4,1,0,80,0,0
12225,-112.704883389892,4,1,0,80,0,0
12311,-111.918666466705,4,1,0,80,0,0
12398,-111.1432191522,4,1,0,80,0,0
12570,-109.624120814551,4,1,0,80,0,0
12628,-109.126940822643,4,1,0,80,0,0
12685,-108.634368220536,4,1,0,80,0,0
12743,-108.14610538838,4,1,0,80,0,0
12829,-107.421885490419,4,1,0,80,0,0
12915,-106.707300806814,4,1,0,80,0,0
13001,-106.002160324027,4,1,0,80,0,0
13087,-105.306388938617,4,1,0,80,0,0
13346,-103.272498946621,4,1,0,80,0,0
13432,-102.611988158577,4,1,0,80,0,0
13605,-101.315788140582,4,1,0,80,0,0
13777,-100.051926950087,4,1,0,90,0,0
19467,-98.7679683626444,4,1,0,90,0,0
19553,-98.1632671091212,4,1,0,90,0,0
19639,-97.5659252957223,4,1,0,90,0,0
19811,-96.3927890482369,4,1,0,90,0,0
19984,-95.2475292790905,4,1,0,90,0,0
20070,-94.6850444025516,4,1,0,90,0,0
20243,-93.5797725450048,4,1,0,90,0,0
20329,-93.0367569619405,4,1,0,90,0,0
20415,-92.5000069375005,4,1,0,90,0,0
20501,-91.9694146514635,4,1,0,90,0,0
20674,-90.9262842428386,4,1,0,90,0,0
20846,-89.9065511307547,4,1,0,90,0,0
20932,-89.4052139332662,4,1,0,90,0,0
21018,-88.909436847627,4,1,0,90,0,0
21191,-87.9341970816399,4,1,0,90,0,0
21363,-86.9801198238131,4,1,0,90,0,0
21449,-86.5108030365292,4,1,0,90,0,0
21536,-86.0465236343987,4,1,0,90,0,0
21622,-85.5872009476215,4,1,0,90,0,0
21708,-85.1327560197372,4,1,0,90,0,0
21794,-84.683111562378,4,1,0,90,0,0
21880,-84.2381919114488,4,1,0,90,0,0
22053,-83.36223224051,4,1,0,90,0,0
22139,-82.9310486382307,4,1,0,90,0,0
22225,-82.5043025993806,4,1,0,90,0,0
22311,-82.081925970311,4,1,0,90,0,0
22398,-81.6638519859016,4,1,0,90,0,0
22484,-81.2500152343779,4,1,0,90,0,0
22570,-80.8403516231934,4,1,0,90,0,0
22656,-80.4347983459388,4,1,0,90,0,0
22743,-80,4,1,0,90,0,0
22915,-81.3559101407701,4,1,0,90,0,0
23087,-82.7586435196258,4,1,0,90,0,0
23260,-84.2105263157895,4,1,0,90,0,0
23605,-87.2727526611644,4,1,0,90,0,0
23691,-88.0733686390111,4,1,0,90,0,0
23777,-88.8888888888889,4,1,0,90,0,0
23949,-90.5660103951667,4,1,0,90,0,0
24122,-92.3077207100679,4,1,0,80,0,0
24294,-94.1176470588235,4,1,0,80,0,0
24467,-95.9999692800098,4,1,0,80,0,0
24812,-100,4,1,0,100,0,1
35847,-100,4,1,0,90,0,0
63605,-98.970802623518,4,1,0,90,0,0
63691,-98.4641560932574,4,1,0,90,0,0
63777,-97.9626703448384,4,1,0,90,0,0
63949,-96.9747749215474,4,1,0,90,0,0
64122,-96.0066974272125,4,1,0,90,0,0
64294,-95.0576667335239,4,1,0,90,0,0
64380,-94.5901974286601,4,1,0,90,0,0
64467,-94.1272148133646,4,1,0,90,0,0
64639,-93.2148882819564,4,1,0,90,0,0
64811,-92.3199921712647,4,1,0,90,0,0
64984,-91.4421153121651,4,1,0,90,0,0
65070,-91.0094495111427,4,1,0,90,0,0
65156,-90.5808588152386,4,1,0,90,0,0
65329,-89.7355940720667,4,1,0,90,0,0
65501,-88.9060378757502,4,1,0,90,0,0
65587,-88.4969065906301,4,1,0,90,0,0
65674,-88.0916011705612,4,1,0,90,0,0
65760,-87.6899913274599,4,1,0,90,0,0
65846,-87.2919505473642,4,1,0,90,0,0
66018,-86.5067618010362,4,1,0,90,0,0
66191,-85.7354991263553,4,1,0,90,0,0
66277,-85.3550385506032,4,1,0,90,0,0
66363,-84.9779397268469,4,1,0,90,0,0
66449,-84.6040867158047,4,1,0,90,0,0
66536,-84.233579716554,4,1,0,90,0,0
66622,-83.8663036933043,4,1,0,90,0,0
66708,-83.5021468401953,4,1,0,90,0,0
66794,-83.1412078588395,4,1,0,90,0,0
66880,-82.7833757736106,4,1,0,90,0,0
66967,-82.4285426963366,4,1,0,90,0,0
67053,-82.0768058333627,4,1,0,90,0,0
67139,-81.7280580596124,4,1,0,90,0,0
67225,-81.3822614340043,4,1,0,90,0,0
67311,-81.0393129811203,4,1,0,90,0,0
67398,-80.6993079227353,4,1,0,90,0,0
67484,-80.3621439655664,4,1,0,90,0,0
67570,-80.0277216027632,4,1,0,70,0,0
67800,-83.6940547091297,4,1,0,70,0,0
67915,-85.6721105581452,4,1,0,70,0,0
68030,-87.7458529116268,4,1,0,70,0,0
68145,-89.9224778318612,4,1,0,70,0,0
68260,-92.2098363920873,4,1,0,70,0,0
68490,-97.1524613576085,4,1,0,70,0,0
68547,-99.8278967060787,4,1,0,90,0,0
68950,-83.3333333333333,4,1,0,100,0,1
71364,-83.3333333333333,4,1,0,100,0,0
71709,-83.3333333333333,4,1,0,100,0,1
73778,-83.3333333333333,4,1,0,100,0,0
74468,-83.3333333333333,4,1,0,100,0,1
76881,-83.3333333333333,4,1,0,100,0,0
77226,-83.3333333333333,4,1,0,100,0,1
78605,-85.5262989092831,4,1,0,100,0,1
78720,-87.837802227918,4,1,0,100,0,1
78834,-90.2778028549453,4,1,0,100,0,1
78949,-92.8571494897964,4,1,0,100,0,1
79064,-95.5882212370263,4,1,0,100,0,1
79179,-98.4848111799958,4,1,0,100,0,1
79295,-101.562539672867,4,1,0,100,0,0
79467,-106.557324643939,4,1,0,100,0,0
79639,-112.068926872784,4,1,0,100,0,0
79697,-114.035097722377,4,1,0,100,0,0
79754,-116.071490752584,4,1,0,100,0,0
79811,-118.181796694219,4,1,0,100,0,0
79869,-120.370403806594,4,1,0,100,0,0
79926,-122.641451584221,4,1,0,100,0,0
79985,-125,4,1,0,100,0,1
91019,-100,4,1,0,100,0,0
91106,-104.166666666667,4,1,0,20,0,0
92399,-108.695652173913,4,1,0,20,0,0
93778,-113.636363636364,4,1,0,20,0,0
95157,-119.047619047619,4,1,0,20,0,0
96537,-125,4,1,0,20,0,0
97140,-125,4,1,0,60,0,0
100674,-125,4,1,0,75,0,0
100760,-123.076923076923,4,1,0,75,0,0
100846,-121.212121212121,4,1,0,75,0,0
100932,-119.402985074627,4,1,0,75,0,0
101018,-117.647058823529,4,1,0,75,0,0
101191,-114.285714285714,4,1,0,75,0,0
101363,-111.111111111111,4,1,0,75,0,0
101622,-106.666666666667,4,1,0,75,0,0
101708,-105.263157894737,4,1,0,75,0,0
101794,-103.896103896104,4,1,0,75,0,0
101880,-102.564102564103,4,1,0,75,0,0
101968,-100,4,1,0,90,0,0
107743,-98.7654320987654,4,1,0,90,0,0
107829,-98.159509202454,4,1,0,90,0,0
107915,-97.5609756097561,4,1,0,90,0,0
108087,-96.3855421686747,4,1,0,90,0,0
108260,-95.2380952380952,4,1,0,90,0,0
108432,-94.1176470588235,4,1,0,90,0,0
108518,-93.5672514619883,4,1,0,90,0,0
108605,-93.0232558139535,4,1,0,90,0,0
108691,-92.485549132948,4,1,0,90,0,0
108777,-91.9540229885058,4,1,0,90,0,0
108949,-90.9090909090909,4,1,0,90,0,0
109122,-89.8876404494382,4,1,0,90,0,0
109208,-89.3854748603352,4,1,0,90,0,0
109294,-88.8888888888889,4,1,0,90,0,0
109467,-87.9120879120879,4,1,0,90,0,0
109639,-86.9565217391304,4,1,0,90,0,0
109725,-86.4864864864865,4,1,0,90,0,0
109811,-86.0215053763441,4,1,0,90,0,0
109898,-85.5614973262032,4,1,0,90,0,0
109984,-85.1063829787234,4,1,0,90,0,0
110156,-84.2105263157895,4,1,0,90,0,0
110329,-83.3333333333333,4,1,0,90,0,0
110415,-82.9015544041451,4,1,0,90,0,0
110501,-82.4742268041237,4,1,0,90,0,0
110587,-82.0512820512821,4,1,0,90,0,0
110674,-81.6326530612245,4,1,0,90,0,0
110760,-81.2182741116751,4,1,0,90,0,0
110846,-80.8080808080808,4,1,0,90,0,0
110932,-80.4020100502513,4,1,0,90,0,0
111018,-80,4,1,0,90,0,0
111191,-83.2857910276217,4,1,0,90,0,0
111363,-86.8530533190894,4,1,0,90,0,0
111449,-90.7395728888304,4,1,0,70,0,0
111622,-100,4,1,0,5,0,0
112139,-125,4,1,0,80,0,0
112656,-125,4,1,0,100,0,0
113001,-86.9565217391304,4,1,0,100,0,0
113088,-86.9565217391304,4,1,0,100,0,1
122894,-86.95652173913,4,1,0,90,0,1
123067,-90.89882140302,4,1,0,90,0,1
123239,-95.241852757832,4,1,0,90,0,1
123412,-99.991715682214,4,1,0,90,0,1
123498,-102.548853016143,4,1,0,90,0,1
123584,-105.272338755397,4,1,0,90,0,1
123756,-111.105997146408,4,1,0,90,0,1
123821,-113.184546136534,4,1,0,90,0,1
123886,-115.380938724787,4,1,0,90,0,1
123929,-117.624129025971,4,1,0,90,0,1
123994,-119.998011631953,4,1,0,90,0,1
124058,-122.426209554722,4,1,0,90,0,1
124123,-125,4,1,0,80,0,0

[HitObjects]
256,192,1365,12,0,2054,0:0:0:0:
352,96,2744,5,8,0:0:0:0:
352,96,2916,1,8,0:0:0:0:
352,96,3088,1,8,0:0:0:0:
352,96,3433,1,8,0:0:0:0:
352,96,3778,1,8,0:0:0:0:
352,96,3950,1,8,0:0:0:0:
352,96,4123,1,8,0:0:0:0:
352,96,4295,1,8,0:0:0:0:
352,96,4468,1,8,0:0:0:0:
352,96,4812,1,8,0:0:0:0:
352,288,5157,1,12,0:0:0:0:
352,96,5502,1,8,0:0:0:0:
352,96,5675,1,8,0:0:0:0:
352,96,5847,1,8,0:0:0:0:
352,96,6192,1,8,0:0:0:0:
352,96,6537,1,8,0:0:0:0:
352,96,6709,1,8,0:0:0:0:
160,96,6881,1,0,0:0:0:0:
160,96,6968,1,0,0:0:0:0:
352,96,7054,1,8,0:0:0:0:
352,96,7226,1,8,0:0:0:0:
160,96,7312,1,0,0:0:0:0:
160,96,7399,1,0,0:0:0:0:
352,96,7571,1,8,0:0:0:0:
160,96,7744,1,0,0:0:0:0:
160,96,7830,1,0,0:0:0:0:
352,96,7916,1,8,0:0:0:0:
160,96,8261,1,0,0:0:0:0:
352,96,8433,1,8,0:0:0:0:
160,96,8519,1,0,0:0:0:0:
352,96,8606,1,8,0:0:0:0:
352,96,8950,1,8,0:0:0:0:
160,96,9123,1,0,0:0:0:0:
352,96,9295,1,8,0:0:0:0:
352,96,9468,1,8,0:0:0:0:
160,96,9640,1,0,0:0:0:0:
352,96,9812,1,8,0:0:0:0:
160,96,9899,1,0,0:0:0:0:
352,96,9985,1,8,0:0:0:0:
160,96,10157,1,0,0:0:0:0:
352,96,10330,1,8,0:0:0:0:
352,288,10675,1,12,0:0:0:0:
160,96,11019,5,0,0:0:0:0:
352,96,11106,1,8,0:0:0:0:
352,96,11192,1,8,0:0:0:0:
352,96,11278,1,8,0:0:0:0:
160,96,11364,1,0,0:0:0:0:
352,96,11450,1,8,0:0:0:0:
352,96,11537,1,8,0:0:0:0:
352,96,11623,1,8,0:0:0:0:
160,96,11709,1,0,0:0:0:0:
352,96,11881,1,8,0:0:0:0:
160,96,12054,1,0,0:0:0:0:
352,96,12226,1,8,0:0:0:0:
352,96,12312,1,8,0:0:0:0:
160,96,12399,1,0,0:0:0:0:
160,96,12571,1,0,0:0:0:0:
160,96,12629,1,0,0:0:0:0:
160,96,12686,1,0,0:0:0:0:
352,96,12744,1,8,0:0:0:0:
352,96,12830,1,8,0:0:0:0:
160,96,12916,1,0,0:0:0:0:
160,96,13002,1,0,0:0:0:0:
352,96,13088,1,8,0:0:0:0:
352,96,13347,1,8,0:0:0:0:
352,96,13433,1,8,0:0:0:0:
352,96,13606,1,8,0:0:0:0:
160,288,13778,1,4,0:0:0:0:
352,96,14037,1,8,0:0:0:0:
160,96,14123,1,0,0:0:0:0:
352,96,14295,1,8,0:0:0:0:
160,96,14468,1,0,0:0:0:0:
352,96,14554,1,8,0:0:0:0:
352,96,14726,1,8,0:0:0:0:
160,96,14812,1,0,0:0:0:0:
352,96,14985,1,8,0:0:0:0:
160,96,15157,1,0,0:0:0:0:
352,96,15330,1,8,0:0:0:0:
352,96,15416,1,8,0:0:0:0:
160,96,15502,1,0,0:0:0:0:
352,96,15675,1,8,0:0:0:0:
160,96,15847,1,0,0:0:0:0:
160,96,16106,1,0,0:0:0:0:
352,96,16192,1,8,0:0:0:0:
352,96,16364,1,8,0:0:0:0:
160,96,16537,1,0,0:0:0:0:
160,96,16709,1,0,0:0:0:0:
352,96,16795,1,8,0:0:0:0:
160,96,16881,1,0,0:0:0:0:
352,96,17054,1,8,0:0:0:0:
160,96,17226,1,0,0:0:0:0:
352,96,17312,1,8,0:0:0:0:
352,96,17485,1,8,0:0:0:0:
160,96,17571,1,0,0:0:0:0:
352,96,17744,1,8,0:0:0:0:
160,96,17916,1,0,0:0:0:0:
160,96,18002,1,0,0:0:0:0:
352,96,18088,1,8,0:0:0:0:
352,96,18175,1,8,0:0:0:0:
160,96,18261,1,0,0:0:0:0:
352,96,18433,1,8,0:0:0:0:
160,96,18606,1,0,0:0:0:0:
352,96,18778,1,8,0:0:0:0:
160,96,18864,1,0,0:0:0:0:
352,96,18950,1,8,0:0:0:0:
352,96,19123,1,8,0:0:0:0:
160,96,19295,5,0,0:0:0:0:
160,96,19468,1,0,0:0:0:0:
352,96,19554,1,8,0:0:0:0:
160,96,19640,1,0,0:0:0:0:
352,96,19812,1,8,0:0:0:0:
160,96,19985,1,0,0:0:0:0:
160,96,20071,1,0,0:0:0:0:
160,96,20244,1,0,0:0:0:0:
352,96,20330,1,8,0:0:0:0:
352,96,20416,1,8,0:0:0:0:
160,96,20502,1,0,0:0:0:0:
352,96,20675,1,8,0:0:0:0:
160,96,20847,1,0,0:0:0:0:
352,96,20933,1,8,0:0:0:0:
160,96,21019,1,0,0:0:0:0:
352,96,21192,1,8,0:0:0:0:
160,96,21364,1,0,0:0:0:0:
352,96,21450,1,8,0:0:0:0:
352,96,21537,1,8,0:0:0:0:
160,96,21623,1,0,0:0:0:0:
352,96,21709,1,8,0:0:0:0:
160,96,21881,1,0,0:0:0:0:
160,96,22054,1,8,0:0:0:0:
352,96,22140,1,0,0:0:0:0:
352,96,22226,1,0,0:0:0:0:
352,96,22312,1,0,0:0:0:0:
160,96,22399,1,8,0:0:0:0:
352,96,22485,1,8,0:0:0:0:
160,96,22571,1,0,0:0:0:0:
160,96,22657,1,0,0:0:0:0:
352,96,22744,5,8,0:0:0:0:
352,96,22916,1,8,0:0:0:0:
160,96,23088,1,0,0:0:0:0:
352,288,23261,1,12,0:0:0:0:
160,96,23606,1,0,0:0:0:0:
352,96,23692,1,8,0:0:0:0:
352,96,23778,1,8,0:0:0:0:
160,96,23950,1,0,0:0:0:0:
352,96,24123,1,8,0:0:0:0:
160,96,24295,1,0,0:0:0:0:
352,288,24468,1,12,0:0:0:0:
160,288,24812,1,4,0:0:0:0:
352,96,24985,1,8,0:0:0:0:
352,96,25071,1,8,0:0:0:0:
160,96,25157,1,0,0:0:0:0:
160,96,25330,1,0,0:0:0:0:
352,96,25502,1,8,0:0:0:0:
160,96,25675,1,0,0:0:0:0:
352,96,25761,1,8,0:0:0:0:
160,96,25847,1,0,0:0:0:0:
352,96,26019,1,8,0:0:0:0:
160,96,26192,1,0,0:0:0:0:
352,96,26364,1,8,0:0:0:0:
352,96,26450,1,8,0:0:0:0:
160,96,26537,1,0,0:0:0:0:
160,96,26709,1,8,0:0:0:0:
160,96,26881,1,0,0:0:0:0:
160,96,26968,1,0,0:0:0:0:
352,288,27054,1,8,0:0:0:0:
160,96,27140,1,0,0:0:0:0:
352,288,27226,1,8,0:0:0:0:
160,96,27571,1,0,0:0:0:0:
352,96,27657,1,8,0:0:0:0:
352,96,27744,1,8,0:0:0:0:
160,96,27916,1,0,0:0:0:0:
352,96,28088,1,8,0:0:0:0:
160,96,28175,1,0,0:0:0:0:
352,96,28261,1,8,0:0:0:0:
160,96,28433,1,0,0:0:0:0:
352,96,28519,1,8,0:0:0:0:
160,96,28606,1,0,0:0:0:0:
160,96,28692,1,0,0:0:0:0:
352,96,28778,1,8,0:0:0:0:
160,96,28950,1,0,0:0:0:0:
352,96,29123,1,8,0:0:0:0:
160,96,29209,1,0,0:0:0:0:
352,96,29295,1,8,0:0:0:0:
352,96,29381,1,8,0:0:0:0:
160,96,29468,1,0,0:0:0:0:
352,96,29640,1,8,0:0:0:0:
160,96,29812,1,0,0:0:0:0:
352,96,29899,1,8,0:0:0:0:
352,96,29985,1,8,0:0:0:0:
352,96,30157,1,8,0:0:0:0:
160,288,30330,1,4,0:0:0:0:
352,96,30502,1,8,0:0:0:0:
352,96,30588,1,8,0:0:0:0:
160,96,30675,1,0,0:0:0:0:
160,96,30847,1,0,0:0:0:0:
352,96,31019,1,8,0:0:0:0:
160,96,31192,1,0,0:0:0:0:
352,96,31278,1,8,0:0:0:0:
160,96,31364,1,0,0:0:0:0:
352,96,31537,1,8,0:0:0:0:
160,96,31709,1,0,0:0:0:0:
352,96,31881,1,8,0:0:0:0:
352,96,31968,1,8,0:0:0:0:
160,96,32054,1,0,0:0:0:0:
160,96,32226,1,8,0:0:0:0:
352,96,32399,1,0,0:0:0:0:
160,96,32485,1,0,0:0:0:0:
352,288,32571,1,8,0:0:0:0:
160,96,32657,1,0,0:0:0:0:
352,288,32744,1,8,0:0:0:0:
160,96,33088,1,0,0:0:0:0:
352,96,33175,1,8,0:0:0:0:
352,96,33261,1,8,0:0:0:0:
352,96,33347,1,8,0:0:0:0:
160,96,33433,1,0,0:0:0:0:
160,96,33606,1,0,0:0:0:0:
352,96,33778,1,8,0:0:0:0:
160,96,33950,1,0,0:0:0:0:
352,96,34037,1,8,0:0:0:0:
160,96,34123,1,0,0:0:0:0:
352,288,34295,1,12,0:0:0:0:
352,288,34640,1,12,0:0:0:0:
160,288,34812,1,4,0:0:0:0:
160,288,34985,1,4,0:0:0:0:
160,96,35157,1,0,0:0:0:0:
160,96,35244,1,0,0:0:0:0:
353,95,35330,1,8,0:0:0:0:
160,96,35502,1,0,0:0:0:0:
160,96,35560,1,0,0:0:0:0:
160,96,35617,1,0,0:0:0:0:
353,95,35675,1,8,0:0:0:0:
353,95,35732,1,8,0:0:0:0:
353,95,35789,1,8,0:0:0:0:
160,96,35847,5,0,0:0:0:0:
160,96,36019,1,0,0:0:0:0:
160,96,36192,1,0,0:0:0:0:
352,96,36537,1,8,0:0:0:0:
160,96,36709,1,0,0:0:0:0:
160,96,37054,1,0,0:0:0:0:
352,96,37226,1,8,0:0:0:0:
160,96,37399,1,0,0:0:0:0:
160,96,37571,1,0,0:0:0:0:
352,96,37916,1,8,0:0:0:0:
160,96,38088,1,0,0:0:0:0:
352,96,38175,1,8,0:0:0:0:
160,96,38261,1,0,0:0:0:0:
352,96,38433,1,8,0:0:0:0:
160,96,38606,1,0,0:0:0:0:
160,96,38778,1,0,0:0:0:0:
160,96,38950,1,0,0:0:0:0:
352,96,39295,1,8,0:0:0:0:
160,96,39468,1,0,0:0:0:0:
160,96,39812,1,0,0:0:0:0:
352,96,39985,1,8,0:0:0:0:
352,96,40157,1,8,0:0:0:0:
160,96,40330,1,0,0:0:0:0:
160,96,40502,1,0,0:0:0:0:
352,96,40675,1,8,0:0:0:0:
160,96,40761,1,0,0:0:0:0:
160,96,40933,1,0,0:0:0:0:
352,96,41019,1,8,0:0:0:0:
352,96,41192,1,8,0:0:0:0:
160,96,41364,1,0,0:0:0:0:
160,96,41537,1,0,0:0:0:0:
160,96,41709,1,0,0:0:0:0:
352,96,42054,1,8,0:0:0:0:
160,96,42226,1,0,0:0:0:0:
160,96,42571,1,0,0:0:0:0:
352,96,42744,1,8,0:0:0:0:
160,96,42916,1,0,0:0:0:0:
160,96,43088,1,0,0:0:0:0:
352,96,43433,1,8,0:0:0:0:
160,96,43606,1,0,0:0:0:0:
352,96,43692,1,8,0:0:0:0:
160,96,43778,1,0,0:0:0:0:
352,96,43950,1,8,0:0:0:0:
160,96,44123,1,0,0:0:0:0:
352,96,44295,1,8,0:0:0:0:
352,96,44381,1,8,0:0:0:0:
352,96,44468,1,8,0:0:0:0:
160,96,44640,1,0,0:0:0:0:
352,96,44812,1,8,0:0:0:0:
160,96,44985,1,0,0:0:0:0:
160,96,45071,1,0,0:0:0:0:
352,96,45157,1,8,0:0:0:0:
352,96,45330,1,8,0:0:0:0:
160,96,45502,1,0,0:0:0:0:
352,96,45761,1,8,0:0:0:0:
160,96,45847,1,0,0:0:0:0:
352,96,46019,1,8,0:0:0:0:
160,96,46192,1,0,0:0:0:0:
160,96,46450,1,0,0:0:0:0:
352,96,46537,1,8,0:0:0:0:
352,96,46594,1,8,0:0:0:0:
352,96,46652,1,8,0:0:0:0:
352,96,46709,1,8,0:0:0:0:
352,96,46795,1,8,0:0:0:0:
160,96,46881,1,0,0:0:0:0:
160,96,47054,1,0,0:0:0:0:
352,96,47140,1,8,0:0:0:0:
160,96,47226,1,0,0:0:0:0:
160,96,47399,1,0,0:0:0:0:
352,96,47571,1,8,0:0:0:0:
160,96,47744,1,0,0:0:0:0:
160,96,48088,1,0,0:0:0:0:
352,96,48261,1,8,0:0:0:0:
160,96,48433,1,0,0:0:0:0:
160,96,48519,1,0,0:0:0:0:
352,96,48606,1,8,0:0:0:0:
160,96,48778,1,0,0:0:0:0:
352,96,48950,1,8,0:0:0:0:
160,96,49037,1,0,0:0:0:0:
352,96,49123,1,8,0:0:0:0:
352,96,49209,1,8,0:0:0:0:
160,96,49295,1,0,0:0:0:0:
352,96,49468,1,8,0:0:0:0:
160,96,49640,1,0,0:0:0:0:
160,96,49812,1,0,0:0:0:0:
352,96,49899,1,8,0:0:0:0:
160,96,49985,1,0,0:0:0:0:
160,96,50157,1,0,0:0:0:0:
352,96,50330,1,8,0:0:0:0:
160,96,50502,1,0,0:0:0:0:
160,96,50847,1,0,0:0:0:0:
352,96,51019,1,8,0:0:0:0:
160,96,51192,1,0,0:0:0:0:
160,96,51278,1,0,0:0:0:0:
352,96,51364,1,8,0:0:0:0:
160,96,51537,1,0,0:0:0:0:
352,96,51709,1,8,0:0:0:0:
160,96,51795,1,0,0:0:0:0:
160,96,51968,1,0,0:0:0:0:
352,96,52054,1,8,0:0:0:0:
352,96,52226,1,8,0:0:0:0:
160,96,52399,1,0,0:0:0:0:
160,96,52571,1,0,0:0:0:0:
352,96,52657,1,8,0:0:0:0:
160,96,52744,1,0,0:0:0:0:
160,96,52916,1,0,0:0:0:0:
352,96,53088,1,8,0:0:0:0:
160,96,53261,1,0,0:0:0:0:
160,96,53606,1,0,0:0:0:0:
352,96,53778,1,8,0:0:0:0:
160,96,53950,1,0,0:0:0:0:
160,96,54037,1,0,0:0:0:0:
352,96,54123,1,8,0:0:0:0:
160,96,54295,1,0,0:0:0:0:
352,96,54468,1,8,0:0:0:0:
160,96,54554,1,0,0:0:0:0:
352,96,54640,1,8,0:0:0:0:
352,96,54726,1,8,0:0:0:0:
160,96,54812,1,0,0:0:0:0:
352,96,54985,1,8,0:0:0:0:
160,96,55157,1,0,0:0:0:0:
160,96,55330,1,0,0:0:0:0:
352,96,55416,1,8,0:0:0:0:
160,96,55502,1,0,0:0:0:0:
160,96,55675,1,0,0:0:0:0:
160,96,55761,1,0,0:0:0:0:
352,96,55847,1,8,0:0:0:0:
352,96,56019,1,8,0:0:0:0:
352,96,56106,1,0,0:0:0:0:
160,96,56192,1,8,0:0:0:0:
352,96,56278,1,8,0:0:0:0:
160,96,56364,1,0,0:0:0:0:
160,96,56450,1,0,0:0:0:0:
352,96,56537,1,8,0:0:0:0:
352,96,56795,1,8,0:0:0:0:
160,96,56881,1,0,0:0:0:0:
352,96,57054,1,8,0:0:0:0:
160,96,57226,1,0,0:0:0:0:
160,96,57485,5,0,0:0:0:0:
352,96,57571,1,8,0:0:0:0:
352,96,57629,1,8,0:0:0:0:
352,96,57686,1,8,0:0:0:0:
352,96,57744,1,8,0:0:0:0:
352,96,57830,1,8,0:0:0:0:
160,96,57916,1,0,0:0:0:0:
160,96,58088,1,0,0:0:0:0:
352,96,58175,1,8,0:0:0:0:
160,96,58261,1,0,0:0:0:0:
352,96,58433,1,8,0:0:0:0:
160,96,58606,1,0,0:0:0:0:
352,96,58778,1,8,0:0:0:0:
352,96,58864,1,8,0:0:0:0:
160,96,58950,1,0,0:0:0:0:
352,96,59123,1,8,0:0:0:0:
160,96,59295,1,0,0:0:0:0:
352,96,59554,1,8,0:0:0:0:
160,96,59640,1,0,0:0:0:0:
352,96,59812,1,8,0:0:0:0:
160,96,59985,1,0,0:0:0:0:
160,96,60071,1,0,0:0:0:0:
160,96,60244,1,0,0:0:0:0:
352,96,60330,1,8,0:0:0:0:
352,96,60502,1,8,0:0:0:0:
160,96,60675,5,0,0:0:0:0:
160,96,60847,1,0,0:0:0:0:
352,96,60933,1,8,0:0:0:0:
160,96,61019,1,0,0:0:0:0:
352,96,61192,1,8,0:0:0:0:
160,96,61364,1,0,0:0:0:0:
352,96,61537,1,8,0:0:0:0:
352,96,61623,1,8,0:0:0:0:
160,96,61709,1,0,0:0:0:0:
352,96,61881,1,8,0:0:0:0:
160,96,62054,1,0,0:0:0:0:
352,96,62140,1,8,0:0:0:0:
352,96,62312,1,8,0:0:0:0:
160,96,62399,1,0,0:0:0:0:
352,96,62571,1,8,0:0:0:0:
160,96,62744,1,0,0:0:0:0:
160,96,62830,1,0,0:0:0:0:
160,96,63002,5,0,0:0:0:0:
352,96,63088,1,8,0:0:0:0:
352,96,63175,1,8,0:0:0:0:
352,96,63261,1,8,0:0:0:0:
352,96,63347,1,8,0:0:0:0:
160,96,63433,5,0,0:0:0:0:
160,96,63606,1,0,0:0:0:0:
352,96,63692,1,8,0:0:0:0:
160,96,63778,1,0,0:0:0:0:
352,96,63950,1,8,0:0:0:0:
160,96,64123,1,0,0:0:0:0:
352,96,64295,1,8,0:0:0:0:
160,96,64381,1,0,0:0:0:0:
160,96,64468,1,0,0:0:0:0:
352,96,64640,1,8,0:0:0:0:
160,96,64812,1,0,0:0:0:0:
160,96,64985,1,0,0:0:0:0:
352,96,65071,1,8,0:0:0:0:
160,96,65157,1,0,0:0:0:0:
352,96,65330,1,8,0:0:0:0:
160,96,65502,1,0,0:0:0:0:
160,96,65588,1,0,0:0:0:0:
352,96,65675,1,8,0:0:0:0:
160,96,65761,1,0,0:0:0:0:
160,96,65847,1,0,0:0:0:0:
352,96,66019,1,8,0:0:0:0:
160,96,66192,1,0,0:0:0:0:
160,96,66278,1,0,0:0:0:0:
352,96,66364,1,8,0:0:0:0:
352,96,66450,1,8,0:0:0:0:
160,96,66537,1,0,0:0:0:0:
352,96,66623,1,8,0:0:0:0:
352,96,66709,1,8,0:0:0:0:
352,96,66795,1,8,0:0:0:0:
160,96,66881,1,0,0:0:0:0:
160,96,66968,1,0,0:0:0:0:
352,96,67054,1,8,0:0:0:0:
160,96,67140,1,0,0:0:0:0:
352,96,67226,1,8,0:0:0:0:
352,96,67312,1,8,0:0:0:0:
160,96,67399,1,0,0:0:0:0:
160,96,67485,1,0,0:0:0:0:
352,96,67571,5,8,0:0:0:0:
352,96,67801,1,8,0:0:0:0:
160,96,67916,1,0,0:0:0:0:
160,96,68031,1,0,0:0:0:0:
352,96,68146,1,8,0:0:0:0:
160,96,68261,1,0,0:0:0:0:
160,96,68491,1,0,0:0:0:0:
352,288,68606,1,12,0:0:0:0:
160,288,68950,1,4,0:0:0:0:
160,96,69123,1,0,0:0:0:0:
160,96,69209,1,0,0:0:0:0:
160,96,69295,1,0,0:0:0:0:
160,96,69468,1,0,0:0:0:0:
160,96,69640,1,0,0:0:0:0:
160,96,69726,1,0,0:0:0:0:
160,96,69812,1,0,0:0:0:0:
160,96,69985,1,0,0:0:0:0:
160,96,70157,1,0,0:0:0:0:
160,96,70330,1,0,0:0:0:0:
160,96,70416,1,0,0:0:0:0:
160,96,70588,1,0,0:0:0:0:
160,96,70675,1,0,0:0:0:0:
160,96,70904,1,0,0:0:0:0:
160,96,71019,1,0,0:0:0:0:
160,96,71249,1,0,0:0:0:0:
352,96,71364,1,8,0:0:0:0:
160,96,71709,1,0,0:0:0:0:
160,96,71881,1,0,0:0:0:0:
160,96,71968,1,0,0:0:0:0:
160,96,72054,1,0,0:0:0:0:
160,96,72226,1,0,0:0:0:0:
160,96,72399,1,0,0:0:0:0:
160,96,72514,1,0,0:0:0:0:
160,96,72629,1,0,0:0:0:0:
160,96,72744,1,0,0:0:0:0:
160,96,72916,1,0,0:0:0:0:
160,96,73088,1,0,0:0:0:0:
352,96,73203,1,0,0:0:0:0:
352,96,73318,1,8,0:0:0:0:
160,96,73433,1,0,0:0:0:0:
352,96,73548,1,8,0:0:0:0:
352,96,73663,1,8,0:0:0:0:
160,96,73778,1,0,0:0:0:0:
160,96,74008,1,0,0:0:0:0:
352,288,74123,1,8,0:0:0:0:
302,158,74238,1,0,0:0:0:0:
352,96,74353,1,8,0:0:0:0:
160,288,74468,1,4,0:0:0:0:
352,96,74640,1,8,0:0:0:0:
352,96,74726,1,8,0:0:0:0:
160,96,74812,1,0,0:0:0:0:
352,96,74985,1,8,0:0:0:0:
160,96,75157,1,0,0:0:0:0:
352,96,75244,1,8,0:0:0:0:
352,96,75330,1,8,0:0:0:0:
160,96,75502,1,0,0:0:0:0:
352,96,75675,1,8,0:0:0:0:
160,96,75847,1,0,0:0:0:0:
352,96,75933,1,8,0:0:0:0:
352,96,76106,1,8,0:0:0:0:
160,96,76192,1,0,0:0:0:0:
160,96,76422,1,0,0:0:0:0:
160,96,76537,1,0,0:0:0:0:
160,96,76766,1,0,0:0:0:0:
352,96,76881,1,8,0:0:0:0:
160,96,77226,1,0,0:0:0:0:
160,96,77269,1,0,0:0:0:0:
160,96,77312,1,0,0:0:0:0:
352,96,77399,1,8,0:0:0:0:
352,96,77485,1,8,0:0:0:0:
352,96,77571,1,8,0:0:0:0:
352,96,77801,1,8,0:0:0:0:
160,96,77916,1,0,0:0:0:0:
352,96,78031,1,8,0:0:0:0:
352,96,78146,1,8,0:0:0:0:
352,96,78261,1,8,0:0:0:0:
352,96,78491,1,8,0:0:0:0:
160,96,78606,5,0,0:0:0:0:
160,96,78721,1,0,0:0:0:0:
352,96,78835,1,8,0:0:0:0:
160,96,78950,1,0,0:0:0:0:
160,96,79065,1,0,0:0:0:0:
352,96,79180,1,8,0:0:0:0:
160,96,79295,1,0,0:0:0:0:
352,96,79468,1,8,0:0:0:0:
160,96,79640,1,0,0:0:0:0:
160,96,79698,1,0,0:0:0:0:
160,96,79755,1,0,0:0:0:0:
352,96,79812,1,8,0:0:0:0:
352,96,79870,1,8,0:0:0:0:
352,96,79927,1,8,0:0:0:0:
160,96,79985,1,0,0:0:0:0:
352,96,80330,1,8,0:0:0:0:
160,96,80502,1,0,0:0:0:0:
160,96,80588,1,0,0:0:0:0:
352,96,80675,1,8,0:0:0:0:
352,96,80847,1,8,0:0:0:0:
160,96,81019,1,0,0:0:0:0:
160,96,81192,1,0,0:0:0:0:
352,96,81537,1,8,0:0:0:0:
160,96,81709,1,0,0:0:0:0:
160,96,81968,1,0,0:0:0:0:
352,96,82054,1,8,0:0:0:0:
352,96,82226,1,8,0:0:0:0:
160,96,82312,1,0,0:0:0:0:
352,96,82399,1,8,0:0:0:0:
352,96,82571,1,8,0:0:0:0:
160,96,82744,1,0,0:0:0:0:
352,96,83088,1,8,0:0:0:0:
160,96,83261,1,0,0:0:0:0:
352,96,83433,1,8,0:0:0:0:
352,96,83606,1,8,0:0:0:0:
352,96,83692,1,8,0:0:0:0:
160,96,83778,1,0,0:0:0:0:
160,96,83950,1,0,0:0:0:0:
352,96,84295,1,8,0:0:0:0:
160,96,84468,1,0,0:0:0:0:
160,96,84640,1,0,0:0:0:0:
160,96,84726,1,0,0:0:0:0:
352,96,84812,1,8,0:0:0:0:
352,96,85071,1,8,0:0:0:0:
352,96,85157,1,8,0:0:0:0:
352,96,85330,1,8,0:0:0:0:
160,288,85502,5,4,0:0:0:0:
352,96,85847,1,8,0:0:0:0:
160,96,86019,1,0,0:0:0:0:
160,96,86106,1,0,0:0:0:0:
352,96,86192,1,8,0:0:0:0:
352,96,86364,1,8,0:0:0:0:
160,96,86537,1,0,0:0:0:0:
160,96,86709,1,0,0:0:0:0:
352,96,87054,1,8,0:0:0:0:
160,96,87226,1,0,0:0:0:0:
352,96,87312,1,8,0:0:0:0:
160,96,87399,1,0,0:0:0:0:
160,96,87485,1,0,0:0:0:0:
352,96,87571,1,8,0:0:0:0:
352,96,87744,1,8,0:0:0:0:
160,96,87830,1,0,0:0:0:0:
352,96,87916,1,8,0:0:0:0:
352,96,88088,1,8,0:0:0:0:
160,96,88261,1,0,0:0:0:0:
352,96,88347,1,8,0:0:0:0:
352,96,88433,1,8,0:0:0:0:
352,96,88519,1,8,0:0:0:0:
352,96,88606,1,8,0:0:0:0:
160,96,88778,1,0,0:0:0:0:
352,96,88950,1,8,0:0:0:0:
352,96,89123,1,8,0:0:0:0:
352,96,89209,1,8,0:0:0:0:
160,96,89295,1,0,0:0:0:0:
352,96,89468,1,8,0:0:0:0:
352,96,89812,1,8,0:0:0:0:
160,96,89985,1,0,0:0:0:0:
352,96,90157,1,8,0:0:0:0:
160,96,90330,1,0,0:0:0:0:
160,96,90416,1,0,0:0:0:0:
352,96,90502,1,8,0:0:0:0:
160,96,90675,1,0,0:0:0:0:
352,288,91019,1,12,0:0:0:0:
352,96,97226,5,8,0:0:0:0:
352,96,98606,1,8,0:0:0:0:
352,96,99985,1,8,0:0:0:0:
352,96,100675,5,8,0:0:0:0:
352,96,100761,1,8,0:0:0:0:
352,96,100847,1,8,0:0:0:0:
352,96,100933,1,8,0:0:0:0:
160,96,101019,1,0,0:0:0:0:
160,96,101192,1,0,0:0:0:0:
352,96,101364,1,8,0:0:0:0:
352,96,101623,1,8,0:0:0:0:
160,96,101709,1,0,0:0:0:0:
160,96,101795,1,0,0:0:0:0:
352,96,101881,1,8,0:0:0:0:
160,288,102054,5,4,0:0:0:0:
352,96,102226,1,8,0:0:0:0:
352,96,102312,1,8,0:0:0:0:
160,96,102399,1,0,0:0:0:0:
352,96,102571,1,8,0:0:0:0:
160,96,102744,1,0,0:0:0:0:
352,96,103002,1,8,0:0:0:0:
160,96,103088,1,0,0:0:0:0:
352,96,103261,1,8,0:0:0:0:
160,96,103433,1,0,0:0:0:0:
160,96,103606,1,0,0:0:0:0:
352,96,103692,1,8,0:0:0:0:
160,96,103778,1,0,0:0:0:0:
352,96,103950,1,8,0:0:0:0:
160,96,104123,1,0,0:0:0:0:
160,96,104381,1,0,0:0:0:0:
352,96,104468,1,8,0:0:0:0:
352,96,104640,1,8,0:0:0:0:
160,96,104812,1,0,0:0:0:0:
352,96,104985,1,8,0:0:0:0:
352,96,105071,1,8,0:0:0:0:
160,96,105157,1,0,0:0:0:0:
352,96,105330,1,8,0:0:0:0:
160,96,105502,1,0,0:0:0:0:
352,96,105588,1,8,0:0:0:0:
352,96,105761,1,8,0:0:0:0:
160,96,105847,1,0,0:0:0:0:
352,96,106019,1,8,0:0:0:0:
160,96,106192,1,0,0:0:0:0:
352,96,106364,1,8,0:0:0:0:
352,96,106450,1,8,0:0:0:0:
160,96,106537,1,0,0:0:0:0:
160,96,106623,1,0,0:0:0:0:
352,96,106709,1,8,0:0:0:0:
160,96,106881,1,0,0:0:0:0:
352,96,107054,1,8,0:0:0:0:
160,96,107140,1,0,0:0:0:0:
352,96,107226,1,8,0:0:0:0:
352,96,107399,1,8,0:0:0:0:
160,96,107571,5,0,0:0:0:0:
160,96,107744,1,0,0:0:0:0:
352,96,107830,1,8,0:0:0:0:
160,96,107916,1,0,0:0:0:0:
352,96,108088,1,8,0:0:0:0:
160,96,108261,1,0,0:0:0:0:
352,96,108433,1,8,0:0:0:0:
160,96,108519,1,0,0:0:0:0:
352,96,108606,1,8,0:0:0:0:
352,96,108692,1,8,0:0:0:0:
160,96,108778,1,0,0:0:0:0:
352,96,108950,1,8,0:0:0:0:
160,96,109123,1,0,0:0:0:0:
352,96,109209,1,8,0:0:0:0:
160,96,109295,1,0,0:0:0:0:
352,96,109468,1,8,0:0:0:0:
160,96,109640,1,0,0:0:0:0:
352,96,109726,1,8,0:0:0:0:
352,96,109812,1,8,0:0:0:0:
160,96,109899,1,0,0:0:0:0:
352,96,109985,1,8,0:0:0:0:
160,96,110157,1,0,0:0:0:0:
352,96,110330,1,8,0:0:0:0:
160,96,110416,1,0,0:0:0:0:
160,96,110502,1,0,0:0:0:0:
160,96,110588,1,0,0:0:0:0:
352,96,110675,1,8,0:0:0:0:
352,96,110761,1,8,0:0:0:0:
160,96,110847,1,0,0:0:0:0:
160,96,110933,1,0,0:0:0:0:
352,96,111019,1,8,0:0:0:0:
352,96,111192,1,8,0:0:0:0:
160,96,111364,1,0,0:0:0:0:
160,288,111537,1,4,0:0:0:0:
160,96,112226,1,0,0:0:0:0:
352,96,112399,1,8,0:0:0:0:
160,96,112485,1,0,0:0:0:0:
160,96,112571,1,0,0:0:0:0:
352,288,112744,1,12,0:0:0:0:
160,288,113088,5,4,0:0:0:0:
160,96,113261,1,0,0:0:0:0:
160,96,113347,1,0,0:0:0:0:
352,96,113433,1,8,0:0:0:0:
160,96,113606,1,0,0:0:0:0:
352,96,113778,1,8,0:0:0:0:
352,96,113864,1,8,0:0:0:0:
160,96,113950,1,0,0:0:0:0:
352,96,114123,1,8,0:0:0:0:
160,96,114295,1,0,0:0:0:0:
352,96,114381,1,8,0:0:0:0:
352,96,114554,1,8,0:0:0:0:
160,96,114640,1,0,0:0:0:0:
160,96,114726,1,0,0:0:0:0:
352,96,114812,1,8,0:0:0:0:
160,96,114985,1,0,0:0:0:0:
352,96,115157,1,8,0:0:0:0:
160,96,115244,1,0,0:0:0:0:
352,96,115330,1,8,0:0:0:0:
352,96,115416,1,8,0:0:0:0:
160,96,115502,1,0,0:0:0:0:
352,96,115675,1,8,0:0:0:0:
160,96,115847,1,0,0:0:0:0:
352,96,115933,1,8,0:0:0:0:
352,96,116106,1,8,0:0:0:0:
160,96,116192,1,0,0:0:0:0:
160,96,116364,1,0,0:0:0:0:
160,96,116450,1,0,0:0:0:0:
352,96,116537,1,8,0:0:0:0:
352,96,116623,1,8,0:0:0:0:
160,96,116709,1,0,0:0:0:0:
352,96,116881,1,8,0:0:0:0:
160,96,117054,1,0,0:0:0:0:
352,96,117140,1,8,0:0:0:0:
160,96,117226,1,0,0:0:0:0:
160,96,117312,1,0,0:0:0:0:
352,96,117399,1,8,0:0:0:0:
160,96,117571,1,0,0:0:0:0:
352,96,117744,1,8,0:0:0:0:
160,96,117830,1,0,0:0:0:0:
352,96,117916,1,8,0:0:0:0:
160,96,118175,1,0,0:0:0:0:
352,96,118261,1,8,0:0:0:0:
352,96,118347,1,8,0:0:0:0:
160,96,118433,1,0,0:0:0:0:
160,288,118606,1,4,0:0:0:0:
160,96,118778,1,0,0:0:0:0:
160,96,118864,1,0,0:0:0:0:
352,96,118950,1,8,0:0:0:0:
160,96,119123,1,0,0:0:0:0:
352,96,119295,1,8,0:0:0:0:
352,96,119381,1,8,0:0:0:0:
160,96,119468,1,0,0:0:0:0:
352,96,119640,1,8,0:0:0:0:
160,96,119812,1,0,0:0:0:0:
352,96,119899,1,8,0:0:0:0:
352,96,120071,1,8,0:0:0:0:
160,96,120157,1,0,0:0:0:0:
160,96,120244,1,0,0:0:0:0:
352,96,120330,1,8,0:0:0:0:
160,96,120502,1,0,0:0:0:0:
352,96,120675,1,8,0:0:0:0:
160,96,120761,1,0,0:0:0:0:
352,96,120847,1,8,0:0:0:0:
352,96,120933,1,8,0:0:0:0:
160,96,121019,1,0,0:0:0:0:
352,96,121192,1,8,0:0:0:0:
160,96,121364,1,0,0:0:0:0:
352,96,121450,1,8,0:0:0:0:
352,96,121537,1,8,0:0:0:0:
160,96,121623,1,0,0:0:0:0:
352,96,121709,1,8,0:0:0:0:
160,96,121881,1,0,0:0:0:0:
352,96,122054,1,8,0:0:0:0:
352,96,122140,1,8,0:0:0:0:
160,96,122226,1,0,0:0:0:0:
352,96,122312,1,8,0:0:0:0:
160,96,122399,1,0,0:0:0:0:
160,96,122485,1,0,0:0:0:0:
352,288,122571,1,12,0:0:0:0:
352,288,122916,1,12,0:0:0:0:
160,288,123088,1,4,0:0:0:0:
160,96,123261,1,4,0:0:0:0:
160,96,123433,1,0,0:0:0:0:
160,96,123519,1,0,0:0:0:0:
350,98,123606,1,8,0:0:0:0:
160,96,123778,1,0,0:0:0:0:
160,96,123835,1,0,0:0:0:0:
160,96,123893,1,0,0:0:0:0:
350,98,123950,1,8,0:0:0:0:
350,98,124008,1,8,0:0:0:0:
350,98,124065,1,8,0:0:0:0:
160,288,124123,5,0,0:0:0:0:
160,96,124295,1,0,0:0:0:0:
350,98,124381,1,8,0:0:0:0:
160,96,124468,1,0,0:0:0:0:
160,96,124640,1,0,0:0:0:0:
352,96,124812,1,8,0:0:0:0:
160,96,125157,1,0,0:0:0:0:
352,96,125330,1,8,0:0:0:0:
352,96,125675,1,8,0:0:0:0:
352,96,125761,1,8,0:0:0:0:
160,96,125847,1,0,0:0:0:0:
160,96,126019,1,0,0:0:0:0:
352,96,126192,1,8,0:0:0:0:
352,96,126450,1,8,0:0:0:0:
352,96,126537,1,8,0:0:0:0:
352,96,126709,1,8,0:0:0:0:
160,96,126881,5,0,0:0:0:0:
160,96,127054,1,0,0:0:0:0:
160,96,127140,1,8,0:0:0:0:
160,96,127226,1,0,0:0:0:0:
160,96,127399,1,0,0:0:0:0:
352,96,127571,1,8,0:0:0:0:
160,96,127916,1,0,0:0:0:0:
352,96,128088,1,8,0:0:0:0:
352,96,128433,1,8,0:0:0:0:
160,96,128606,1,0,0:0:0:0:
160,96,128692,1,0,0:0:0:0:
160,96,128778,1,0,0:0:0:0:
352,96,128950,1,8,0:0:0:0:
352,96,129209,1,8,0:0:0:0:
352,96,129295,1,8,0:0:0:0:
352,96,129468,1,8,0:0:0:0:
160,288,129640,1,4,0:0:0:0:
352,96,129812,1,8,0:0:0:0:
352,96,129899,1,0,0:0:0:0:
160,96,129985,1,8,0:0:0:0:
160,96,130157,1,0,0:0:0:0:
352,96,130330,1,8,0:0:0:0:
160,96,130675,1,0,0:0:0:0:
352,96,130847,1,8,0:0:0:0:
352,96,131192,1,8,0:0:0:0:
352,96,131278,1,8,0:0:0:0:
160,96,131364,1,0,0:0:0:0:
160,96,131537,1,0,0:0:0:0:
352,96,131709,1,8,0:0:0:0:
352,96,131968,1,8,0:0:0:0:
352,96,132054,1,8,0:0:0:0:
352,96,132226,1,8,0:0:0:0:
160,96,132399,1,0,0:0:0:0:
352,96,132485,1,8,0:0:0:0:
352,96,132571,1,8,0:0:0:0:
352,96,132657,1,8,0:0:0:0:
352,96,132744,1,8,0:0:0:0:
160,96,132916,1,0,0:0:0:0:
352,96,133088,1,8,0:0:0:0:
352,96,133261,1,8,0:0:0:0:
352,96,133347,1,8,0:0:0:0:
160,96,133433,1,0,0:0:0:0:
352,96,133606,1,8,0:0:0:0:
352,96,133950,1,8,0:0:0:0:
160,96,134123,1,0,0:0:0:0:
352,96,134295,1,12,0:0:0:0:
