osu file format v14

[General]
AudioFilename: audio.ogg
AudioLeadIn: 0
PreviewTime: 68864
Countdown: 0
SampleSet: Normal
StackLeniency: 0.7
Mode: 1
LetterboxInBreaks: 0
WidescreenStoryboard: 0

[Editor]
Bookmarks: 2748,13782,24816,35851,46885,57920,68954,79989,91023,102054,113088,124123
DistanceSpacing: 2.8
BeatDivisor: 2
GridSize: 32
TimelineZoom: 0.6999998

[Metadata]
Title:Koinatsu (Cut Ver.)
TitleUnicode:恋夏 (Cut Ver.)
Artist:CY8ER
ArtistUnicode:CY8ER
Creator:komasy
Version:Kantan
Source:
Tags:short ver サイバー cyber yunomi ハローニュージェネレーション hello new generation japanese jpop pop electronic kawaii edm 苺りなはむ ichigo rinahamu koinumaru pochi ましろ mashiro 病夢やみい yamiyume yammy 藤城アンナ fujishiro anna
BeatmapID:3212962
BeatmapSetID:1573592

[Difficulty]
HPDrainRate:8
CircleSize:7
OverallDifficulty:3
ApproachRate:10
SliderMultiplier:1.4
SliderTickRate:1

[Events]
//Background and Video events
0,0,"92262175_p0.png",0,100
//Break Periods
2,91219,96776
//Storyboard Layer 0 (Background)
//Storyboard Layer 1 (Fail)
//Storyboard Layer 2 (Pass)
//Storyboard Layer 3 (Foreground)
//Storyboard Layer 4 (Overlay)
//Storyboard Sound Samples

[TimingPoints]
-14,344.827586206897,4,1,0,5,1,0
2744,344.827586206897,4,1,0,80,1,0
13778,-100,4,1,0,90,0,0
24123,-100,4,1,0,80,0,0
24812,-100,4,1,0,100,0,1
35847,-100,4,1,0,90,0,0
67571,-100,4,1,0,70,0,0
68548,-100,4,1,0,90,0,0
68950,-100,4,1,0,100,0,1
71364,-100,4,1,0,100,0,0
71709,-100,4,1,0,100,0,1
73778,-100,4,1,0,100,0,0
74468,-100,4,1,0,100,0,1
76881,-100,4,1,0,100,0,0
77226,-100,4,1,0,100,0,1
79295,-100,4,1,0,100,0,0
79985,-100,4,1,0,100,0,1
91019,-100,4,1,0,100,0,0
91106,-100,4,1,0,20,0,0
97140,-100,4,1,0,60,0,0
100675,-100,4,1,0,75,0,0
101968,-100,4,1,0,90,0,0
111450,-100,4,1,0,70,0,0
111623,-100,4,1,0,5,0,0
112140,-100,4,1,0,80,0,0
112657,-100,4,1,0,100,0,0
113088,-100,4,1,0,100,0,1
123175,-100,4,1,0,80,0,1
124123,-100,4,1,0,80,0,0

[HitObjects]
256,192,1365,12,0,2054,0:0:0:0:
352,96,2744,5,8,0:0:0:0:
352,96,3433,1,8,0:0:0:0:
352,96,4468,1,8,0:0:0:0:
352,96,4812,1,8,0:0:0:0:
352,96,5502,1,8,0:0:0:0:
352,96,6192,1,8,0:0:0:0:
352,96,6881,1,8,0:0:0:0:
352,96,7226,1,8,0:0:0:0:
352,96,7571,1,8,0:0:0:0:
160,96,8261,1,0,0:0:0:0:
352,96,8950,1,8,0:0:0:0:
352,96,9985,1,8,0:0:0:0:
352,96,10330,1,8,0:0:0:0:
160,96,11019,5,0,0:0:0:0:
352,96,11709,1,8,0:0:0:0:
160,96,12226,1,0,0:0:0:0:
352,96,12571,1,8,0:0:0:0:
160,96,12916,1,0,0:0:0:0:
160,288,13778,1,4,0:0:0:0:
160,96,14468,1,0,0:0:0:0:
352,96,15157,1,8,0:0:0:0:
352,96,15502,1,8,0:0:0:0:
160,96,15847,1,0,0:0:0:0:
352,96,16537,1,8,0:0:0:0:
160,96,17226,1,0,0:0:0:0:
352,96,17571,1,8,0:0:0:0:
160,96,17916,1,0,0:0:0:0:
352,96,18950,1,8,0:0:0:0:
160,96,19295,5,0,0:0:0:0:
160,96,19985,1,0,0:0:0:0:
352,96,20675,1,8,0:0:0:0:
352,96,21019,1,8,0:0:0:0:
160,96,21364,1,0,0:0:0:0:
207,154,22054,2,0,L|296:114,4,70
352,288,23261,1,12,0:0:0:0:
352,288,23606,1,12,0:0:0:0:
160,288,23950,1,4,0:0:0:0:
160,288,24812,1,4,0:0:0:0:
160,96,25502,1,0,0:0:0:0:
160,96,25847,1,0,0:0:0:0:
352,96,26192,1,8,0:0:0:0:
160,96,26881,1,0,0:0:0:0:
352,96,27571,1,8,0:0:0:0:
160,96,28261,1,0,0:0:0:0:
352,96,28606,1,8,0:0:0:0:
160,96,28950,1,0,0:0:0:0:
352,96,29985,1,8,0:0:0:0:
160,288,30330,1,4,0:0:0:0:
352,96,31019,1,8,0:0:0:0:
160,96,31709,1,0,0:0:0:0:
352,96,32054,1,8,0:0:0:0:
160,96,32399,1,0,0:0:0:0:
352,96,33088,1,8,0:0:0:0:
160,96,33778,1,0,0:0:0:0:
352,96,34295,1,8,0:0:0:0:
352,96,34640,1,8,0:0:0:0:
160,96,34985,1,0,0:0:0:0:
160,288,35847,5,4,0:0:0:0:
352,96,36537,1,8,0:0:0:0:
160,96,37226,1,0,0:0:0:0:
160,96,37571,1,0,0:0:0:0:
352,96,37916,1,8,0:0:0:0:
160,96,38606,1,0,0:0:0:0:
352,96,39295,1,8,0:0:0:0:
160,96,39985,1,0,0:0:0:0:
160,96,41364,1,0,0:0:0:0:
352,96,42054,1,8,0:0:0:0:
160,96,42744,1,0,0:0:0:0:
160,96,43088,1,0,0:0:0:0:
352,96,43433,1,8,0:0:0:0:
160,96,44123,1,0,0:0:0:0:
352,96,44812,1,8,0:0:0:0:
160,96,45502,1,0,0:0:0:0:
160,96,45847,1,0,0:0:0:0:
160,96,46192,1,0,0:0:0:0:
160,288,46881,1,4,0:0:0:0:
160,96,48261,1,0,0:0:0:0:
352,96,48950,1,8,0:0:0:0:
352,96,49295,1,8,0:0:0:0:
160,96,49640,1,0,0:0:0:0:
352,96,50330,1,8,0:0:0:0:
160,96,51019,1,0,0:0:0:0:
352,96,51364,1,8,0:0:0:0:
160,96,51709,1,0,0:0:0:0:
160,96,52399,1,0,0:0:0:0:
160,96,53778,1,0,0:0:0:0:
352,96,54468,1,8,0:0:0:0:
352,96,54812,1,8,0:0:0:0:
160,96,55157,1,0,0:0:0:0:
352,96,55847,1,8,0:0:0:0:
160,96,56537,1,0,0:0:0:0:
352,96,56881,1,8,0:0:0:0:
160,96,57226,1,0,0:0:0:0:
160,288,57916,1,4,0:0:0:0:
160,96,58950,1,0,0:0:0:0:
160,96,59295,1,0,0:0:0:0:
352,96,59985,1,8,0:0:0:0:
160,96,60675,5,0,0:0:0:0:
160,96,61364,1,0,0:0:0:0:
352,96,61709,1,8,0:0:0:0:
160,96,62054,1,0,0:0:0:0:
352,96,62744,1,8,0:0:0:0:
160,96,63433,5,0,0:0:0:0:
352,96,64468,1,8,0:0:0:0:
160,96,64812,1,0,0:0:0:0:
352,96,65502,1,8,0:0:0:0:
352,96,65847,1,8,0:0:0:0:
256,192,66192,12,8,67571,0:0:0:0:
352,288,68606,5,12,0:0:0:0:
160,288,68950,1,4,0:0:0:0:
160,96,69640,1,0,0:0:0:0:
160,96,70330,1,0,0:0:0:0:
160,96,70675,1,0,0:0:0:0:
160,96,71019,1,0,0:0:0:0:
160,96,71709,1,0,0:0:0:0:
160,96,72399,1,0,0:0:0:0:
352,96,73088,1,8,0:0:0:0:
352,96,74123,1,8,0:0:0:0:
160,288,74468,1,4,0:0:0:0:
352,96,75157,1,8,0:0:0:0:
160,96,75847,1,0,0:0:0:0:
160,96,76192,1,0,0:0:0:0:
352,96,76537,1,8,0:0:0:0:
160,96,77226,1,0,0:0:0:0:
352,96,77916,1,8,0:0:0:0:
160,96,78606,5,0,0:0:0:0:
160,96,78950,1,0,0:0:0:0:
160,96,79295,1,0,0:0:0:0:
160,288,79985,1,4,0:0:0:0:
352,288,80675,1,8,0:0:0:0:
160,96,81709,1,0,0:0:0:0:
352,96,82054,1,8,0:0:0:0:
160,96,82744,1,0,0:0:0:0:
352,96,83433,1,8,0:0:0:0:
160,96,83778,1,0,0:0:0:0:
160,96,84468,1,0,0:0:0:0:
352,96,84812,1,8,0:0:0:0:
160,288,85502,5,4,0:0:0:0:
160,96,86537,1,0,0:0:0:0:
160,96,87226,1,0,0:0:0:0:
352,96,87571,1,8,0:0:0:0:
160,96,88261,1,0,0:0:0:0:
352,96,88950,1,8,0:0:0:0:
160,96,89295,1,0,0:0:0:0:
160,96,89812,1,0,0:0:0:0:
160,96,90157,1,0,0:0:0:0:
352,96,90502,1,8,0:0:0:0:
352,288,91019,1,12,0:0:0:0:
352,96,97226,5,8,0:0:0:0:
352,96,98606,1,8,0:0:0:0:
352,96,99985,1,8,0:0:0:0:
352,96,100675,1,8,0:0:0:0:
352,96,101019,1,8,0:0:0:0:
352,96,101364,1,8,0:0:0:0:
160,288,102054,1,4,0:0:0:0:
160,96,102744,1,0,0:0:0:0:
352,96,103433,1,8,0:0:0:0:
352,96,103778,1,8,0:0:0:0:
160,96,104123,1,0,0:0:0:0:
352,96,104812,1,8,0:0:0:0:
160,96,105502,1,0,0:0:0:0:
352,96,105847,1,8,0:0:0:0:
160,96,106192,1,0,0:0:0:0:
352,96,107226,1,8,0:0:0:0:
160,96,107571,5,0,0:0:0:0:
160,96,108261,1,0,0:0:0:0:
352,96,108950,1,8,0:0:0:0:
352,96,109295,1,8,0:0:0:0:
160,96,109640,1,0,0:0:0:0:
207,154,110330,2,0,L|296:114,4,70
160,288,111537,1,4,0:0:0:0:
352,288,112744,1,12,0:0:0:0:
160,288,113088,1,4,0:0:0:0:
160,96,113778,1,0,0:0:0:0:
160,96,114123,1,0,0:0:0:0:
352,96,114468,1,8,0:0:0:0:
160,96,115157,1,0,0:0:0:0:
352,96,115847,1,8,0:0:0:0:
160,96,116537,1,0,0:0:0:0:
352,96,116881,1,8,0:0:0:0:
160,96,117226,1,0,0:0:0:0:
352,96,118261,1,8,0:0:0:0:
160,288,118606,1,4,0:0:0:0:
352,96,119295,1,8,0:0:0:0:
160,96,119985,1,0,0:0:0:0:
352,96,120330,1,8,0:0:0:0:
160,96,120675,1,0,0:0:0:0:
352,96,121364,1,8,0:0:0:0:
160,96,122054,1,0,0:0:0:0:
352,96,122571,1,8,0:0:0:0:
352,96,122916,1,8,0:0:0:0:
160,96,123261,1,0,0:0:0:0:
160,288,124123,5,4,0:0:0:0:
352,96,124812,1,8,0:0:0:0:
160,96,125847,1,0,0:0:0:0:
352,96,126192,1,8,0:0:0:0:
160,96,126881,5,0,0:0:0:0:
352,96,127571,1,8,0:0:0:0:
160,96,127916,1,0,0:0:0:0:
160,96,128606,1,0,0:0:0:0:
352,96,128950,1,8,0:0:0:0:
160,288,129640,1,4,0:0:0:0:
352,96,130330,1,8,0:0:0:0:
160,96,131364,1,0,0:0:0:0:
352,96,131709,1,8,0:0:0:0:
160,96,132399,1,0,0:0:0:0:
352,96,133088,1,8,0:0:0:0:
160,96,133606,1,0,0:0:0:0:
160,96,133950,1,0,0:0:0:0:
352,288,134295,1,12,0:0:0:0:
