osu file format v14

[General]
AudioFilename: audio.ogg
AudioLeadIn: 0
PreviewTime: 68864
Countdown: 0
SampleSet: Normal
StackLeniency: 0.7
Mode: 1
LetterboxInBreaks: 0
WidescreenStoryboard: 0

[Editor]
Bookmarks: 2748,13782,24816,35851,46885,57920,68954,79989,91023,102054,113088,124123
DistanceSpacing: 2.8
BeatDivisor: 4
GridSize: 32
TimelineZoom: 1.4

[Metadata]
Title:Koinatsu (Cut Ver.)
TitleUnicode:恋夏 (Cut Ver.)
Artist:CY8ER
ArtistUnicode:CY8ER
Creator:komasy
Version:Futsuu
Source:
Tags:short ver サイバー cyber yunomi ハローニュージェネレーション hello new generation japanese jpop pop electronic kawaii edm 苺りなはむ ichigo rinahamu koinumaru pochi ましろ mashiro 病夢やみい yamiyume yammy 藤城アンナ fujishiro anna
BeatmapID:3212961
BeatmapSetID:1573592

[Difficulty]
HPDrainRate:7
CircleSize:7
OverallDifficulty:4
ApproachRate:10
SliderMultiplier:1.4
SliderTickRate:1

[Events]
//Background and Video events
0,0,"92262175_p0.png",0,100
//Break Periods
2,91219,96776
//Storyboard Layer 0 (Background)
//Storyboard Layer 1 (Fail)
//Storyboard Layer 2 (Pass)
//Storyboard Layer 3 (Foreground)
//Storyboard Layer 4 (Overlay)
//Storyboard Sound Samples

[TimingPoints]
-14,344.827586206897,4,1,0,5,1,0
2744,344.827586206897,4,1,0,80,1,0
13778,-100,4,1,0,90,0,0
24123,-100,4,1,0,80,0,0
24812,-100,4,1,0,100,0,1
35847,-100,4,1,0,90,0,0
67571,-100,4,1,0,70,0,0
68548,-100,4,1,0,90,0,0
68950,-100,4,1,0,100,0,1
71364,-100,4,1,0,100,0,0
71709,-100,4,1,0,100,0,1
73778,-100,4,1,0,100,0,0
74468,-100,4,1,0,100,0,1
76881,-100,4,1,0,100,0,0
77226,-100,4,1,0,100,0,1
79295,-100,4,1,0,100,0,0
79985,-100,4,1,0,100,0,1
91019,-100,4,1,0,100,0,0
91106,-100,4,1,0,20,0,0
97140,-100,4,1,0,60,0,0
100675,-100,4,1,0,75,0,0
101968,-100,4,1,0,90,0,0
111450,-100,4,1,0,70,0,0
111623,-100,4,1,0,5,0,0
112140,-100,4,1,0,80,0,0
112657,-100,4,1,0,100,0,0
113088,-100,4,1,0,100,0,1
123175,-100,4,1,0,80,0,1
124123,-100,4,1,0,80,0,0

[HitObjects]
256,192,1365,12,0,2054,0:0:0:0:
352,96,2744,5,8,0:0:0:0:
352,96,3088,1,8,0:0:0:0:
352,96,3433,1,8,0:0:0:0:
352,96,3778,1,8,0:0:0:0:
352,96,3950,1,8,0:0:0:0:
352,96,4123,1,8,0:0:0:0:
352,96,4468,1,8,0:0:0:0:
352,96,4812,1,8,0:0:0:0:
352,96,5502,1,8,0:0:0:0:
352,96,5847,1,8,0:0:0:0:
352,96,6192,1,8,0:0:0:0:
352,96,6537,1,8,0:0:0:0:
352,96,6709,1,8,0:0:0:0:
352,96,6881,1,8,0:0:0:0:
352,96,7226,1,8,0:0:0:0:
352,96,7571,1,8,0:0:0:0:
160,96,8261,1,0,0:0:0:0:
352,96,8606,1,8,0:0:0:0:
352,96,8950,1,8,0:0:0:0:
352,96,9295,1,8,0:0:0:0:
352,96,9468,1,8,0:0:0:0:
160,96,9640,1,0,0:0:0:0:
352,96,9985,1,8,0:0:0:0:
352,96,10330,1,8,0:0:0:0:
160,96,11019,5,0,0:0:0:0:
352,96,11192,1,8,0:0:0:0:
352,96,11364,1,8,0:0:0:0:
352,96,11709,1,8,0:0:0:0:
160,96,12054,1,0,0:0:0:0:
352,96,12226,1,8,0:0:0:0:
352,96,12571,1,8,0:0:0:0:
160,96,12744,1,0,0:0:0:0:
352,96,13088,1,8,0:0:0:0:
160,288,13778,1,4,0:0:0:0:
160,96,14123,1,0,0:0:0:0:
352,96,14468,1,8,0:0:0:0:
352,96,14640,1,8,0:0:0:0:
160,96,14812,1,0,0:0:0:0:
352,96,15157,1,8,0:0:0:0:
352,96,15502,1,8,0:0:0:0:
160,96,15847,1,0,0:0:0:0:
160,96,16537,1,0,0:0:0:0:
160,96,16881,1,0,0:0:0:0:
352,96,17226,1,8,0:0:0:0:
352,96,17399,1,8,0:0:0:0:
160,96,17571,1,0,0:0:0:0:
160,96,17916,1,0,0:0:0:0:
352,96,18261,1,8,0:0:0:0:
352,96,18606,1,8,0:0:0:0:
160,96,19295,5,0,0:0:0:0:
160,96,19640,1,0,0:0:0:0:
352,96,19985,1,8,0:0:0:0:
352,96,20157,1,8,0:0:0:0:
160,96,20330,1,0,0:0:0:0:
352,96,20675,1,8,0:0:0:0:
352,96,21019,1,8,0:0:0:0:
160,96,21364,1,0,0:0:0:0:
352,96,21709,1,8,0:0:0:0:
160,96,22054,1,0,0:0:0:0:
160,96,22226,1,0,0:0:0:0:
352,96,22399,1,8,0:0:0:0:
352,96,22744,1,8,0:0:0:0:
160,96,22916,1,0,0:0:0:0:
352,288,23261,1,12,0:0:0:0:
352,288,23606,1,12,0:0:0:0:
160,288,23950,1,4,0:0:0:0:
352,96,24468,1,8,0:0:0:0:
160,288,24812,1,4,0:0:0:0:
160,96,25157,1,0,0:0:0:0:
352,96,25502,1,8,0:0:0:0:
160,96,25847,1,0,0:0:0:0:
352,96,26019,1,8,0:0:0:0:
352,96,26364,1,8,0:0:0:0:
352,96,26537,1,8,0:0:0:0:
160,96,26709,1,0,0:0:0:0:
160,96,26881,1,0,0:0:0:0:
352,96,27226,1,8,0:0:0:0:
160,96,27571,1,0,0:0:0:0:
160,96,27916,1,0,0:0:0:0:
352,96,28261,1,8,0:0:0:0:
160,96,28606,1,0,0:0:0:0:
160,96,28778,1,0,0:0:0:0:
352,96,29123,1,8,0:0:0:0:
352,96,29295,1,8,0:0:0:0:
160,96,29468,1,0,0:0:0:0:
352,96,29640,1,8,0:0:0:0:
160,288,30330,1,4,0:0:0:0:
160,96,30675,1,0,0:0:0:0:
352,96,31019,1,8,0:0:0:0:
160,96,31364,1,0,0:0:0:0:
352,96,31537,1,8,0:0:0:0:
352,96,31881,1,8,0:0:0:0:
352,96,32054,1,8,0:0:0:0:
160,96,32226,1,0,0:0:0:0:
160,96,32399,1,0,0:0:0:0:
352,96,32744,1,8,0:0:0:0:
160,96,33088,1,0,0:0:0:0:
160,96,33433,1,0,0:0:0:0:
352,96,33778,1,8,0:0:0:0:
160,96,34123,1,0,0:0:0:0:
352,96,34295,1,8,0:0:0:0:
352,96,34640,1,8,0:0:0:0:
352,96,34812,1,8,0:0:0:0:
160,96,34985,1,0,0:0:0:0:
160,288,35847,5,4,0:0:0:0:
160,96,36364,1,0,0:0:0:0:
352,96,36537,1,8,0:0:0:0:
352,96,37054,1,8,0:0:0:0:
160,96,37226,1,0,0:0:0:0:
160,96,37571,1,0,0:0:0:0:
352,96,37916,1,8,0:0:0:0:
352,96,38261,1,8,0:0:0:0:
352,96,38433,1,8,0:0:0:0:
160,96,38606,1,0,0:0:0:0:
160,96,39123,1,0,0:0:0:0:
352,96,39295,1,8,0:0:0:0:
352,96,39812,1,8,0:0:0:0:
160,96,39985,1,0,0:0:0:0:
352,96,40157,1,8,0:0:0:0:
160,96,40330,1,0,0:0:0:0:
352,96,40675,1,8,0:0:0:0:
160,96,41364,1,0,0:0:0:0:
160,96,41881,1,0,0:0:0:0:
352,96,42054,1,8,0:0:0:0:
352,96,42571,1,8,0:0:0:0:
160,96,42744,1,0,0:0:0:0:
160,96,43088,1,0,0:0:0:0:
352,96,43433,1,8,0:0:0:0:
352,96,43778,1,8,0:0:0:0:
352,96,43950,1,8,0:0:0:0:
160,96,44123,1,0,0:0:0:0:
160,96,44640,1,0,0:0:0:0:
352,96,44812,1,8,0:0:0:0:
352,96,45330,1,8,0:0:0:0:
160,96,45502,1,0,0:0:0:0:
160,96,45847,1,0,0:0:0:0:
160,96,46192,1,0,0:0:0:0:
352,96,46537,1,8,0:0:0:0:
352,96,46709,1,8,0:0:0:0:
160,288,46881,1,4,0:0:0:0:
160,96,47399,1,0,0:0:0:0:
352,96,47571,1,8,0:0:0:0:
352,96,48088,1,8,0:0:0:0:
160,96,48261,1,0,0:0:0:0:
160,96,48606,1,0,0:0:0:0:
352,96,48950,1,8,0:0:0:0:
352,96,49295,1,8,0:0:0:0:
352,96,49468,1,8,0:0:0:0:
160,96,49640,1,0,0:0:0:0:
160,96,50157,1,0,0:0:0:0:
352,96,50330,1,8,0:0:0:0:
352,96,50847,1,8,0:0:0:0:
160,96,51019,1,0,0:0:0:0:
352,96,51192,1,8,0:0:0:0:
160,96,51364,1,0,0:0:0:0:
352,96,51709,1,8,0:0:0:0:
160,96,52399,1,0,0:0:0:0:
160,96,52916,1,0,0:0:0:0:
352,96,53088,1,8,0:0:0:0:
352,96,53606,1,8,0:0:0:0:
160,96,53778,1,0,0:0:0:0:
160,96,54123,1,0,0:0:0:0:
352,96,54468,1,8,0:0:0:0:
352,96,54812,1,8,0:0:0:0:
352,96,54985,1,8,0:0:0:0:
160,96,55157,1,0,0:0:0:0:
160,96,55675,1,0,0:0:0:0:
352,96,55847,1,8,0:0:0:0:
352,96,56364,1,8,0:0:0:0:
160,96,56537,1,0,0:0:0:0:
352,96,56795,1,8,0:0:0:0:
352,96,57054,1,8,0:0:0:0:
160,96,57226,1,0,0:0:0:0:
160,288,57916,1,4,0:0:0:0:
160,96,58261,1,0,0:0:0:0:
160,96,58606,1,0,0:0:0:0:
352,96,58778,1,8,0:0:0:0:
160,96,58950,1,0,0:0:0:0:
160,96,59295,1,0,0:0:0:0:
160,96,59640,1,0,0:0:0:0:
352,96,59812,1,8,0:0:0:0:
160,96,59985,1,0,0:0:0:0:
160,96,60675,5,0,0:0:0:0:
160,96,61019,1,0,0:0:0:0:
160,96,61364,1,0,0:0:0:0:
352,96,61537,1,8,0:0:0:0:
160,96,61709,1,0,0:0:0:0:
160,96,62054,1,0,0:0:0:0:
160,96,62399,1,0,0:0:0:0:
352,96,62571,1,8,0:0:0:0:
160,96,62744,1,0,0:0:0:0:
160,96,63433,5,0,0:0:0:0:
160,96,63778,1,0,0:0:0:0:
352,96,64123,1,8,0:0:0:0:
352,96,64295,1,8,0:0:0:0:
160,96,64468,1,0,0:0:0:0:
352,96,64812,1,8,0:0:0:0:
160,96,65157,1,0,0:0:0:0:
352,96,65330,1,8,0:0:0:0:
352,96,65502,1,8,0:0:0:0:
160,96,65847,1,0,0:0:0:0:
161,143,66192,2,0,L|208:156,16,35
352,288,68606,1,12,0:0:0:0:
160,288,68950,1,4,0:0:0:0:
160,96,69295,1,0,0:0:0:0:
160,96,69640,1,0,0:0:0:0:
160,96,69812,1,0,0:0:0:0:
160,96,69985,1,0,0:0:0:0:
160,96,70330,1,0,0:0:0:0:
160,96,70675,1,0,0:0:0:0:
160,96,71019,1,0,0:0:0:0:
160,96,71709,1,0,0:0:0:0:
160,96,72054,1,0,0:0:0:0:
160,96,72399,1,0,0:0:0:0:
160,96,72571,1,0,0:0:0:0:
160,96,72744,1,0,0:0:0:0:
160,96,73088,1,0,0:0:0:0:
160,96,73433,1,0,0:0:0:0:
352,96,73778,1,8,0:0:0:0:
160,288,74468,1,4,0:0:0:0:
160,96,74812,1,0,0:0:0:0:
352,96,75157,1,8,0:0:0:0:
160,96,75330,1,0,0:0:0:0:
160,96,75502,1,0,0:0:0:0:
352,96,75847,1,8,0:0:0:0:
160,96,76192,1,0,0:0:0:0:
352,96,76537,1,8,0:0:0:0:
160,96,77226,1,0,0:0:0:0:
352,96,77571,1,8,0:0:0:0:
160,96,77916,1,0,0:0:0:0:
352,96,78261,1,8,0:0:0:0:
352,96,78433,1,8,0:0:0:0:
160,96,78606,5,0,0:0:0:0:
160,96,78950,1,0,0:0:0:0:
160,96,79295,1,0,0:0:0:0:
160,288,79985,1,4,0:0:0:0:
352,96,80675,1,8,0:0:0:0:
160,96,81019,1,0,0:0:0:0:
160,96,81192,1,0,0:0:0:0:
160,96,81709,1,0,0:0:0:0:
352,96,82054,1,8,0:0:0:0:
352,96,82226,1,8,0:0:0:0:
352,96,82399,1,8,0:0:0:0:
160,96,82744,1,0,0:0:0:0:
352,96,83433,1,8,0:0:0:0:
160,96,83778,1,0,0:0:0:0:
160,96,83950,1,0,0:0:0:0:
352,96,84295,1,8,0:0:0:0:
160,96,84468,1,0,0:0:0:0:
352,96,84812,1,8,0:0:0:0:
352,96,85157,1,8,0:0:0:0:
160,288,85502,5,4,0:0:0:0:
352,96,86192,1,8,0:0:0:0:
160,96,86537,1,0,0:0:0:0:
160,96,86709,1,0,0:0:0:0:
160,96,87226,1,0,0:0:0:0:
352,96,87571,1,8,0:0:0:0:
352,96,87744,1,8,0:0:0:0:
352,96,87916,1,8,0:0:0:0:
160,96,88261,1,0,0:0:0:0:
352,96,88950,1,8,0:0:0:0:
160,96,89295,1,0,0:0:0:0:
160,96,89468,1,0,0:0:0:0:
352,96,89812,1,8,0:0:0:0:
352,96,89985,1,8,0:0:0:0:
160,96,90157,1,0,0:0:0:0:
352,96,90502,1,8,0:0:0:0:
352,288,91019,1,12,0:0:0:0:
352,96,97226,5,8,0:0:0:0:
352,96,98606,1,8,0:0:0:0:
352,96,99985,1,8,0:0:0:0:
352,96,100675,1,8,0:0:0:0:
352,96,100847,1,8,0:0:0:0:
352,96,101019,1,8,0:0:0:0:
352,96,101364,1,8,0:0:0:0:
160,288,102054,1,4,0:0:0:0:
160,96,102399,1,0,0:0:0:0:
352,96,102744,1,8,0:0:0:0:
352,96,102916,1,8,0:0:0:0:
160,96,103088,1,0,0:0:0:0:
352,96,103433,1,8,0:0:0:0:
352,96,103778,1,8,0:0:0:0:
160,96,104123,1,0,0:0:0:0:
160,96,104812,1,0,0:0:0:0:
160,96,105157,1,0,0:0:0:0:
352,96,105502,1,8,0:0:0:0:
352,96,105675,1,8,0:0:0:0:
160,96,105847,1,0,0:0:0:0:
160,96,106192,1,0,0:0:0:0:
352,96,106537,1,8,0:0:0:0:
352,96,106881,1,8,0:0:0:0:
160,96,107571,5,0,0:0:0:0:
160,96,107916,1,0,0:0:0:0:
352,96,108261,1,8,0:0:0:0:
352,96,108433,1,8,0:0:0:0:
160,96,108606,1,0,0:0:0:0:
352,96,108950,1,8,0:0:0:0:
352,96,109295,1,8,0:0:0:0:
160,96,109640,1,0,0:0:0:0:
352,96,109985,1,8,0:0:0:0:
160,96,110330,1,0,0:0:0:0:
160,96,110502,1,0,0:0:0:0:
352,96,110675,1,8,0:0:0:0:
352,96,111019,1,8,0:0:0:0:
160,96,111192,1,0,0:0:0:0:
352,288,111537,1,4,0:0:0:0:
160,96,112399,5,0,0:0:0:0:
352,288,112744,1,12,0:0:0:0:
160,288,113088,1,4,0:0:0:0:
160,96,113433,1,0,0:0:0:0:
352,96,113778,1,8,0:0:0:0:
160,96,114123,1,0,0:0:0:0:
352,96,114295,1,8,0:0:0:0:
352,96,114640,1,8,0:0:0:0:
352,96,114812,1,8,0:0:0:0:
160,96,114985,1,0,0:0:0:0:
160,96,115157,1,0,0:0:0:0:
352,96,115502,1,8,0:0:0:0:
160,96,115847,1,0,0:0:0:0:
160,96,116192,1,0,0:0:0:0:
352,96,116537,1,8,0:0:0:0:
160,96,116881,1,0,0:0:0:0:
160,96,117054,1,0,0:0:0:0:
352,96,117399,1,8,0:0:0:0:
352,96,117571,1,8,0:0:0:0:
160,96,117744,1,0,0:0:0:0:
352,96,117916,1,8,0:0:0:0:
160,288,118606,1,4,0:0:0:0:
160,96,118950,1,0,0:0:0:0:
352,96,119295,1,8,0:0:0:0:
160,96,119640,1,0,0:0:0:0:
352,96,119812,1,8,0:0:0:0:
352,96,120157,1,8,0:0:0:0:
352,96,120330,1,8,0:0:0:0:
160,96,120502,1,0,0:0:0:0:
160,96,120675,1,0,0:0:0:0:
352,96,121019,1,8,0:0:0:0:
160,96,121364,1,0,0:0:0:0:
160,96,121709,1,0,0:0:0:0:
160,96,121881,1,0,0:0:0:0:
352,96,122054,1,8,0:0:0:0:
160,96,122399,1,0,0:0:0:0:
352,96,122571,1,8,0:0:0:0:
352,96,122916,1,8,0:0:0:0:
352,96,123088,1,8,0:0:0:0:
160,96,123261,1,0,0:0:0:0:
160,288,124123,5,4,0:0:0:0:
352,96,124812,1,8,0:0:0:0:
160,96,125157,1,0,0:0:0:0:
352,96,125330,1,8,0:0:0:0:
352,96,125675,1,8,0:0:0:0:
160,96,125847,1,0,0:0:0:0:
352,96,126192,1,8,0:0:0:0:
160,96,126881,5,0,0:0:0:0:
160,96,127226,1,0,0:0:0:0:
352,96,127571,1,8,0:0:0:0:
160,96,127916,1,0,0:0:0:0:
352,96,128088,1,8,0:0:0:0:
352,96,128433,1,8,0:0:0:0:
160,96,128606,1,0,0:0:0:0:
352,96,128950,1,8,0:0:0:0:
352,96,129295,1,8,0:0:0:0:
160,288,129640,1,4,0:0:0:0:
352,96,130330,1,8,0:0:0:0:
160,96,130675,1,0,0:0:0:0:
352,96,130847,1,8,0:0:0:0:
352,96,131192,1,8,0:0:0:0:
160,96,131364,1,0,0:0:0:0:
352,96,131709,1,8,0:0:0:0:
160,96,132399,1,0,0:0:0:0:
160,96,132744,1,0,0:0:0:0:
352,96,133088,1,8,0:0:0:0:
160,96,133433,1,0,0:0:0:0:
352,96,133606,1,8,0:0:0:0:
352,96,133950,1,8,0:0:0:0:
160,96,134123,1,0,0:0:0:0:
352,288,134295,1,12,0:0:0:0:
