osu file format v14

[General]
AudioFilename: shoeshoeshoe.mp3
AudioLeadIn: 0
PreviewTime: 73988
Countdown: 0
SampleSet: None
StackLeniency: 0.2
Mode: 1
LetterboxInBreaks: 0
WidescreenStoryboard: 0

[Editor]
DistanceSpacing: 0.5
BeatDivisor: 4
GridSize: 8
TimelineZoom: 2.5

[Metadata]
Title:Shoeshoeshoeshoeshoeshoeshoeshoeshoeshoe
TitleUnicode:Shoeshoeshoeshoeshoeshoeshoeshoeshoeshoe
Artist:CXu
ArtistUnicode:CXu
Creator:MillhioreF
Version:Tottottetx4 Tuttuttatx3 tatx2
Source:
Tags:it's dadada except with more hinges
BeatmapID:818516
BeatmapSetID:361159

[Difficulty]
HPDrainRate:0
CircleSize:2
OverallDifficulty:5.5
ApproachRate:0
SliderMultiplier:1.40000000596046
SliderTickRate:1

[Events]
//Background and Video events
0,0,"da.png",0,50
//Break Periods
//Storyboard Layer 0 (Background)
//Storyboard Layer 1 (Fail)
//Storyboard Layer 2 (Pass)
//Storyboard Layer 3 (Foreground)
//Storyboard Sound Samples

[TimingPoints]
7799.92732466578,387.066807731014,4,1,0,100,1,0
69730,-95.2380952380952,4,1,0,100,0,0
70117,-94.3396226415094,4,1,0,100,0,0
70504,-93.4579439252336,4,1,0,100,0,0
70891,-92.5925925925926,4,1,0,100,0,0
71278,-90.9090909090909,4,1,0,100,0,0
71375,-89.2857142857143,4,1,0,100,0,0
71472,-87.719298245614,4,1,0,100,0,0
71569,-86.2068965517241,4,1,0,100,0,0
71665,-84.7457627118644,4,1,0,100,0,0
71762,-83.3333333333333,4,1,0,100,0,0
71859,-81.9672131147541,4,1,0,100,0,0
71956,-80.6451612903226,4,1,0,100,0,0
72053,-79.3650793650794,4,1,0,100,0,0
72149,-78.125,4,1,0,100,0,0
72246,-76.9230769230769,4,1,0,100,0,0
72827,-74.0740740740741,4,1,0,100,0,0
72891,-73.5294117647059,4,1,0,100,0,0
72956,-72.992700729927,4,1,0,100,0,0
73020,-72.463768115942,4,1,0,100,0,0
73085,-71.9424460431655,4,1,0,100,0,0
73149,-71.4285714285714,4,1,0,100,0,0
73214,-70.9219858156028,4,1,0,100,0,0
73278,-70.4225352112676,4,1,0,100,0,0
73343,-69.9300699300699,4,1,0,100,0,0
73407,-69.4444444444444,4,1,0,100,0,0
73472,-68.9655172413793,4,1,0,100,0,0
73536,-68.4931506849315,4,1,0,100,0,0
73601,-66.6666666666667,4,1,0,100,0,0
74375,-71.4285714285714,4,1,0,100,0,0
89664,-100,4,1,0,100,0,0

[HitObjects]
232,136,7799,5,4,0:0:0:0:
232,136,7928,1,4,0:0:0:0:
232,136,8057,1,4,0:0:0:0:
232,136,8186,1,4,0:0:0:0:
232,136,8316,1,4,0:0:0:0:
232,136,8445,1,4,0:0:0:0:
232,136,8574,1,4,0:0:0:0:
232,136,8703,1,4,0:0:0:0:
232,136,8832,1,4,0:0:0:0:
232,136,8961,1,12,0:0:0:0:
232,136,9348,1,0,0:0:0:0:
232,136,9444,1,8,0:0:0:0:
232,136,9638,1,0,0:0:0:0:
232,136,9735,1,8,0:0:0:0:
232,136,9928,1,8,0:0:0:0:
232,136,10122,1,0,0:0:0:0:
232,136,10219,1,0,0:0:0:0:
232,136,10412,1,0,0:0:0:0:
232,136,10509,1,0,0:0:0:0:
232,136,10702,1,0,0:0:0:0:
232,136,10896,1,0,0:0:0:0:
232,136,10993,1,8,0:0:0:0:
232,136,11186,1,0,0:0:0:0:
232,136,11283,1,8,0:0:0:0:
232,136,11477,1,8,0:0:0:0:
232,136,11670,1,4,0:0:0:0:
232,136,11864,1,4,0:0:0:0:
248,128,12057,1,4,0:0:0:0:
232,136,12444,1,0,0:0:0:0:
232,136,12540,1,8,0:0:0:0:
232,136,12734,1,0,0:0:0:0:
232,136,12831,1,8,0:0:0:0:
232,136,13024,1,8,0:0:0:0:
232,136,13218,1,0,0:0:0:0:
232,136,13315,1,0,0:0:0:0:
232,136,13508,1,0,0:0:0:0:
232,136,13605,1,0,0:0:0:0:
232,136,13798,1,0,0:0:0:0:
232,136,13992,1,0,0:0:0:0:
232,136,14089,1,8,0:0:0:0:
232,136,14282,1,0,0:0:0:0:
232,136,14379,1,8,0:0:0:0:
232,136,14573,1,8,0:0:0:0:
232,136,14766,1,4,0:0:0:0:
232,136,14960,1,4,0:0:0:0:
248,128,15153,1,4,0:0:0:0:
240,144,15347,1,0,0:0:0:0:
248,128,15444,1,0,0:0:0:0:
232,136,15541,1,0,0:0:0:0:
232,136,15637,1,8,0:0:0:0:
232,136,15831,1,0,0:0:0:0:
232,136,15928,1,8,0:0:0:0:
232,136,16121,1,8,0:0:0:0:
232,136,16315,1,0,0:0:0:0:
232,136,16412,1,0,0:0:0:0:
232,136,16605,1,0,0:0:0:0:
232,136,16702,1,0,0:0:0:0:
232,136,16895,1,0,0:0:0:0:
232,136,17089,1,0,0:0:0:0:
232,136,17186,1,8,0:0:0:0:
232,136,17379,1,0,0:0:0:0:
232,136,17476,1,8,0:0:0:0:
232,136,17670,1,8,0:0:0:0:
232,136,17863,1,4,0:0:0:0:
232,136,18057,1,4,0:0:0:0:
248,128,18250,1,4,0:0:0:0:
232,136,18637,1,0,0:0:0:0:
232,136,18733,1,8,0:0:0:0:
232,136,18927,1,0,0:0:0:0:
232,136,19024,1,8,0:0:0:0:
232,136,19217,1,8,0:0:0:0:
232,136,19411,1,0,0:0:0:0:
232,136,19508,1,0,0:0:0:0:
232,136,19701,1,0,0:0:0:0:
232,136,19798,1,0,0:0:0:0:
232,136,19991,1,0,0:0:0:0:
232,136,20185,1,0,0:0:0:0:
232,136,20282,1,8,0:0:0:0:
232,136,20475,1,0,0:0:0:0:
232,136,20572,1,8,0:0:0:0:
232,136,20766,1,8,0:0:0:0:
232,136,20959,1,4,0:0:0:0:
232,136,21153,1,4,0:0:0:0:
248,128,21346,1,4,0:0:0:0:
232,136,21734,1,8,0:0:0:0:
248,128,21831,1,0,0:0:0:0:
248,128,21927,1,8,0:0:0:0:
248,128,22024,1,8,0:0:0:0:
248,128,22121,1,0,0:0:0:0:
256,120,22218,1,8,0:0:0:0:
248,128,22411,1,0,0:0:0:0:
248,128,22508,1,8,0:0:0:0:
256,120,22605,1,0,0:0:0:0:
256,120,22798,1,0,0:0:0:0:
256,120,22895,1,0,0:0:0:0:
256,120,23089,1,0,0:0:0:0:
256,120,23282,1,8,0:0:0:0:
256,120,23379,1,8,0:0:0:0:
256,120,23476,1,0,0:0:0:0:
256,88,23669,1,0,0:0:0:0:
256,120,23766,1,0,0:0:0:0:
256,120,23863,1,8,0:0:0:0:
256,88,24056,1,0,0:0:0:0:
256,120,24153,1,0,0:0:0:0:
240,144,24347,1,0,0:0:0:0:
280,112,24443,1,8,0:0:0:0:
240,144,24637,1,0,0:0:0:0:
240,144,24734,1,0,0:0:0:0:
240,144,24830,1,8,0:0:0:0:
240,144,24927,1,8,0:0:0:0:
240,144,25024,1,0,0:0:0:0:
240,144,25217,1,8,0:0:0:0:
240,144,25314,1,8,0:0:0:0:
240,144,25411,1,0,0:0:0:0:
240,144,25605,1,8,0:0:0:0:
240,144,25701,1,8,0:0:0:0:
240,144,25798,1,0,0:0:0:0:
240,144,25992,1,8,0:0:0:0:
240,144,26088,1,8,0:0:0:0:
240,144,26185,1,0,0:0:0:0:
224,112,26379,1,0,0:0:0:0:
248,96,26475,1,0,0:0:0:0:
224,112,26572,1,8,0:0:0:0:
224,112,26766,1,0,0:0:0:0:
224,112,26862,1,0,0:0:0:0:
224,112,26959,1,8,0:0:0:0:
240,112,27153,1,0,0:0:0:0:
240,112,27250,1,0,0:0:0:0:
240,112,27346,1,8,0:0:0:0:
240,112,27540,1,8,0:0:0:0:
240,112,27733,1,8,0:0:0:0:
240,112,27927,1,0,0:0:0:0:
240,112,28024,1,8,0:0:0:0:
240,112,28120,1,8,0:0:0:0:
240,112,28217,1,0,0:0:0:0:
232,112,28314,1,8,0:0:0:0:
240,112,28508,1,8,0:0:0:0:
240,112,28604,1,8,0:0:0:0:
240,112,28701,1,0,0:0:0:0:
240,104,28798,1,8,0:0:0:0:
240,112,28991,1,0,0:0:0:0:
240,112,29088,1,0,0:0:0:0:
240,96,29282,1,0,0:0:0:0:
240,112,29378,1,8,0:0:0:0:
240,112,29475,1,0,0:0:0:0:
240,112,29572,1,8,0:0:0:0:
280,112,29669,1,0,0:0:0:0:
280,112,29765,1,0,0:0:0:0:
264,128,29862,1,8,0:0:0:0:
280,112,29959,1,8,0:0:0:0:
280,112,30056,1,0,0:0:0:0:
232,136,30153,1,0,0:0:0:0:
232,104,30249,1,8,0:0:0:0:
232,136,30346,1,8,0:0:0:0:
288,104,30443,1,0,0:0:0:0:
288,104,30540,1,8,0:0:0:0:
288,104,30636,1,8,0:0:0:0:
288,104,30830,1,0,0:0:0:0:
288,104,30927,1,0,0:0:0:0:
240,144,31023,1,8,0:0:0:0:
240,144,31120,1,8,0:0:0:0:
240,144,31217,1,0,0:0:0:0:
240,144,31410,1,8,0:0:0:0:
240,144,31507,1,8,0:0:0:0:
240,144,31604,1,0,0:0:0:0:
240,144,31798,1,8,0:0:0:0:
240,144,31894,1,8,0:0:0:0:
240,144,31991,1,0,0:0:0:0:
240,144,32185,1,8,0:0:0:0:
240,144,32281,1,8,0:0:0:0:
240,144,32378,1,0,0:0:0:0:
224,112,32572,1,0,0:0:0:0:
248,96,32668,1,0,0:0:0:0:
224,112,32765,1,8,0:0:0:0:
224,112,32959,1,0,0:0:0:0:
224,112,33055,1,0,0:0:0:0:
224,112,33152,1,8,0:0:0:0:
240,104,33346,1,4,0:0:0:0:
240,104,33636,1,4,0:0:0:0:
240,104,33733,1,12,0:0:0:0:
232,72,34120,1,8,0:0:0:0:
240,104,34217,1,8,0:0:0:0:
240,104,34314,1,0,0:0:0:0:
240,104,34410,1,8,0:0:0:0:
240,104,34604,1,0,0:0:0:0:
240,104,34701,1,8,0:0:0:0:
232,80,34894,1,0,0:0:0:0:
232,80,34991,1,8,0:0:0:0:
232,80,35088,1,0,0:0:0:0:
232,72,35184,1,8,0:0:0:0:
240,64,35378,1,0,0:0:0:0:
240,64,35475,5,0,0:0:0:0:
232,72,35668,1,8,0:0:0:0:
232,72,35765,1,8,0:0:0:0:
232,72,35862,1,0,0:0:0:0:
232,72,35959,1,8,0:0:0:0:
232,72,36152,1,0,0:0:0:0:
232,72,36249,1,8,0:0:0:0:
232,72,36442,1,4,0:0:0:0:
232,72,36636,1,4,0:0:0:0:
232,72,36829,1,4,0:0:0:0:
232,72,37023,1,0,0:0:0:0:
232,72,37120,1,0,0:0:0:0:
232,72,37217,1,8,0:0:0:0:
232,72,37313,1,8,0:0:0:0:
232,72,37410,1,0,0:0:0:0:
232,72,37507,1,8,0:0:0:0:
232,72,37700,1,0,0:0:0:0:
232,72,37797,1,8,0:0:0:0:
232,72,37991,1,0,0:0:0:0:
232,72,38087,1,8,0:0:0:0:
232,72,38184,1,0,0:0:0:0:
232,72,38281,1,8,0:0:0:0:
232,72,38474,1,0,0:0:0:0:
232,72,38571,1,0,0:0:0:0:
232,80,38765,1,8,0:0:0:0:
232,80,38862,1,8,0:0:0:0:
232,80,38958,1,0,0:0:0:0:
232,80,39055,1,8,0:0:0:0:
232,80,39249,1,0,0:0:0:0:
232,80,39345,1,8,0:0:0:0:
232,80,39539,1,4,0:0:0:0:
232,80,39732,1,4,0:0:0:0:
232,80,39926,1,4,0:0:0:0:
232,80,40313,1,8,0:0:0:0:
240,104,40410,1,8,0:0:0:0:
240,80,40603,1,0,0:0:0:0:
240,80,40700,1,8,0:0:0:0:
240,104,40797,1,0,0:0:0:0:
240,104,40894,1,8,0:0:0:0:
232,80,41087,1,0,0:0:0:0:
232,80,41184,1,8,0:0:0:0:
232,80,41377,1,0,0:0:0:0:
232,80,41474,1,8,0:0:0:0:
232,80,41571,1,0,0:0:0:0:
240,64,41668,5,0,0:0:0:0:
232,72,41861,1,8,0:0:0:0:
232,72,41958,1,8,0:0:0:0:
248,80,42152,1,0,0:0:0:0:
248,80,42248,1,8,0:0:0:0:
232,72,42345,1,0,0:0:0:0:
232,72,42442,1,8,0:0:0:0:
232,72,42635,1,4,0:0:0:0:
232,72,42829,1,4,0:0:0:0:
232,72,43022,1,4,0:0:0:0:
232,72,43216,1,0,0:0:0:0:
232,72,43313,1,0,0:0:0:0:
232,72,43410,1,8,0:0:0:0:
232,72,43506,1,8,0:0:0:0:
232,80,43700,1,8,0:0:0:0:
248,80,43797,1,8,0:0:0:0:
232,72,43893,1,0,0:0:0:0:
232,72,43990,5,8,0:0:0:0:
232,72,44184,1,0,0:0:0:0:
232,72,44280,1,8,0:0:0:0:
248,80,44474,1,0,0:0:0:0:
248,80,44571,1,8,0:0:0:0:
232,80,44668,1,8,0:0:0:0:
232,72,44764,1,0,0:0:0:0:
232,80,44958,1,8,0:0:0:0:
232,80,45055,1,8,0:0:0:0:
232,80,45248,1,8,0:0:0:0:
232,80,45345,1,8,0:0:0:0:
232,80,45442,1,0,0:0:0:0:
232,80,45538,1,8,0:0:0:0:
232,80,45732,1,4,0:0:0:0:
232,80,45926,1,4,0:0:0:0:
232,80,46119,1,12,0:0:0:0:
232,80,46313,1,0,0:0:0:0:
232,80,46409,1,0,0:0:0:0:
232,136,46506,1,8,0:0:0:0:
248,128,46603,1,0,0:0:0:0:
248,128,46699,1,8,0:0:0:0:
248,128,46796,1,8,0:0:0:0:
248,128,46893,1,0,0:0:0:0:
280,112,46990,1,8,0:0:0:0:
248,128,47183,1,0,0:0:0:0:
248,128,47280,1,8,0:0:0:0:
256,120,47377,1,0,0:0:0:0:
256,120,47570,1,0,0:0:0:0:
256,120,47667,1,0,0:0:0:0:
256,120,47861,1,0,0:0:0:0:
256,120,48054,1,8,0:0:0:0:
256,120,48151,1,8,0:0:0:0:
256,120,48248,1,0,0:0:0:0:
256,88,48441,1,0,0:0:0:0:
256,120,48538,1,0,0:0:0:0:
256,120,48635,1,8,0:0:0:0:
256,88,48828,1,0,0:0:0:0:
248,128,48925,1,0,0:0:0:0:
240,144,49119,1,0,0:0:0:0:
248,128,49216,1,8,0:0:0:0:
240,144,49409,1,0,0:0:0:0:
240,144,49506,1,0,0:0:0:0:
240,144,49602,1,8,0:0:0:0:
240,144,49699,1,8,0:0:0:0:
240,144,49796,1,0,0:0:0:0:
240,144,49989,1,8,0:0:0:0:
240,144,50086,1,8,0:0:0:0:
240,144,50183,1,0,0:0:0:0:
240,144,50377,1,8,0:0:0:0:
240,144,50473,1,8,0:0:0:0:
240,144,50570,1,0,0:0:0:0:
240,144,50764,1,8,0:0:0:0:
240,144,50860,1,8,0:0:0:0:
240,144,50957,1,0,0:0:0:0:
224,112,51151,1,0,0:0:0:0:
248,96,51247,1,0,0:0:0:0:
224,112,51344,1,8,0:0:0:0:
224,112,51538,1,0,0:0:0:0:
224,112,51634,1,0,0:0:0:0:
224,112,51731,1,8,0:0:0:0:
240,112,51925,1,0,0:0:0:0:
240,112,52022,1,0,0:0:0:0:
240,112,52118,1,8,0:0:0:0:
248,112,52215,1,8,0:0:0:0:
240,112,52312,1,8,0:0:0:0:
240,112,52505,1,8,0:0:0:0:
240,112,52699,1,0,0:0:0:0:
240,112,52796,1,8,0:0:0:0:
240,112,52892,1,8,0:0:0:0:
240,112,52989,1,0,0:0:0:0:
256,128,53086,1,8,0:0:0:0:
240,112,53280,1,8,0:0:0:0:
240,112,53376,1,8,0:0:0:0:
240,112,53473,1,0,0:0:0:0:
240,104,53570,1,8,0:0:0:0:
240,112,53667,1,0,0:0:0:0:
240,112,53763,1,0,0:0:0:0:
240,112,53860,1,0,0:0:0:0:
240,96,54054,1,0,0:0:0:0:
240,112,54150,1,8,0:0:0:0:
240,112,54247,1,0,0:0:0:0:
240,112,54344,1,8,0:0:0:0:
280,112,54441,1,0,0:0:0:0:
280,112,54537,1,0,0:0:0:0:
264,128,54634,1,8,0:0:0:0:
280,112,54731,1,8,0:0:0:0:
280,112,54828,1,0,0:0:0:0:
272,128,54925,1,0,0:0:0:0:
272,128,55022,1,8,0:0:0:0:
280,112,55118,1,8,0:0:0:0:
280,112,55215,1,0,0:0:0:0:
288,104,55312,1,8,0:0:0:0:
288,104,55408,1,8,0:0:0:0:
288,104,55602,1,0,0:0:0:0:
288,104,55699,1,0,0:0:0:0:
240,144,55795,1,8,0:0:0:0:
240,144,55892,1,8,0:0:0:0:
240,144,55989,1,0,0:0:0:0:
240,144,56182,1,8,0:0:0:0:
240,144,56279,1,8,0:0:0:0:
240,144,56376,1,0,0:0:0:0:
240,144,56570,1,8,0:0:0:0:
240,144,56666,1,8,0:0:0:0:
240,144,56763,1,0,0:0:0:0:
240,144,56957,1,8,0:0:0:0:
240,144,57053,1,8,0:0:0:0:
240,144,57150,1,0,0:0:0:0:
248,144,57247,1,0,0:0:0:0:
264,136,57344,1,8,0:0:0:0:
264,136,57538,1,0,0:0:0:0:
264,136,57731,1,8,0:0:0:0:
264,136,57925,1,8,0:0:0:0:
264,136,58021,1,0,0:0:0:0:
264,136,58118,1,8,0:0:0:0:
264,136,58215,1,0,0:0:0:0:
264,136,58312,1,0,0:0:0:0:
264,136,58408,1,8,0:0:0:0:
264,136,58505,1,0,0:0:0:0:
264,120,58699,1,0,0:0:0:0:
264,120,58892,1,8,0:0:0:0:
256,120,58989,1,8,0:0:0:0:
256,120,59086,1,0,0:0:0:0:
264,120,59183,1,8,0:0:0:0:
256,112,59279,1,8,0:0:0:0:
264,120,59473,1,0,0:0:0:0:
264,120,59666,1,8,0:0:0:0:
248,96,59763,1,0,0:0:0:0:
256,112,59860,1,0,0:0:0:0:
256,120,59957,1,8,0:0:0:0:
248,96,60053,1,0,0:0:0:0:
240,96,60247,1,0,0:0:0:0:
240,96,60441,1,8,0:0:0:0:
240,96,60537,1,8,0:0:0:0:
240,96,60634,1,0,0:0:0:0:
240,96,60731,1,8,0:0:0:0:
240,96,60828,1,8,0:0:0:0:
240,104,61021,1,0,0:0:0:0:
240,104,61215,1,8,0:0:0:0:
240,104,61408,1,0,0:0:0:0:
240,104,61505,1,0,0:0:0:0:
240,104,61602,1,8,0:0:0:0:
240,96,61795,1,8,0:0:0:0:
240,96,61892,1,8,0:0:0:0:
240,96,61989,1,0,0:0:0:0:
240,96,62182,1,0,0:0:0:0:
240,96,62279,1,8,0:0:0:0:
240,96,62376,1,8,0:0:0:0:
240,104,62473,1,0,0:0:0:0:
240,104,62569,1,0,0:0:0:0:
232,96,62763,1,0,0:0:0:0:
232,96,62956,1,8,0:0:0:0:
248,112,63053,1,8,0:0:0:0:
232,96,63150,1,0,0:0:0:0:
232,96,63344,1,0,0:0:0:0:
232,96,63537,1,8,0:0:0:0:
232,96,63634,1,0,0:0:0:0:
232,96,63731,1,8,0:0:0:0:
232,96,63827,1,0,0:0:0:0:
232,96,63924,1,8,0:0:0:0:
248,112,64021,1,0,0:0:0:0:
232,96,64118,1,8,0:0:0:0:
248,112,64214,1,0,0:0:0:0:
232,96,64311,1,8,0:0:0:0:
248,112,64408,1,8,0:0:0:0:
232,96,64601,1,0,0:0:0:0:
232,96,64698,1,8,0:0:0:0:
232,96,64892,1,0,0:0:0:0:
264,120,65085,1,8,0:0:0:0:
256,120,65182,1,8,0:0:0:0:
256,120,65279,1,0,0:0:0:0:
264,120,65376,1,8,0:0:0:0:
256,112,65472,1,8,0:0:0:0:
264,120,65666,1,0,0:0:0:0:
264,120,65859,1,8,0:0:0:0:
248,96,65956,1,0,0:0:0:0:
256,112,66053,1,0,0:0:0:0:
256,120,66150,1,8,0:0:0:0:
248,96,66246,1,0,0:0:0:0:
240,96,66440,1,0,0:0:0:0:
240,96,66634,1,8,0:0:0:0:
240,96,66730,1,8,0:0:0:0:
240,96,66827,1,0,0:0:0:0:
240,96,66924,1,8,0:0:0:0:
240,96,67021,1,8,0:0:0:0:
240,104,67214,1,0,0:0:0:0:
240,104,67408,1,8,0:0:0:0:
240,104,67601,1,0,0:0:0:0:
240,104,67698,1,0,0:0:0:0:
240,104,67795,1,8,0:0:0:0:
240,96,67988,1,8,0:0:0:0:
240,96,68085,1,8,0:0:0:0:
240,96,68182,1,0,0:0:0:0:
240,96,68279,1,8,0:0:0:0:
240,96,68472,1,0,0:0:0:0:
240,96,68569,1,8,0:0:0:0:
240,96,68762,1,8,0:0:0:0:
240,88,68956,1,0,0:0:0:0:
248,88,69053,1,0,0:0:0:0:
240,88,69246,1,0,0:0:0:0:
248,88,69343,1,0,0:0:0:0:
248,88,69537,1,0,0:0:0:0:
248,88,69730,1,8,0:0:0:0:
248,88,69827,1,8,0:0:0:0:
248,88,69924,1,0,0:0:0:0:
248,88,70117,1,8,0:0:0:0:
248,88,70311,1,0,0:0:0:0:
248,88,70504,1,8,0:0:0:0:
248,88,70601,1,0,0:0:0:0:
248,88,70698,1,0,0:0:0:0:
248,88,70891,1,0,0:0:0:0:
248,88,71085,1,8,0:0:0:0:
248,88,71278,1,8,0:0:0:0:
256,80,71375,1,0,0:0:0:0:
256,80,71472,1,0,0:0:0:0:
256,80,71569,1,0,0:0:0:0:
256,80,71665,1,0,0:0:0:0:
256,80,71762,1,0,0:0:0:0:
256,80,71859,1,8,0:0:0:0:
256,80,71956,1,0,0:0:0:0:
256,80,72053,1,8,0:0:0:0:
256,80,72149,1,8,0:0:0:0:
256,80,72246,1,0,0:0:0:0:
256,80,72343,1,0,0:0:0:0:
256,80,72440,1,0,0:0:0:0:
256,80,72536,1,0,0:0:0:0:
256,80,72633,1,0,0:0:0:0:
256,80,72730,1,0,0:0:0:0:
256,80,72827,1,8,0:0:0:0:
256,72,72891,1,8,0:0:0:0:
256,72,72956,1,8,0:0:0:0:
256,72,73020,1,8,0:0:0:0:
256,72,73085,1,8,0:0:0:0:
256,72,73149,1,8,0:0:0:0:
256,72,73214,1,0,0:0:0:0:
240,72,73278,1,0,0:0:0:0:
240,72,73343,1,0,0:0:0:0:
240,72,73407,1,0,0:0:0:0:
240,72,73472,1,0,0:0:0:0:
240,72,73536,1,0,0:0:0:0:
256,64,73601,1,12,0:0:0:0:
256,64,73988,1,0,0:0:0:0:
248,72,74375,1,4,0:0:0:0:
248,72,74504,1,4,0:0:0:0:
248,72,74633,1,4,0:0:0:0:
248,72,74762,1,4,0:0:0:0:
248,80,74891,1,4,0:0:0:0:
248,72,75020,1,4,0:0:0:0:
248,72,75149,1,4,0:0:0:0:
248,80,75278,1,4,0:0:0:0:
248,72,75407,1,4,0:0:0:0:
248,72,75536,1,4,0:0:0:0:
248,72,75923,1,4,0:0:0:0:
248,72,76052,1,4,0:0:0:0:
248,72,76181,1,4,0:0:0:0:
248,72,76310,1,4,0:0:0:0:
248,80,76439,1,4,0:0:0:0:
248,72,76568,1,4,0:0:0:0:
248,72,76697,1,4,0:0:0:0:
248,80,76826,1,4,0:0:0:0:
248,72,76955,1,4,0:0:0:0:
248,72,77084,1,4,0:0:0:0:
256,56,77213,1,8,0:0:0:0:
256,64,77342,1,8,0:0:0:0:
248,72,77471,1,4,0:0:0:0:
248,72,77600,1,4,0:0:0:0:
248,72,77729,1,4,0:0:0:0:
248,72,77858,1,4,0:0:0:0:
248,80,77987,1,4,0:0:0:0:
248,72,78116,1,4,0:0:0:0:
248,72,78245,1,4,0:0:0:0:
248,80,78374,1,4,0:0:0:0:
248,72,78503,1,4,0:0:0:0:
248,72,78632,1,4,0:0:0:0:
248,72,78762,1,4,0:0:0:0:
248,72,78891,1,4,0:0:0:0:
248,72,79020,1,4,0:0:0:0:
248,72,79149,1,4,0:0:0:0:
248,80,79278,1,4,0:0:0:0:
248,72,79407,1,4,0:0:0:0:
248,72,79536,1,4,0:0:0:0:
248,80,79665,1,4,0:0:0:0:
248,72,79794,1,4,0:0:0:0:
232,72,79987,1,0,0:0:0:0:
248,72,80052,1,0,0:0:0:0:
256,72,80116,1,0,0:0:0:0:
248,72,80181,1,8,0:0:0:0:
248,72,80568,1,4,0:0:0:0:
248,72,80697,1,4,0:0:0:0:
248,72,80826,1,4,0:0:0:0:
248,72,80955,1,12,0:0:0:0:
248,80,81084,1,12,0:0:0:0:
248,72,81213,1,12,0:0:0:0:
248,72,81342,1,4,0:0:0:0:
248,80,81471,1,4,0:0:0:0:
248,72,81600,1,4,0:0:0:0:
232,80,81729,1,12,0:0:0:0:
232,80,81858,1,0,0:0:0:0:
232,80,81987,1,0,0:0:0:0:
248,72,82116,1,12,0:0:0:0:
248,72,82245,1,12,0:0:0:0:
248,72,82374,1,12,0:0:0:0:
248,72,82503,1,4,0:0:0:0:
248,80,82632,1,4,0:0:0:0:
248,72,82761,1,4,0:0:0:0:
248,72,82890,1,12,0:0:0:0:
248,80,83019,1,12,0:0:0:0:
248,72,83148,1,12,0:0:0:0:
248,72,83277,1,4,0:0:0:0:
232,80,83406,1,0,0:0:0:0:
232,80,83535,1,0,0:0:0:0:
248,72,83665,1,4,0:0:0:0:
248,72,83794,1,4,0:0:0:0:
248,72,83923,1,4,0:0:0:0:
248,72,84052,1,4,0:0:0:0:
248,80,84181,1,4,0:0:0:0:
248,72,84310,1,4,0:0:0:0:
248,72,84439,1,12,0:0:0:0:
248,80,84568,1,12,0:0:0:0:
248,72,84697,1,12,0:0:0:0:
248,72,84826,1,12,0:0:0:0:
248,72,84955,1,12,0:0:0:0:
248,72,85084,1,12,0:0:0:0:
248,72,85213,1,4,0:0:0:0:
248,72,85342,1,4,0:0:0:0:
248,80,85471,1,4,0:0:0:0:
248,72,85600,1,4,0:0:0:0:
248,72,85729,1,4,0:0:0:0:
248,80,85858,1,4,0:0:0:0:
248,72,85987,1,12,0:0:0:0:
248,80,86374,1,8,0:0:0:0:
232,80,86761,1,12,0:0:0:0:
232,80,86890,1,12,0:0:0:0:
232,80,87019,1,12,0:0:0:0:
232,80,87148,1,4,0:0:0:0:
232,80,87535,1,4,0:0:0:0:
232,80,87664,1,4,0:0:0:0:
232,80,87793,1,4,0:0:0:0:
232,80,87922,1,12,0:0:0:0:
232,88,88309,1,4,0:0:0:0:
232,88,88438,1,12,0:0:0:0:
232,88,88567,1,4,0:0:0:0:
232,88,88696,1,12,0:0:0:0:
232,104,88825,1,4,0:0:0:0:
240,104,88890,1,4,0:0:0:0:
232,104,88954,1,4,0:0:0:0:
240,104,89083,1,12,0:0:0:0:
240,104,89471,1,8,0:0:0:0:
232,136,89858,5,0,0:0:0:0:
232,136,89954,1,8,0:0:0:0:
232,136,90148,1,0,0:0:0:0:
232,136,90245,1,8,0:0:0:0:
232,136,90438,1,8,0:0:0:0:
232,136,90632,1,0,0:0:0:0:
232,136,90729,1,0,0:0:0:0:
232,136,90922,1,0,0:0:0:0:
232,136,91019,1,0,0:0:0:0:
232,136,91212,1,0,0:0:0:0:
232,136,91406,1,0,0:0:0:0:
232,136,91503,1,8,0:0:0:0:
232,136,91696,1,0,0:0:0:0:
232,136,91793,1,8,0:0:0:0:
232,136,91987,1,8,0:0:0:0:
232,136,92180,1,4,0:0:0:0:
232,136,92374,1,4,0:0:0:0:
248,128,92567,1,4,0:0:0:0:
232,136,92954,1,0,0:0:0:0:
232,136,93050,1,8,0:0:0:0:
232,136,93244,1,0,0:0:0:0:
232,136,93341,1,8,0:0:0:0:
232,136,93534,1,8,0:0:0:0:
232,136,93728,1,0,0:0:0:0:
232,136,93825,1,0,0:0:0:0:
232,136,94018,1,0,0:0:0:0:
232,136,94115,1,0,0:0:0:0:
232,136,94308,1,0,0:0:0:0:
232,136,94502,1,0,0:0:0:0:
232,136,94599,1,8,0:0:0:0:
232,136,94792,1,0,0:0:0:0:
232,136,94889,1,8,0:0:0:0:
232,136,95083,1,8,0:0:0:0:
232,136,95276,1,4,0:0:0:0:
232,136,95470,1,4,0:0:0:0:
248,128,95663,1,4,0:0:0:0:
240,144,95857,1,0,0:0:0:0:
248,128,95954,1,0,0:0:0:0:
232,136,96051,1,0,0:0:0:0:
232,136,96147,1,8,0:0:0:0:
232,136,96341,1,0,0:0:0:0:
232,136,96438,1,8,0:0:0:0:
232,136,96631,1,8,0:0:0:0:
232,136,96825,1,0,0:0:0:0:
232,136,96922,1,0,0:0:0:0:
232,136,97115,1,0,0:0:0:0:
232,136,97212,1,0,0:0:0:0:
232,136,97405,1,0,0:0:0:0:
232,136,97599,1,0,0:0:0:0:
232,136,97696,1,8,0:0:0:0:
232,136,97889,1,0,0:0:0:0:
232,136,97986,1,8,0:0:0:0:
232,136,98180,1,8,0:0:0:0:
232,136,98373,1,4,0:0:0:0:
232,136,98567,1,4,0:0:0:0:
248,128,98760,1,4,0:0:0:0:
240,120,98954,1,0,0:0:0:0:
240,120,99050,1,0,0:0:0:0:
240,120,99147,1,8,0:0:0:0:
232,136,99243,1,8,0:0:0:0:
232,136,99341,1,0,0:0:0:0:
232,136,99437,1,8,0:0:0:0:
240,120,99534,1,0,0:0:0:0:
232,136,99727,1,8,0:0:0:0:
232,136,99921,1,0,0:0:0:0:
232,112,100018,1,8,0:0:0:0:
232,112,100115,1,0,0:0:0:0:
232,112,100212,1,8,0:0:0:0:
232,136,100405,1,0,0:0:0:0:
232,136,100501,1,0,0:0:0:0:
232,136,100695,1,0,0:0:0:0:
232,136,100792,1,8,0:0:0:0:
224,104,100889,1,0,0:0:0:0:
224,104,100986,1,8,0:0:0:0:
224,128,101083,1,8,0:0:0:0:
224,120,101179,1,8,0:0:0:0:
224,120,101276,1,0,0:0:0:0:
232,136,101469,1,4,0:0:0:0:
232,136,101663,1,4,0:0:0:0:
248,128,101856,1,4,0:0:0:0:
