osu file format v14

[General]
AudioFilename: shoeshoeshoe.mp3
AudioLeadIn: 0
PreviewTime: 73988
Countdown: 0
SampleSet: None
StackLeniency: 0.2
Mode: 0
LetterboxInBreaks: 0
WidescreenStoryboard: 1

[Editor]
Bookmarks: 25605
DistanceSpacing: 0.5
BeatDivisor: 4
GridSize: 8
TimelineZoom: 2.5

[Metadata]
Title:Shoeshoeshoeshoeshoeshoeshoeshoeshoeshoe
TitleUnicode:Shoeshoeshoeshoeshoeshoeshoeshoeshoeshoe
Artist:CXu
ArtistUnicode:CXu
Creator:MillhioreF
Version:ShoekiZ
Source:
Tags:it's dadada except with more hinges
BeatmapID:797565
BeatmapSetID:361159

[Difficulty]
HPDrainRate:3.2
CircleSize:4.2
OverallDifficulty:8.2
ApproachRate:9.2
SliderMultiplier:3.59999990463257
SliderTickRate:1

[Events]
//Background and Video events
0,0,"da.png",0,0
//Break Periods
//Storyboard Layer 0 (Background)
//Storyboard Layer 1 (Fail)
//Storyboard Layer 2 (Pass)
//Storyboard Layer 3 (Foreground)
//Storyboard Sound Samples

[TimingPoints]
7799.92732466578,387.066807731014,4,1,0,100,1,0
9348,-50,4,1,0,100,0,0
21734,-200,4,1,0,100,0,0
24830,-50,4,1,0,100,0,0
27927,-200,4,1,0,100,0,0
31023,-50,4,1,0,100,0,0
46506,-200,4,1,0,100,0,0
49603,-50,4,1,0,100,0,0
51151,-66.6666666666667,4,1,0,100,0,0
52699,-200,4,1,0,100,0,0
55796,-50,4,1,0,100,0,0
58892,-50,4,1,0,100,0,0
59110,-50,4,1,0,20,0,0
59158,-50,4,1,0,100,0,0
59400,-50,4,1,0,20,0,0
59449,-50,4,1,0,100,0,0
59884,-50,4,1,0,20,0,0
59932,-50,4,1,0,100,0,0
60174,-50,4,1,0,20,0,0
60223,-50,4,1,0,100,0,0
60658,-50,4,1,0,20,0,0
60707,-50,4,1,0,100,0,0
60949,-50,4,1,0,20,0,0
60997,-50,4,1,0,100,0,0
61336,-50,4,1,0,20,0,0
61384,-50,4,1,0,100,0,0
61529,-50,4,1,0,20,0,0
61578,-50,4,1,0,100,0,0
62303,-50,4,1,0,20,0,0
62352,-50,4,1,0,100,0,0
62497,-50,4,1,0,20,0,0
62545,-50,4,1,0,100,0,0
62690,-50,4,1,0,20,0,0
62739,-50,4,1,0,100,0,0
62981,-50,4,1,0,20,0,0
63029,-50,4,1,0,100,0,0
63271,-50,4,1,0,20,0,0
63319,-50,4,1,0,100,0,0
63464,-50,4,1,0,20,0,0
63513,-50,4,1,0,100,0,0
63658,-50,4,1,0,20,0,0
63706,-50,4,1,0,100,0,0
63852,-50,4,1,0,20,0,0
63900,-50,4,1,0,100,0,0
64045,-50,4,1,0,20,0,0
64093,-50,4,1,0,100,0,0
64239,-50,4,1,0,20,0,0
64287,-50,4,1,0,100,0,0
65013,-50,4,1,0,20,0,0
65061,-50,4,1,0,100,0,0
65303,-50,4,1,0,20,0,0
65351,-50,4,1,0,100,0,0
65593,-50,4,1,0,20,0,0
65642,-50,4,1,0,100,0,0
66077,-50,4,1,0,20,0,0
66125,-50,4,1,0,100,0,0
66367,-50,4,1,0,20,0,0
66416,-50,4,1,0,100,0,0
66851,-50,4,1,0,20,0,0
66900,-50,4,1,0,100,0,0
67142,-50,4,1,0,20,0,0
67190,-50,4,1,0,100,0,0
67529,-50,4,1,0,20,0,0
67577,-50,4,1,0,100,0,0
67722,-50,4,1,0,20,0,0
67771,-50,4,1,0,100,0,0
68182,-50,4,1,0,100,0,0
71278,-50,4,1,1,100,0,0
71786,-50,4,1,1,20,0,0
71835,-50,4,1,1,100,0,0
71980,-50,4,1,1,20,0,0
72028,-50,4,1,1,100,0,0
72827,-50,4,1,1,100,0,0
73528,-50,4,1,1,20,0,0
73577,-50,4,1,1,100,0,0
74302,-50,4,1,1,20,0,0
74351,-50,4,1,1,100,0,0
89858,-50,4,1,1,100,0,0

[HitObjects]
136,208,7799,5,0,0:0:0:0:
256,136,7928,1,0,0:0:0:0:
344,240,8057,1,0,0:0:0:0:
75,168,8186,5,0,0:0:0:0:
277,110,8316,1,0,0:0:0:0:
364,295,8445,1,0,0:0:0:0:
46,105,8574,5,0,0:0:0:0:
308,101,8703,1,0,0:0:0:0:
353,352,8832,1,0,0:0:0:0:
48,32,8961,5,0,0:0:0:0:
344,104,9348,5,0,0:0:0:0:
344,104,9444,2,0,P|344:240|256:288,1,179.999995231628
248,312,9638,1,0,0:0:0:0:
248,312,9735,2,0,P|176:288|64:320,1,179.999995231628
0,352,9928,2,0,L|48:104,1,179.999995231628
112,72,10122,5,0,0:0:0:0:
112,72,10219,2,0,P|224:112|272:72,1,179.999995231628
192,32,10412,1,0,0:0:0:0:
192,32,10509,2,0,P|224:160|352:176,1,179.999995231628
344,200,10702,2,0,L|184:352,1,179.999995231628
76,311,10896,5,0,0:0:0:0:
76,311,10993,2,0,P|168:184|160:136,1,179.999995231628
248,112,11186,1,0,0:0:0:0:
248,112,11283,2,0,P|376:72|440:112,1,179.999995231628
448,176,11477,2,0,P|392:253|424:368,1,179.999995231628
512,280,11670,5,0,0:0:0:0:
256,192,11864,1,0,0:0:0:0:
0,104,12057,2,0,P|200:192|0:280,1,539.999985694885
80,192,12444,5,0,0:0:0:0:
80,192,12541,2,0,P|144:80|216:72,1,179.999995231628
280,72,12735,1,0,0:0:0:0:
280,72,12831,2,0,P|368:152|448:128,1,179.999995231628
504,96,13025,2,0,L|448:288,1,179.999995231628
344,336,13218,5,0,0:0:0:0:
344,336,13315,2,0,P|256:304|168:336,1,179.999995231628
112,288,13509,1,0,0:0:0:0:
112,288,13605,2,0,P|176:216|288:200,1,179.999995231628
336,160,13799,2,0,P|272:104|120:112,1,179.999995231628
64,136,13992,5,0,0:0:0:0:
64,136,14089,2,0,P|176:216|192:304,1,179.999995231628
184,344,14283,1,0,0:0:0:0:
184,344,14380,2,0,P|312:288|424:304,1,179.999995231628
448,304,14573,2,0,P|432:120|456:80,1,179.999995231628
472,56,14767,5,0,0:0:0:0:
256,192,14960,1,0,0:0:0:0:
40,328,15154,1,0,0:0:0:0:
40,272,15250,1,0,0:0:0:0:
40,216,15347,1,0,0:0:0:0:
40,160,15444,1,0,0:0:0:0:
40,104,15541,5,0,0:0:0:0:
40,104,15638,2,0,P|168:120|272:40,1,179.999995231628
280,40,15831,1,0,0:0:0:0:
280,40,15928,2,0,L|344:240,1,179.999995231628
408,200,16121,2,0,L|353:28,1,179.999995231628
426,16,16315,5,0,0:0:0:0:
426,16,16412,2,0,L|481:188,1,179.999995231628
488,296,16605,1,0,0:0:0:0:
488,296,16702,2,0,P|392:272|272:344,1,179.999995231628
240,344,16895,2,0,P|136:240|136:160,1,179.999995231628
144,120,17089,5,0,0:0:0:0:
144,120,17186,2,0,P|288:128|328:184,1,179.999995231628
336,224,17379,1,0,0:0:0:0:
336,224,17476,2,0,P|384:112|448:80,1,179.999995231628
512,64,17670,2,0,L|312:32,1,179.999995231628
224,16,17863,5,0,0:0:0:0:
256,192,18057,1,0,0:0:0:0:
288,368,18250,2,0,B|112:312|72:184|72:184|224:192|304:320,1,539.999985694885
352,320,18637,5,0,0:0:0:0:
352,320,18734,2,0,P|437:308|520:216,1,179.999995231628
456,152,18928,1,0,0:0:0:0:
456,152,19024,2,0,P|370:164|288:256,1,179.999995231628
240,304,19218,2,0,L|120:88,1,179.999995231628
104,48,19411,5,0,0:0:0:0:
104,48,19508,2,0,P|240:72|312:32,1,179.999995231628
352,16,19702,1,0,0:0:0:0:
352,16,19798,2,0,P|336:200|360:232,1,179.999995231628
392,240,19992,2,0,P|240:304|160:280,1,179.999995231628
144,272,20186,5,0,0:0:0:0:
144,272,20282,2,0,L|48:112,1,179.999995231628
104,48,20476,1,0,0:0:0:0:
104,48,20573,2,0,P|224:72|256:192,1,179.999995231628
256,192,20766,2,0,P|317:255|404:257,1,179.999995231628
480,216,20960,5,0,0:0:0:0:
256,192,21153,1,0,0:0:0:0:
32,168,21347,1,0,0:0:0:0:
480,216,21734,6,0,B|288:136|288:136|208:32|208:32|128:48|48:40|48:40|48:248|48:248|80:272|128:272|128:272|128:248|128:248|216:320|232:320|392:320|512:336|488:224|488:224|480:216,1,1259.9999666214
480,216,24830,6,0,L|384:56,2,179.999995231628
368,168,25217,2,0,L|204:77,2,179.999995231628
247,182,25605,2,0,L|60:185,2,179.999995231628
160,256,25992,2,0,L|0:352,2,179.999995231628
387,61,26379,5,0,0:0:0:0:
387,61,26475,1,0,0:0:0:0:
387,61,26572,1,0,0:0:0:0:
210,80,26766,1,0,0:0:0:0:
210,80,26862,1,0,0:0:0:0:
210,80,26959,1,0,0:0:0:0:
67,185,27153,5,0,0:0:0:0:
67,185,27250,1,0,0:0:0:0:
67,185,27346,2,0,P|160:256|296:216,1,179.999995231628
292,257,27540,2,0,P|380:245|445:185,1,179.999995231628
328,128,27733,2,0,P|256:80|184:128,1,179.999995231628
32,216,27927,6,0,B|224:136|224:136|304:32|304:32|384:48|464:40|464:40|464:248|464:248|432:272|384:272|384:272|384:248|384:248|296:320|280:320|120:320|0:336|24:224|24:224|32:216,1,1259.9999666214
32,216,31023,6,0,L|128:56,2,179.999995231628
144,168,31410,2,0,L|307:77,2,179.999995231628
265,182,31798,2,0,L|451:185,2,179.999995231628
352,256,32185,2,0,L|512:352,2,179.999995231628
125,61,32572,5,0,0:0:0:0:
125,61,32668,1,0,0:0:0:0:
125,61,32765,1,0,0:0:0:0:
302,80,32959,1,0,0:0:0:0:
302,80,33055,1,0,0:0:0:0:
302,80,33152,1,0,0:0:0:0:
444,185,33346,6,0,P|256:344|64:184,1,539.999985694885
136,160,33733,2,0,P|256:272|376:160,1,359.999990463257
232,128,34120,5,0,0:0:0:0:
400,8,34217,1,0,0:0:0:0:
256,152,34314,1,0,0:0:0:0:
424,32,34410,2,0,P|344:192|424:352,1,359.999990463257
312,328,34701,2,0,P|192:304|88:368,1,179.999995231628
72,352,34894,5,0,0:0:0:0:
32,168,34991,1,0,0:0:0:0:
104,336,35088,1,0,0:0:0:0:
64,152,35184,2,0,P|184:80|400:144,1,359.999990463257
448,224,35475,2,0,P|312:328|256:328,1,179.999995231628
232,328,35668,5,0,0:0:0:0:
352,160,35765,1,0,0:0:0:0:
192,312,35862,1,0,0:0:0:0:
312,144,35959,2,0,P|176:184|-8:8,1,359.999990463257
184,0,36249,2,0,L|464:88,1,179.999995231629
480,96,36442,5,0,0:0:0:0:
256,360,36636,1,0,0:0:0:0:
32,96,36829,1,0,0:0:0:0:
32,96,37217,5,0,0:0:0:0:
304,40,37313,1,0,0:0:0:0:
0,192,37410,1,0,0:0:0:0:
272,136,37507,2,0,P|144:296|320:240,1,359.999990463257
296,320,37797,2,0,P|326:257|472:208,1,179.999995231629
512,192,37991,5,0,0:0:0:0:
216,32,38087,1,0,0:0:0:0:
464,328,38184,1,0,0:0:0:0:
168,168,38281,2,0,P|120:368|8:232,1,359.999990463257
16,248,38571,2,0,P|64:96|32:40,1,179.999995231629
8,16,38765,5,0,0:0:0:0:
480,32,38862,1,0,0:0:0:0:
40,320,38958,1,0,0:0:0:0:
512,336,39055,2,0,P|354:280|160:360,1,359.999990463257
120,296,39345,2,0,P|240:112|312:88,1,179.999995231629
280,80,39539,5,0,0:0:0:0:
0,192,39732,1,0,0:0:0:0:
512,280,39926,1,0,0:0:0:0:
512,280,40314,6,0,L|320:328,1,179.999995231629
472,216,40507,2,0,L|280:264,1,179.999995231629
432,152,40700,2,0,L|240:200,1,179.999995231629
392,88,40894,2,0,L|200:136,1,179.999995231629
0,280,41087,6,0,L|192:328,1,179.999995231629
40,216,41280,2,0,L|232:264,1,179.999995231629
80,152,41474,2,0,L|272:200,1,179.999995231629
120,88,41667,2,0,L|312:136,1,179.999995231629
512,280,41861,6,0,L|320:328,1,179.999995231629
0,280,42055,2,0,L|192:328,1,179.999995231629
472,216,42248,2,0,L|280:264,1,179.999995231629
40,216,42442,2,0,L|232:264,1,179.999995231629
432,152,42635,5,0,0:0:0:0:
80,152,42829,1,0,0:0:0:0:
392,88,43023,1,0,0:0:0:0:
120,88,43410,6,0,P|232:152|232:296,1,179.999995231629
232,280,43603,2,0,P|360:256|440:304,1,179.999995231629
480,312,43797,2,0,L|480:96,1,179.999995231629
440,56,43990,2,0,P|328:112|216:96,1,179.999995231629
192,56,44184,6,0,L|72:216,1,179.999995231629
80,288,44377,2,0,P|232:280|328:208,1,179.999995231629
304,184,44571,2,0,P|416:160|504:232,1,179.999995231629
472,280,44764,2,0,P|408:320|280:256,1,179.999995231629
224,224,44958,6,0,L|80:80,1,179.999995231629
32,168,45151,2,0,P|160:152|248:80,1,179.999995231629
264,48,45345,2,0,P|376:48|448:136,1,179.999995231629
424,168,45538,2,0,L|328:336,1,179.999995231629
264,288,45732,6,0,P|136:248|56:304,1,179.999995231629
232,136,45926,2,0,P|104:96|24:152,1,179.999995231629
264,48,46119,2,0,P|368:208|80:216,1,539.999985694885
32,168,46506,6,0,B|224:248|224:248|304:352|304:352|384:336|464:344|464:344|464:136|464:136|432:112|384:112|384:112|384:136|384:136|296:64|280:64|120:64|0:48|24:160|24:160|32:168,1,1259.9999666214
32,168,49603,6,0,L|128:328,2,179.999995231628
144,216,49989,2,0,L|308:307,2,179.999995231628
265,202,50377,2,0,L|452:199,2,179.999995231628
352,128,50764,2,0,L|512:32,2,179.999995231628
125,323,51151,5,0,0:0:0:0:
125,323,51247,1,0,0:0:0:0:
125,323,51344,1,0,0:0:0:0:
302,304,51538,1,0,0:0:0:0:
302,304,51634,1,0,0:0:0:0:
302,304,51731,1,0,0:0:0:0:
445,199,51925,5,0,0:0:0:0:
445,199,52022,1,0,0:0:0:0:
445,199,52118,2,0,P|352:128|216:168,1,179.999995231628
220,127,52312,2,0,P|132:139|67:199,1,179.999995231628
184,256,52505,2,0,P|256:304|328:256,1,179.999995231628
480,168,52699,6,0,B|288:248|288:248|208:352|208:352|128:336|48:344|48:344|48:136|48:136|80:112|128:112|128:112|128:136|128:136|216:64|232:64|392:64|512:48|488:160|488:160|480:168,1,1259.9999666214
480,168,55796,6,0,L|384:328,2,179.999995231628
368,216,56182,2,0,L|205:307,2,179.999995231628
247,202,56570,2,0,L|61:199,2,179.999995231628
160,128,56957,2,0,L|0:32,2,179.999995231628
256,192,57344,12,0,58505,0:0:0:0:
456,88,58699,5,0,0:0:0:0:
456,88,58892,6,0,P|240:72|88:192,1,359.999990463257
96,224,59183,2,0,P|248:312|448:240,1,359.999990463257
384,176,59473,2,0,L|184:88,1,179.999995231629
80,72,59666,6,0,P|208:224|112:336,1,359.999990463257
272,312,59957,2,0,P|424:240|456:56,1,359.999990463257
360,40,60247,2,0,P|192:96|80:72,1,179.999995231629
80,72,60441,6,0,P|96:304|304:264,1,359.999990463257
272,280,60731,2,0,P|304:144|576:200,1,359.999990463257
472,208,61021,2,0,L|320:352,1,179.999995231629
208,336,61215,6,0,P|208:112|456:176,1,539.999985694885
312,224,61602,2,0,P|80:88|80:320,1,539.999985694885
168,184,61989,2,0,L|384:80,1,179.999995231629
416,56,62182,6,0,P|404:150|416:280,1,179.999995231629
392,312,62376,2,0,P|168:272|64:320,1,179.999995231629
104,296,62569,2,0,P|80:192|0:96,1,179.999995231629
128,80,62763,2,0,P|240:104|480:-8,1,359.999990463257
480,112,63053,2,0,P|384:288|160:352,1,359.999990463257
144,320,63344,2,0,L|48:104,1,179.999995231629
224,56,63537,6,0,P|206:130|304:256,1,179.999995231629
240,56,63731,2,0,P|222:130|320:256,1,179.999995231629
256,56,63924,2,0,P|238:130|336:256,1,179.999995231629
272,56,64118,2,0,P|254:130|352:256,1,179.999995231629
288,56,64311,2,0,P|272:128|528:96,1,359.999990463257
400,112,64601,2,0,L|272:352,1,179.999995231629
224,328,64795,2,0,P|184:224|-16:336,1,359.999990463257
104,304,65085,6,0,P|147:144|8:8,1,359.999990463257
40,128,65376,2,0,P|256:104|384:192,1,359.999990463257
440,208,65666,2,0,L|480:24,1,179.999995231629
376,48,65859,6,0,P|304:123|336:368,1,359.999990463257
384,280,66150,2,0,P|152:208|56:288,1,359.999990463257
168,296,66440,2,0,L|80:88,1,179.999995231629
56,40,66634,6,0,P|155:68|464:32,1,359.999990463257
456,112,66924,2,0,P|264:280|96:288,1,359.999990463257
152,216,67214,2,0,L|360:320,1,179.999995231629
448,264,67408,6,0,P|304:104|224:88,1,179.999995231629
169,123,67601,2,0,P|103:183|64:264,1,179.999995231629
256,368,67795,2,0,L|256:0,1,359.999990463257
256,192,68182,12,0,70891,0:0:0:0:
112,304,71278,5,0,0:0:0:0:
120,288,71375,1,0,0:0:0:0:
128,272,71472,1,0,0:0:0:0:
136,256,71569,1,0,0:0:0:0:
144,240,71665,1,0,0:0:0:0:
152,224,71762,1,0,0:0:0:0:
160,208,71859,1,0,0:0:0:0:
168,192,71956,1,0,0:0:0:0:
256,48,72053,5,0,0:0:0:0:
264,64,72150,1,0,0:0:0:0:
272,80,72247,1,0,0:0:0:0:
280,96,72344,1,0,0:0:0:0:
288,112,72440,1,0,0:0:0:0:
296,128,72537,1,0,0:0:0:0:
304,144,72634,1,0,0:0:0:0:
312,160,72731,1,0,0:0:0:0:
400,304,72827,6,0,L|464:152,15,89.9999976158143
400,144,73601,2,0,L|424:80,15,44.9999988079071
312,160,73988,2,0,L|336:96,15,44.9999988079071
224,176,74375,5,0,0:0:0:0:
192,64,74504,1,0,0:0:0:0:
104,272,74633,1,0,0:0:0:0:
296,232,74762,1,0,0:0:0:0:
144,48,74891,1,0,0:0:0:0:
72,296,75020,1,0,0:0:0:0:
368,280,75149,1,0,0:0:0:0:
96,32,75278,1,0,0:0:0:0:
40,320,75407,1,0,0:0:0:0:
440,328,75536,1,0,0:0:0:0:
288,176,75923,5,0,0:0:0:0:
320,64,76052,1,0,0:0:0:0:
408,272,76181,1,0,0:0:0:0:
216,232,76310,1,0,0:0:0:0:
368,48,76439,1,0,0:0:0:0:
440,296,76568,1,0,0:0:0:0:
144,280,76697,1,0,0:0:0:0:
416,32,76826,1,0,0:0:0:0:
472,320,76955,1,0,0:0:0:0:
72,328,77084,1,0,0:0:0:0:
192,136,77471,5,0,0:0:0:0:
328,112,77600,1,0,0:0:0:0:
192,288,77729,1,0,0:0:0:0:
328,264,77859,1,0,0:0:0:0:
160,107,77988,1,0,0:0:0:0:
364,71,78117,1,0,0:0:0:0:
160,336,78246,1,0,0:0:0:0:
364,300,78376,1,0,0:0:0:0:
48,120,78504,1,0,0:0:0:0:
448,264,78633,1,0,0:0:0:0:
240,24,78762,1,0,0:0:0:0:
64,304,78891,1,0,0:0:0:0:
488,152,79020,1,0,0:0:0:0:
88,40,79149,1,0,0:0:0:0:
264,320,79278,1,0,0:0:0:0:
408,80,79407,1,0,0:0:0:0:
200,376,79536,1,0,0:0:0:0:
128,112,79665,1,0,0:0:0:0:
504,224,79794,1,0,0:0:0:0:
8,160,80181,5,0,0:0:0:0:
328,192,80568,5,0,0:0:0:0:
296,72,80697,1,0,0:0:0:0:
176,256,80826,1,0,0:0:0:0:
448,160,80955,1,0,0:0:0:0:
152,64,81084,1,0,0:0:0:0:
360,336,81213,1,0,0:0:0:0:
432,56,81342,1,0,0:0:0:0:
24,312,81471,1,0,0:0:0:0:
464,312,81600,1,0,0:0:0:0:
24,40,81729,1,0,0:0:0:0:
288,168,82116,5,0,0:0:0:0:
320,288,82245,1,0,0:0:0:0:
128,160,82374,1,0,0:0:0:0:
416,104,82503,1,0,0:0:0:0:
200,320,82632,1,0,0:0:0:0:
216,64,82761,1,0,0:0:0:0:
440,288,82890,1,0,0:0:0:0:
40,88,83019,1,0,0:0:0:0:
472,32,83148,1,0,0:0:0:0:
88,304,83277,1,0,0:0:0:0:
288,168,83665,5,0,0:0:0:0:
168,168,83794,1,0,0:0:0:0:
424,136,83923,1,0,0:0:0:0:
48,112,84052,1,0,0:0:0:0:
480,64,84181,1,0,0:0:0:0:
64,208,84310,1,0,0:0:0:0:
472,208,84439,1,0,0:0:0:0:
32,280,84568,1,0,0:0:0:0:
400,40,84697,1,0,0:0:0:0:
32,352,84826,1,0,0:0:0:0:
336,8,84955,1,0,0:0:0:0:
224,336,85084,1,0,0:0:0:0:
112,40,85213,1,0,0:0:0:0:
336,320,85342,1,0,0:0:0:0:
16,48,85471,1,0,0:0:0:0:
464,336,85600,1,0,0:0:0:0:
0,184,85729,1,0,0:0:0:0:
480,32,85858,1,0,0:0:0:0:
32,352,85987,1,0,0:0:0:0:
256,192,86374,5,0,0:0:0:0:
176,112,86761,5,0,0:0:0:0:
336,112,86890,1,0,0:0:0:0:
336,272,87019,1,0,0:0:0:0:
176,272,87148,1,0,0:0:0:0:
135,71,87535,5,0,0:0:0:0:
376,71,87664,1,0,0:0:0:0:
376,312,87793,1,0,0:0:0:0:
135,312,87922,1,0,0:0:0:0:
256,184,88309,5,0,0:0:0:0:
112,160,88438,1,0,0:0:0:0:
432,144,88567,1,0,0:0:0:0:
32,264,88696,1,0,0:0:0:0:
448,48,88825,1,0,0:0:0:0:
64,344,88954,1,0,0:0:0:0:
272,24,89083,2,0,P|160:208|432:144,1,599.999984105428
360,96,89471,6,0,P|296:216|-8:64,1,539.999985694885
168,104,89858,5,0,0:0:0:0:
168,104,89954,2,0,P|168:240|256:288,1,179.999995231628
264,312,90148,1,0,0:0:0:0:
264,312,90245,2,0,P|336:288|448:320,1,179.999995231628
512,352,90438,2,0,L|464:104,1,179.999995231628
400,72,90632,5,0,0:0:0:0:
400,72,90729,2,0,P|288:112|240:72,1,179.999995231628
320,32,90922,1,0,0:0:0:0:
320,32,91019,2,0,P|288:160|160:176,1,179.999995231628
168,200,91212,2,0,L|328:352,1,179.999995231628
436,311,91406,5,0,0:0:0:0:
436,311,91503,2,0,P|344:184|352:136,1,179.999995231628
264,112,91696,1,0,0:0:0:0:
264,112,91793,2,0,P|136:72|72:112,1,179.999995231628
64,176,91987,2,0,P|120:253|88:368,1,179.999995231628
0,280,92180,5,0,0:0:0:0:
256,192,92374,1,0,0:0:0:0:
512,104,92567,2,0,P|312:192|512:280,1,539.999985694885
432,192,92954,5,0,0:0:0:0:
432,192,93051,2,0,P|368:80|296:72,1,179.999995231628
232,72,93245,1,0,0:0:0:0:
232,72,93341,2,0,P|144:152|64:128,1,179.999995231628
8,96,93535,2,0,L|64:288,1,179.999995231628
168,336,93728,5,0,0:0:0:0:
168,336,93825,2,0,P|256:304|344:336,1,179.999995231628
400,288,94019,1,0,0:0:0:0:
400,288,94115,2,0,P|336:216|224:200,1,179.999995231628
176,160,94309,2,0,P|240:104|392:112,1,179.999995231628
448,136,94502,5,0,0:0:0:0:
448,136,94599,2,0,P|336:216|320:304,1,179.999995231628
328,344,94793,1,0,0:0:0:0:
328,344,94890,2,0,P|200:288|88:304,1,179.999995231628
64,304,95083,2,0,P|80:120|56:80,1,179.999995231628
40,56,95277,5,0,0:0:0:0:
256,192,95470,1,0,0:0:0:0:
472,328,95664,1,0,0:0:0:0:
472,272,95760,1,0,0:0:0:0:
472,216,95857,1,0,0:0:0:0:
472,160,95954,1,0,0:0:0:0:
472,104,96051,5,0,0:0:0:0:
472,104,96148,2,0,P|344:120|240:40,1,179.999995231628
232,40,96341,1,0,0:0:0:0:
232,40,96438,2,0,L|168:240,1,179.999995231628
104,200,96631,2,0,L|159:28,1,179.999995231628
86,16,96825,5,0,0:0:0:0:
86,16,96922,2,0,L|31:188,1,179.999995231628
24,296,97115,1,0,0:0:0:0:
24,296,97212,2,0,P|120:272|240:344,1,179.999995231628
272,344,97405,2,0,P|376:240|376:160,1,179.999995231628
368,120,97599,5,0,0:0:0:0:
368,120,97696,2,0,P|224:128|184:184,1,179.999995231628
176,224,97889,1,0,0:0:0:0:
176,224,97986,2,0,P|128:112|64:80,1,179.999995231628
0,64,98180,2,0,L|200:32,1,179.999995231628
288,16,98373,5,0,0:0:0:0:
256,192,98567,1,0,0:0:0:0:
224,368,98760,2,0,B|400:312|440:184|440:184|288:192|208:320,1,539.999985694885
160,320,99147,5,0,0:0:0:0:
120,264,99244,1,0,0:0:0:0:
80,208,99341,1,0,0:0:0:0:
40,144,99437,2,0,P|232:128|392:304,1,359.999990463257
280,256,99728,2,0,L|400:40,1,179.999995231628
384,16,99921,5,0,0:0:0:0:
312,16,100018,1,0,0:0:0:0:
240,16,100115,1,0,0:0:0:0:
168,16,100212,2,0,P|184:200|40:328,1,359.999990463257
64,232,100502,2,0,P|216:296|296:272,1,179.999995231628
368,272,100696,5,0,0:0:0:0:
368,272,100792,2,0,L|464:112,1,179.999995231628
408,48,100986,2,0,P|288:72|256:192,1,179.999995231628
256,192,101179,2,0,P|195:255|108:257,1,179.999995231628
32,216,101373,1,0,0:0:0:0:
32,216,101470,5,0,0:0:0:0:
256,192,101663,1,0,0:0:0:0:
480,168,101857,1,0,0:0:0:0:
