osu file format v14

[General]
AudioFilename: audio.mp3
AudioLeadIn: 0
PreviewTime: -1
Countdown: 0
SampleSet: Soft
StackLeniency: 0.7
Mode: 2
LetterboxInBreaks: 0
WidescreenStoryboard: 1

[Editor]
DistanceSpacing: 0.6
BeatDivisor: 4
GridSize: 8
TimelineZoom: 1.3

[Metadata]
Title:Zgirls Opening
TitleUnicode:Zガールズ Opening
Artist:CV:Hanazawa Kana
ArtistUnicode:CV:花澤香菜
Creator:Ycro
Version:Rain
Source:Zgirls
Tags:star ring ltd mobile game Zガールズ zgirls opening hanahara saki
BeatmapID:1941525
BeatmapSetID:929230

[Difficulty]
HPDrainRate:6
CircleSize:3.5
OverallDifficulty:7
ApproachRate:9
SliderMultiplier:1.2
SliderTickRate:1

[Events]
//Background and Video events
0,0,"Zgirls Beatmap Wallpaper.png",0,0
//Break Periods
//Storyboard Layer 0 (Background)
//Storyboard Layer 1 (Fail)
//Storyboard Layer 2 (Pass)
//Storyboard Layer 3 (Foreground)
//Storyboard Sound Samples

[TimingPoints]
250,750,4,2,0,100,1,0
250,-100,4,2,0,100,0,0
2250,310.880829015544,4,2,0,100,1,0
17172,-80,4,2,0,100,0,1
17172,-80,4,2,0,100,0,1
22690,-80,4,2,0,100,0,0
23001,-80,4,2,0,100,0,1
46999,-80,4,2,0,100,0,0
50747,-80,4,2,0,100,0,0

[HitObjects]
179,246,187,5,0,0:0:0:0:
120,287,375,1,0,0:0:0:0:
62,329,562,1,0,0:0:0:0:
355,100,750,1,0,0:0:0:0:
406,54,937,1,0,0:0:0:0:
30,130,1125,5,0,0:0:0:0:
77,162,1312,1,0,0:0:0:0:
118,199,1500,1,0,0:0:0:0:
375,154,1687,2,0,L|318:213,1,60
469,37,2250,5,0,0:0:0:0:
419,42,2405,1,0,0:0:0:0:
370,67,2560,1,0,0:0:0:0:
323,97,2716,1,0,0:0:0:0:
285,129,2871,1,0,0:0:0:0:
34,37,3027,5,0,0:0:0:0:
80,82,3182,1,0,0:0:0:0:
123,128,3338,1,0,0:0:0:0:
176,175,3493,1,8,0:0:0:0:
41,74,4348,5,0,0:0:0:0:
63,102,4503,1,0,0:0:0:0:
77,151,4659,1,0,0:0:0:0:
80,198,4814,1,0,0:0:0:0:
326,67,4970,5,0,0:0:0:0:
276,48,5125,1,0,0:0:0:0:
221,47,5281,1,0,0:0:0:0:
165,68,5436,1,0,0:0:0:0:
477,146,5591,5,0,0:0:0:0:
425,169,5747,1,0,0:0:0:0:
394,208,5902,1,0,0:0:0:0:
397,263,6058,1,0,0:0:0:0:
23,309,6213,6,0,L|177:310,1,150
485,180,6757,2,0,L|301:180,1,180
14,17,7379,2,0,L|115:5,1,90
499,86,7768,2,0,L|335:89,1,150
37,350,8312,2,0,L|281:174,1,300
33,37,9555,6,0,L|276:15,1,240
35,294,10332,1,0,0:0:0:0:
35,344,10488,1,0,0:0:0:0:
219,125,10566,1,0,0:0:0:0:
190,81,10643,1,0,0:0:0:0:
6,109,10721,2,0,L|38:148,1,30
488,292,11032,6,0,L|310:291,2,150
27,68,11965,2,0,L|174:131,1,150
34,18,12975,1,0,0:0:0:0:
83,31,13130,1,0,0:0:0:0:
121,58,13286,1,0,0:0:0:0:
155,93,13441,1,0,0:0:0:0:
412,34,13597,1,0,0:0:0:0:
361,71,13752,1,0,0:0:0:0:
334,109,13908,1,0,0:0:0:0:
314,160,14063,5,0,0:0:0:0:
12,14,14296,2,0,L|74:13,1,60
23,117,15151,5,0,0:0:0:0:
32,159,15229,1,0,0:0:0:0:
51,192,15306,1,0,0:0:0:0:
80,222,15384,1,0,0:0:0:0:
114,230,15462,1,0,0:0:0:0:
159,230,15540,1,0,0:0:0:0:
343,83,15617,1,0,0:0:0:0:
309,62,15695,1,0,0:0:0:0:
277,45,15773,1,0,0:0:0:0:
229,32,15851,5,0,0:0:0:0:
194,47,15928,1,0,0:0:0:0:
166,84,16006,1,0,0:0:0:0:
477,41,16084,1,0,0:0:0:0:
454,80,16161,1,0,0:0:0:0:
445,129,16239,1,0,0:0:0:0:
460,178,16317,1,0,0:0:0:0:
485,226,16395,1,0,0:0:0:0:
191,31,16550,6,0,L|2:33,1,180
488,351,17172,1,0,0:0:0:0:
462,313,17250,1,0,0:0:0:0:
459,281,17327,1,0,0:0:0:0:
470,238,17405,1,0,0:0:0:0:
485,206,17483,1,0,0:0:0:0:
181,357,17560,5,0,0:0:0:0:
210,327,17638,1,0,0:0:0:0:
230,292,17716,1,0,0:0:0:0:
221,256,17794,1,0,0:0:0:0:
194,228,17871,1,0,0:0:0:0:
163,204,17949,1,0,0:0:0:0:
404,124,18027,1,0,0:0:0:0:
426,83,18104,1,0,0:0:0:0:
103,217,18338,6,0,L|134:197,6,37.5
445,74,19037,1,0,0:0:0:0:
54,235,19270,1,0,0:0:0:0:
471,38,19892,2,0,L|248:170,1,225
477,29,20591,5,0,0:0:0:0:
455,54,20669,1,0,0:0:0:0:
450,86,20747,1,0,0:0:0:0:
463,111,20825,1,0,0:0:0:0:
485,140,20902,1,0,0:0:0:0:
208,28,20980,1,0,0:0:0:0:
175,61,21058,1,0,0:0:0:0:
156,95,21136,1,0,0:0:0:0:
126,129,21213,1,0,0:0:0:0:
466,35,21369,6,0,B|402:36|402:36|310:124|310:124|10:127|10:127|10:19,1,600
494,192,22768,2,0,L|439:192,13,37.5
83,47,24633,5,0,0:0:0:0:
59,70,24711,1,0,0:0:0:0:
45,104,24788,1,0,0:0:0:0:
46,141,24866,1,0,0:0:0:0:
57,173,24944,1,0,0:0:0:0:
81,203,25022,1,0,0:0:0:0:
390,44,25099,5,0,0:0:0:0:
419,81,25177,1,0,0:0:0:0:
425,127,25255,1,0,0:0:0:0:
402,198,25410,1,0,0:0:0:0:
97,46,25488,6,0,L|37:46,4,37.5
465,194,25954,6,0,L|514:195,1,37.5
340,38,26110,2,0,L|294:38,1,37.5
463,356,26265,2,0,L|537:355,1,75
212,20,26576,5,0,0:0:0:0:
210,72,26731,1,0,0:0:0:0:
491,324,26887,1,0,0:0:0:0:
436,271,27042,1,0,0:0:0:0:
137,31,27198,1,0,0:0:0:0:
487,35,27353,2,0,L|370:35,1,112.5
495,191,27742,5,0,0:0:0:0:
126,196,27897,1,0,0:0:0:0:
455,191,28053,1,0,0:0:0:0:
217,48,28208,1,0,0:0:0:0:
454,318,28519,2,0,L|330:198,1,150
492,354,28985,5,0,0:0:0:0:
244,250,29141,2,0,B|209:209|209:209|208:178|208:179|208:179|208:148|208:148|245:124|245:124|245:377,1,412.5
470,56,30462,2,0,L|241:57,1,225
468,269,31395,2,0,L|427:270,1,37.5
228,155,31628,2,0,L|273:155,1,37.5
70,81,31861,5,0,0:0:0:0:
34,43,31939,1,0,0:0:0:0:
283,340,32094,1,0,0:0:0:0:
477,58,32327,6,0,L|213:58,1,262.5
469,333,33260,1,0,0:0:0:0:
447,301,33338,1,0,0:0:0:0:
420,276,33415,1,0,0:0:0:0:
390,280,33493,1,0,0:0:0:0:
36,145,33648,6,0,B|54:111|71:106|96:102|133:115|148:153|202:149|241:75|339:84|313:84,1,300
28,347,34426,2,0,B|47:293|43:266|45:232|42:208|194:192,2,262.5
465,46,35902,1,0,0:0:0:0:
23,153,36058,2,0,L|105:158,1,75
465,30,36446,6,0,B|411:40|386:65|332:126|306:68|272:191|147:72|39:252,1,487.5
468,116,37612,2,0,L|469:28,1,75
392,275,37923,2,0,L|391:368,1,75
37,65,38623,2,0,B|99:67|114:109|99:164|94:228|101:300|378:93,2,450
256,192,40721,12,0,44996,0:0:0:0:
141,64,46239,5,0,0:0:0:0:
106,83,46317,1,0,0:0:0:0:
97,114,46395,1,0,0:0:0:0:
110,148,46472,1,0,0:0:0:0:
375,33,46550,1,0,0:0:0:0:
403,79,46628,1,0,0:0:0:0:
404,121,46705,1,0,0:0:0:0:
388,168,46783,1,0,0:0:0:0:
34,29,47016,6,0,B|82:31|118:39|157:22|187:40|258:38|244:126|306:140|277:237|154:259|490:344,2,600
403,40,49581,2,0,L|467:41,2,37.5
256,192,49892,12,0,50747,0:0:0:0:
