osu file format v14

[General]
AudioFilename: audio.mp3
AudioLeadIn: 0
PreviewTime: -1
Countdown: 0
SampleSet: Soft
StackLeniency: 0.7
Mode: 1
LetterboxInBreaks: 0
WidescreenStoryboard: 1

[Editor]
DistanceSpacing: 0.6
BeatDivisor: 4
GridSize: 8
TimelineZoom: 1.3

[Metadata]
Title:Zgirls Opening
TitleUnicode:Zガールズ Opening
Artist:CV:Hanazawa Kana
ArtistUnicode:CV:花澤香菜
Creator:Ycro
Version:Muzukashii
Source:Zgirls
Tags:star ring ltd mobile game Zガールズ zgirls opening hanahara saki
BeatmapID:1946415
BeatmapSetID:929230

[Difficulty]
HPDrainRate:6
CircleSize:3.5
OverallDifficulty:7
ApproachRate:9
SliderMultiplier:1.6
SliderTickRate:1

[Events]
//Background and Video events
0,0,"Zgirls Beatmap Wallpaper.png",0,0
//Break Periods
//Storyboard Layer 0 (Background)
//Storyboard Layer 1 (Fail)
//Storyboard Layer 2 (Pass)
//Storyboard Layer 3 (Foreground)
//Storyboard Sound Samples

[TimingPoints]
250,750,4,2,0,100,1,0
250,-100,4,2,0,100,0,0
2250,310.880829015544,4,2,0,100,1,0
17172,-80,4,2,0,100,0,1
17172,-80,4,2,0,100,0,1
22690,-80,4,2,0,100,0,0
23001,-80,4,2,0,100,0,1
46999,-80,4,2,0,100,0,0
50747,-80,4,2,0,100,0,0

[HitObjects]
259,189,187,5,8,0:0:0:0:
259,189,375,1,0,0:0:0:0:
259,189,562,1,8,0:0:0:0:
259,189,750,1,0,0:0:0:0:
259,189,937,1,8,0:0:0:0:
259,189,1125,1,8,0:0:0:0:
259,189,1312,1,0,0:0:0:0:
259,189,1500,1,8,0:0:0:0:
256,192,1687,12,8,2062,0:0:0:0:
259,189,2250,5,8,0:0:0:0:
259,189,2405,1,8,0:0:0:0:
259,189,2560,1,4,0:0:0:0:
259,189,2716,1,4,0:0:0:0:
259,189,2871,1,8,0:0:0:0:
259,189,3027,1,8,0:0:0:0:
259,189,3182,1,8,0:0:0:0:
259,189,3338,1,12,0:0:0:0:
259,189,3493,1,0,0:0:0:0:
259,189,3648,1,0,0:0:0:0:
259,189,3804,1,0,0:0:0:0:
259,189,3959,1,0,0:0:0:0:
259,189,4115,1,0,0:0:0:0:
259,189,4348,5,4,0:0:0:0:
259,189,4503,1,8,0:0:0:0:
259,189,4659,1,0,0:0:0:0:
259,189,4814,1,8,0:0:0:0:
259,189,4970,1,0,0:0:0:0:
259,189,5125,1,8,0:0:0:0:
259,189,5281,1,4,0:0:0:0:
259,189,5436,1,8,0:0:0:0:
259,189,5591,1,8,0:0:0:0:
259,189,5747,1,8,0:0:0:0:
259,189,5902,1,0,0:0:0:0:
259,189,6058,1,8,0:0:0:0:
259,189,6213,1,0,0:0:0:0:
259,189,6291,1,0,0:0:0:0:
264,191,6369,1,0,0:0:0:0:
264,191,6446,1,0,0:0:0:0:
265,191,6524,1,0,0:0:0:0:
266,191,6602,1,0,0:0:0:0:
259,189,6835,1,8,0:0:0:0:
259,189,6913,1,8,0:0:0:0:
259,189,6990,1,8,0:0:0:0:
259,189,7068,1,8,0:0:0:0:
259,189,7146,1,8,0:0:0:0:
264,191,7379,1,4,0:0:0:0:
259,189,7690,1,2,0:0:0:0:
259,189,7845,1,0,0:0:0:0:
259,189,8001,1,2,0:0:0:0:
259,189,8156,1,0,0:0:0:0:
264,191,8234,1,0,0:0:0:0:
264,191,8312,1,0,0:0:0:0:
264,191,8389,1,0,0:0:0:0:
259,189,8467,1,0,0:0:0:0:
259,189,8545,1,0,0:0:0:0:
259,189,8623,1,0,0:0:0:0:
259,189,8700,1,0,0:0:0:0:
259,189,8856,1,4,0:0:0:0:
259,189,9711,1,0,0:0:0:0:
259,189,9866,1,8,0:0:0:0:
259,189,10022,1,0,0:0:0:0:
259,189,10332,1,8,0:0:0:0:
259,189,10488,1,8,0:0:0:0:
259,189,10643,1,0,0:0:0:0:
259,189,10799,1,0,0:0:0:0:
259,189,10954,1,8,0:0:0:0:
259,189,11110,1,8,0:0:0:0:
259,189,11265,1,4,0:0:0:0:
259,189,11420,1,8,0:0:0:0:
259,189,11498,1,8,0:0:0:0:
259,189,11654,1,4,0:0:0:0:
259,189,11809,1,8,0:0:0:0:
259,189,11965,1,4,0:0:0:0:
255,189,13130,1,0,0:0:0:0:
255,189,13208,1,8,0:0:0:0:
255,189,13286,1,0,0:0:0:0:
255,189,13363,1,8,0:0:0:0:
255,189,13441,1,0,0:0:0:0:
255,189,13519,1,8,0:0:0:0:
255,189,13597,1,0,0:0:0:0:
255,189,13674,1,8,0:0:0:0:
255,189,13752,1,0,0:0:0:0:
255,189,13830,1,8,0:0:0:0:
255,189,13908,1,0,0:0:0:0:
255,189,13985,1,8,0:0:0:0:
255,189,14063,1,0,0:0:0:0:
255,189,14141,1,8,0:0:0:0:
255,189,14296,1,4,0:0:0:0:
256,192,15151,12,0,17016,0:0:0:0:
256,191,17172,5,4,0:0:0:0:
256,191,17794,1,0,0:0:0:0:
256,191,17949,1,8,0:0:0:0:
256,191,18338,1,0,0:0:0:0:
256,191,18493,1,8,0:0:0:0:
256,191,18648,1,0,0:0:0:0:
256,191,18804,1,8,0:0:0:0:
256,191,19037,1,4,0:0:0:0:
256,191,19892,1,8,0:0:0:0:
256,191,20514,1,0,0:0:0:0:
256,191,20669,1,8,0:0:0:0:
256,192,20825,12,8,22146,0:0:0:0:
257,193,22301,5,0,0:0:0:0:
257,193,22379,1,0,0:0:0:0:
257,193,22457,1,0,0:0:0:0:
257,193,22534,1,0,0:0:0:0:
257,193,22612,1,0,0:0:0:0:
257,193,22690,1,0,0:0:0:0:
257,193,23001,1,4,0:0:0:0:
257,193,23312,1,0,0:0:0:0:
257,193,23467,1,8,0:0:0:0:
257,193,23623,1,0,0:0:0:0:
257,193,23856,1,8,0:0:0:0:
257,193,24011,1,4,0:0:0:0:
257,193,24167,1,8,0:0:0:0:
257,193,24400,1,8,0:0:0:0:
257,193,24555,1,8,0:0:0:0:
257,193,24711,1,0,0:0:0:0:
257,193,24788,1,0,0:0:0:0:
257,193,24866,1,0,0:0:0:0:
257,193,24944,1,0,0:0:0:0:
257,193,25022,1,0,0:0:0:0:
257,193,25099,1,0,0:0:0:0:
257,193,25177,1,0,0:0:0:0:
257,193,25255,1,0,0:0:0:0:
257,193,25332,1,0,0:0:0:0:
257,193,25410,1,0,0:0:0:0:
257,193,25488,1,0,0:0:0:0:
257,193,25566,1,0,0:0:0:0:
257,193,25643,1,0,0:0:0:0:
257,193,25721,1,0,0:0:0:0:
257,193,25876,1,8,0:0:0:0:
257,193,26032,1,0,0:0:0:0:
257,193,26187,1,8,0:0:0:0:
257,193,26343,1,0,0:0:0:0:
257,193,26498,1,8,0:0:0:0:
257,193,26654,1,8,0:0:0:0:
257,193,26809,1,0,0:0:0:0:
257,193,26965,1,8,0:0:0:0:
257,193,27120,1,0,0:0:0:0:
257,193,27275,1,0,0:0:0:0:
257,193,27431,1,8,0:0:0:0:
257,193,27586,1,12,0:0:0:0:
257,193,27742,1,4,0:0:0:0:
257,193,27897,1,0,0:0:0:0:
257,193,28053,1,8,0:0:0:0:
257,193,28208,1,0,0:0:0:0:
257,193,28363,1,8,0:0:0:0:
257,193,28519,1,0,0:0:0:0:
257,193,28674,1,8,0:0:0:0:
257,193,28830,1,0,0:0:0:0:
257,193,28985,1,8,0:0:0:0:
257,193,29141,1,0,0:0:0:0:
256,192,29296,12,0,30229,0:0:0:0:
256,191,30540,5,4,0:0:0:0:
256,191,30773,1,12,0:0:0:0:
256,191,31239,1,0,0:0:0:0:
256,191,31783,1,0,0:0:0:0:
256,191,32016,1,12,0:0:0:0:
256,191,32405,1,0,0:0:0:0:
256,191,32560,1,8,0:0:0:0:
256,191,32716,1,0,0:0:0:0:
256,191,33338,1,0,0:0:0:0:
256,191,33493,1,8,0:0:0:0:
256,191,33648,1,0,0:0:0:0:
256,191,33804,1,8,0:0:0:0:
