osu file format v14

[General]
AudioFilename: audio.mp3
AudioLeadIn: 0
PreviewTime: 52861
Countdown: 0
SampleSet: Soft
StackLeniency: 0.7
Mode: 0
LetterboxInBreaks: 0
WidescreenStoryboard: 0

[Editor]
Bookmarks: 1159,11372,21585,31797,42010,52223,53500,81585,84138,87648
DistanceSpacing: 0.9
BeatDivisor: 4
GridSize: 4
TimelineZoom: 2.3

[Metadata]
Title:COOLEST (TV Size)
TitleUnicode:COOLEST (TV Size)
Artist:CustomiZ
ArtistUnicode:カスタマイZ
Creator:Crissa
Version:VERY COOL
Source:坂本ですが?
Tags:Sakamoto desu ga? anime japanese opening op customi-z [-crissaegrim-]
BeatmapID:1967179
BeatmapSetID:941964

[Difficulty]
HPDrainRate:6
CircleSize:4
OverallDifficulty:9
ApproachRate:9.2
SliderMultiplier:1.6
SliderTickRate:1

[Events]
//Background and Video events
0,0,"COOL.jpg",0,0
Video,0,"op1.avi"
//Break Periods
//Storyboard Layer 0 (Background)
//Storyboard Layer 1 (Fail)
//Storyboard Layer 2 (Pass)
//Storyboard Layer 3 (Foreground)
//Storyboard Sound Samples

[TimingPoints]
1159,319.148936170213,4,2,69,70,1,0
3392,-66.6666666666667,4,2,69,80,0,0
3631,-66.6666666666667,4,2,69,5,0,0
3711,-66.6666666666667,4,2,69,80,0,0
3870,-66.6666666666667,4,2,69,60,0,0
5147,-83.3333333333333,4,2,69,60,0,0
6264,-83.3333333333333,4,2,69,70,0,0
6265,-71.4285714285714,4,2,69,70,0,0
6584,-83.3333333333333,4,2,69,70,0,0
6663,-83.3333333333333,4,2,69,30,0,0
6902,-83.3333333333333,4,2,69,70,0,0
6982,-83.3333333333333,4,2,69,30,0,0
7221,-83.3333333333333,4,2,69,70,0,0
7301,-83.3333333333333,4,2,69,30,0,0
7540,-83.3333333333333,4,2,69,70,0,0
7620,-83.3333333333333,4,2,69,40,0,0
7860,-83.3333333333333,4,2,69,70,0,0
7939,-83.3333333333333,4,2,69,40,0,0
8179,-83.3333333333333,4,2,69,70,0,0
8259,-83.3333333333333,4,2,69,40,0,0
8498,-83.3333333333333,4,2,69,70,0,0
8578,-83.3333333333333,4,2,69,40,0,0
8817,-83.3333333333333,4,2,69,70,0,0
10413,-71.4285714285714,4,2,69,70,0,0
10653,-71.4285714285714,4,2,69,5,0,0
10733,-71.4285714285714,4,2,69,70,0,0
10892,-71.4285714285714,4,2,69,20,0,0
11051,-71.4285714285714,4,2,69,60,0,0
11290,-71.4285714285714,4,2,69,5,0,0
11370,-71.4285714285714,4,2,69,60,0,0
11371,-83.3333333333333,4,2,69,60,0,0
13605,-71.4285714285714,4,2,69,60,0,0
13844,-71.4285714285714,4,2,69,5,0,0
13923,-71.4285714285714,4,2,69,60,0,0
13924,-83.3333333333333,4,2,69,60,0,0
14163,-83.3333333333333,4,2,69,5,0,0
14243,-83.3333333333333,4,2,69,60,0,0
16078,-83.3333333333333,4,2,69,5,0,0
16158,-83.3333333333333,4,2,69,60,0,0
16397,-83.3333333333333,4,2,69,5,0,0
16476,-83.3333333333333,4,2,69,60,0,0
16716,-83.3333333333333,4,2,69,5,0,0
16796,-83.3333333333333,4,2,69,60,0,0
21584,-71.4285714285714,4,2,69,70,0,0
21822,-71.4285714285714,4,2,69,5,0,0
21902,-71.4285714285714,4,2,69,70,0,0
24056,-71.4285714285714,4,2,69,5,0,0
24136,-71.4285714285714,4,2,69,70,0,0
26610,-71.4285714285714,4,2,69,5,0,0
26689,-71.4285714285714,4,2,69,70,0,0
26929,-71.4285714285714,4,2,69,5,0,0
27009,-62.5,4,2,69,70,0,0
27248,-62.5,4,2,69,5,0,0
27328,-62.5,4,2,69,70,0,0
28525,-62.5,4,2,69,5,0,0
28604,-62.5,4,2,69,70,0,0
28684,-62.5,4,2,69,5,0,0
28764,-62.5,4,2,69,70,0,0
29482,-62.5,4,2,69,5,0,0
29562,-62.5,4,2,69,70,0,0
29642,-62.5,4,2,69,5,0,0
29721,-62.5,4,2,69,70,0,0
30599,-62.5,4,2,69,5,0,0
30679,-62.5,4,2,69,70,0,0
31796,-83.3333333333333,4,2,69,60,0,0
39056,-83.3333333333333,4,2,69,5,0,0
39136,-83.3333333333333,4,2,69,60,0,0
39376,-83.3333333333333,4,2,69,5,0,0
39455,-83.3333333333333,4,2,69,60,0,0
39696,-83.3333333333333,4,2,69,5,0,0
39776,-83.3333333333333,4,2,69,60,0,0
40015,-100,4,2,69,5,0,0
40094,-71.4285714285714,4,2,69,60,0,0
40334,-100,4,2,69,5,0,0
40413,-62.5,4,2,69,60,0,0
40653,-100,4,2,69,5,0,0
40733,-83.3333333333333,4,2,69,60,0,0
40971,-83.3333333333333,4,2,69,5,0,0
41051,-83.3333333333333,4,2,69,65,0,0
41290,-83.3333333333333,4,2,69,5,0,0
41370,-83.3333333333333,4,2,69,70,0,0
41371,-66.6666666666667,4,2,69,70,0,0
41610,-66.6666666666667,4,2,69,5,0,0
41689,-66.6666666666667,4,2,69,70,0,0
41690,-55.5555555555556,4,2,69,70,0,0
41769,-55.5555555555556,4,2,69,5,0,0
41849,-55.5555555555556,4,2,69,70,0,0
42008,-55.5555555555556,4,2,69,75,0,0
42009,-71.4285714285714,4,2,69,75,0,0
45839,-62.5,4,2,69,75,0,0
47115,-62.5,4,2,69,80,0,0
47354,-62.5,4,2,69,5,0,0
47434,-62.5,4,2,69,70,0,0
47514,-62.5,4,2,69,5,0,0
47594,-83.3333333333333,4,2,69,70,0,0
48790,-83.3333333333333,4,2,69,5,0,0
48870,-83.3333333333333,4,2,69,70,0,0
52301,-83.3333333333333,4,2,69,5,0,0
52381,-83.3333333333333,4,2,69,70,0,0
53498,-83.3333333333333,4,2,69,80,0,0
53499,-62.5,4,2,69,80,0,1
53737,-62.5,4,2,69,5,0,1
53817,-62.5,4,2,69,80,0,1
55494,-62.5,4,2,69,5,0,1
55573,-62.5,4,2,69,80,0,1
56052,-166.666666666667,4,2,69,80,0,1
56371,-50,4,2,69,80,0,1
56690,-166.666666666667,4,2,69,80,0,1
57009,-50,4,2,69,80,0,1
57248,-50,4,2,69,5,0,1
57328,-50,4,2,69,80,0,1
58605,-62.5,4,2,69,80,0,1
58844,-62.5,4,2,69,5,0,1
58923,-62.5,4,2,69,80,0,1
60599,-62.5,4,2,69,5,0,1
60679,-62.5,4,2,69,80,0,1
61158,-166.666666666667,4,2,69,80,0,1
61477,-50,4,2,69,80,0,1
61796,-166.666666666667,4,2,69,80,0,1
62035,-166.666666666667,4,2,69,5,0,1
62115,-50,4,2,69,80,0,1
62754,-62.5,4,2,69,80,0,1
63950,-62.5,4,2,69,5,0,1
64030,-62.5,4,2,69,80,0,1
65705,-62.5,4,2,69,5,0,1
65785,-62.5,4,2,69,80,0,1
66265,-166.666666666667,4,2,69,80,0,1
66584,-50,4,2,69,80,0,1
66903,-166.666666666667,4,2,69,80,0,1
67222,-50,4,2,69,80,0,1
68818,-62.5,4,2,69,80,0,1
69056,-62.5,4,2,69,5,0,1
69136,-62.5,4,2,69,80,0,1
70812,-62.5,4,2,69,5,0,1
70892,-62.5,4,2,69,80,0,1
71371,-166.666666666667,4,2,69,80,0,1
71690,-50,4,2,69,80,0,1
72009,-166.666666666667,4,2,69,80,0,1
72248,-166.666666666667,4,2,69,5,0,1
72327,-166.666666666667,4,2,69,80,0,1
72328,-50,4,2,69,80,0,1
73126,-62.5,4,2,69,80,0,1
73286,-83.3333333333333,4,2,69,80,0,1
73605,-55.5555555555556,4,2,69,80,0,1
73844,-55.5555555555556,4,2,69,5,0,1
73923,-55.5555555555556,4,2,69,80,0,1
73924,-62.5,4,2,69,80,0,1
77993,-62.5,4,2,69,5,0,1
78072,-62.5,4,2,69,80,0,1
78312,-62.5,4,2,69,5,0,1
78392,-62.5,4,2,69,80,0,1
79269,-62.5,4,2,69,5,0,1
79349,-62.5,4,2,69,80,0,1
81583,-62.5,4,2,69,90,0,1
81584,-83.3333333333333,4,2,69,90,0,0
83657,-83.3333333333333,4,2,69,80,0,0
83818,-62.5,4,2,69,80,0,0
84056,-62.5,4,2,69,5,0,0
84137,-71.4285714285714,4,2,69,80,0,0
86688,-71.4285714285714,4,2,69,85,0,0
87168,-71.4285714285714,4,2,69,90,0,0
87169,-55.5555555555556,4,2,69,90,0,0
87487,-55.5555555555556,4,2,69,5,0,0
87488,-55.5555555555556,4,2,69,5,0,0

[Colours]
Combo1 : 255,149,234
Combo2 : 255,201,128
Combo3 : 255,128,150
Combo4 : 255,217,85

[HitObjects]
89,158,521,5,8,0:0:0:0:
122,144,601,1,8,0:0:0:0:
158,148,680,1,8,0:0:0:0:
187,170,761,1,8,0:0:0:0:
201,203,840,1,8,0:0:0:0:
243,234,919,1,8,0:0:0:0:
296,242,1000,1,8,0:0:0:0:
346,220,1079,1,8,0:0:0:0:
380,178,1159,1,4,1:0:0:0:
39,100,3393,6,0,B|121:142|125:71|215:115,1,180.000006866455,4|0,1:2|0:0,0:0:0:0:
289,186,3712,1,4,1:2:0:0:
100,328,4989,6,0,P|83:328|66:324,1,30.0000011444092,8|0,0:0|0:0,0:0:0:0:
198,219,5148,2,0,P|215:258|225:312,1,95.9999970703126,2|0,1:2|0:0,0:0:0:0:
108,112,5468,2,0,P|91:151|81:205,1,95.9999970703126,2|0,1:2|0:0,0:0:0:0:
235,95,5787,1,8,0:0:0:0:
100,328,5946,1,8,0:0:0:0:
20,45,6106,1,8,0:0:0:0:
241,290,6266,6,0,P|302:298|370:222,1,167.999994873047,4|0,1:2|0:0,0:0:0:0:
276,163,6585,2,0,P|275:187|282:211,3,47.9999985351563,0|8|8|8,1:0|0:0|0:0|0:0,0:0:0:0:
359,97,6904,2,0,P|359:120|353:144,3,47.9999985351563,0|8|8|8,1:0|0:0|0:0|0:0,0:0:0:0:
269,29,7223,2,0,P|268:52|274:76,3,47.9999985351563,0|8|8|8,1:0|0:0|0:0|0:0,0:0:0:0:
200,118,7542,5,0,1:0:0:0:
181,122,7622,1,8,0:0:0:0:
161,119,7702,1,8,0:0:0:0:
143,109,7781,1,8,0:0:0:0:
130,94,7861,1,0,1:0:0:0:
101,83,7941,1,8,0:0:0:0:
70,87,8021,1,8,0:0:0:0:
45,106,8100,1,8,0:0:0:0:
33,135,8180,1,0,1:0:0:0:
38,173,8260,1,8,0:0:0:0:
61,203,8340,1,8,0:0:0:0:
96,217,8420,1,8,0:0:0:0:
133,212,8500,1,0,1:0:0:0:
180,231,8579,1,8,0:0:0:0:
211,270,8659,1,8,0:0:0:0:
218,320,8739,1,8,0:0:0:0:
199,366,8818,5,4,1:2:0:0:
340,106,8978,1,8,0:0:0:0:
371,93,9058,1,8,0:0:0:0:
404,92,9138,2,0,P|429:105|447:121,1,47.9999985351563,8|8,0:0|0:0,0:0:0:0:
498,236,9297,1,4,1:1:0:0:
146,86,9457,1,8,0:0:0:0:
172,65,9537,1,2,0:1:0:0:
204,55,9617,2,0,P|231:61|253:71,1,47.9999985351563,2|0,0:1|0:0,0:0:0:0:
347,210,9776,2,0,P|325:219|301:224,1,47.9999985351563,2|0,0:1|0:0,0:0:0:0:
60,239,9936,2,0,P|83:243|105:253,1,47.9999985351563,4|0,1:2|0:0,0:0:0:0:
297,380,10095,5,8,0:0:0:0:
321,338,10175,1,8,0:0:0:0:
320,289,10255,1,8,0:0:0:0:
295,247,10334,1,8,0:0:0:0:
252,223,10414,2,0,P|214:177|247:75,1,167.999994873047,4|0,1:2|0:0,0:0:0:0:
351,141,10734,2,0,P|323:147|296:147,1,55.9999982910157,4|0,1:2|0:0,0:0:0:0:
0,145,11372,6,0,P|62:137|128:248,1,191.999994140625,4|8,1:2|0:0,0:0:0:0:
97,361,11851,1,2,0:0:0:0:
287,331,12010,1,2,1:2:0:0:
287,331,12170,2,0,P|307:292|308:230,1,95.9999970703126,2|10,1:2|0:0,0:0:0:0:
199,98,12489,2,0,P|201:146|223:189,1,95.9999970703126,2|0,1:2|0:0,0:0:0:0:
407,206,12808,1,2,1:2:0:0:
357,51,12968,2,0,P|335:93|331:140,1,95.9999970703126,10|0,0:2|0:0,0:0:0:0:
442,299,13287,1,2,1:2:0:0:
506,223,13446,1,0,1:0:0:0:
218,212,13606,6,0,P|298:213|342:281,1,167.999994873047,10|0,0:2|0:0,0:0:0:0:
264,380,13925,2,0,P|250:335|258:288,1,95.9999970703126,2|0,1:2|0:0,0:0:0:0:
468,135,14244,2,0,P|435:169|391:186,1,95.9999970703126,8|2,0:0|0:0,0:0:0:0:
244,127,14563,1,2,1:2:0:0:
349,79,14723,1,2,1:2:0:0:
258,288,14883,1,8,0:0:0:0:
153,240,15042,2,0,P|104:243|54:280,1,95.9999970703126,2|0,1:2|0:0,0:0:0:0:
0,378,15361,1,2,1:2:0:0:
57,153,15521,1,10,0:2:0:0:
134,334,15680,1,2,0:0:0:0:
277,76,15840,5,2,1:2:0:0:
297,239,16000,1,0,1:0:0:0:
187,4,16159,2,0,P|161:36|147:106,1,95.9999970703126,10|0,0:0|0:0,0:0:0:0:
377,227,16478,6,0,P|345:173|255:170,1,143.999995605469,6|0,1:2|0:0,0:0:0:0:
191,236,16797,1,10,0:2:0:0:
347,304,16956,1,2,0:2:0:0:
469,120,17117,2,0,P|427:96|380:98,1,95.9999970703126,2|0,1:2|1:0,0:0:0:0:
347,304,17436,1,10,0:2:0:0:
269,162,17595,2,0,P|227:138|180:140,1,95.9999970703126,2|0,1:2|0:0,0:0:0:0:
35,325,17914,2,0,P|82:327|123:303,1,95.9999970703126,2|8,1:2|0:0,0:0:0:0:
181,141,18234,1,2,0:0:0:0:
235,371,18393,1,2,1:2:0:0:
347,304,18553,1,0,1:0:0:0:
93,154,18712,2,0,P|64:193|65:264,1,95.9999970703126,10|0,0:2|0:0,0:0:0:0:
267,254,19031,6,0,P|228:225|157:226,1,95.9999970703126,2|0,1:2|0:2,0:0:0:0:
12,357,19351,1,8,0:0:0:0:
192,313,19510,1,2,0:0:0:0:
0,142,19670,1,2,1:2:0:0:
161,49,19829,1,2,1:2:0:0:
102,337,19989,1,8,0:0:0:0:
88,145,20148,2,0,P|144:135|185:153,1,95.9999970703126,2|0,1:2|0:0,0:0:0:0:
298,308,20468,2,0,P|354:318|395:300,1,95.9999970703126,2|8,1:2|0:0,0:0:0:0:
496,140,20787,1,2,1:2:0:0:
512,268,20946,1,2,1:2:0:0:
338,24,21106,5,8,0:0:0:0:
222,254,21266,1,8,0:0:0:0:
128,9,21425,1,8,0:0:0:0:
385,156,21584,6,0,B|308:194|302:127|213:170,1,167.999994873047,4|0,1:2|0:0,0:0:0:0:
133,270,21904,2,0,P|127:210|91:158,1,111.999996582031,8|2,0:0|0:2,0:0:0:0:
66,370,22223,1,2,1:2:0:0:
66,370,22302,1,2,0:0:0:0:
66,370,22383,1,2,1:2:0:0:
307,265,22542,1,10,0:2:0:0:
133,64,22702,2,0,P|104:111|100:167,1,111.999996582031,2|0,1:2|0:0,0:0:0:0:
307,265,23021,1,2,1:2:0:0:
12,134,23180,2,0,P|11:189|35:239,1,111.999996582031,10|0,0:2|0:0,0:0:0:0:
392,179,23500,2,0,P|344:150|288:146,1,111.999996582031,2|0,1:2|1:0,0:0:0:0:
138,315,23819,6,0,P|192:274|295:298,1,167.999994873047,10|0,0:2|0:0,0:0:0:0:
397,384,24137,2,0,P|382:318|395:260,1,111.999996582031,2|0,1:2|1:0,0:0:0:0:
502,71,24457,1,10,0:2:0:0:
500,204,24617,1,2,0:2:0:0:
343,11,24776,2,0,P|283:6|224:31,1,111.999996582031,2|0,1:2|1:0,0:0:0:0:
83,192,25095,1,10,0:2:0:0:
398,138,25255,2,0,P|348:103|284:95,1,111.999996582031,2|0,1:2|0:0,0:0:0:0:
74,323,25574,2,0,P|128:312|174:280,1,111.999996582031,2|8,1:2|0:0,0:0:0:0:
233,23,25893,1,2,0:2:0:0:
313,196,26053,1,2,1:2:0:0:
17,89,26212,5,0,1:0:0:0:
17,89,26292,1,0,1:0:0:0:
17,89,26372,2,0,P|78:81|130:184,1,167.999994873047,10|0,0:2|0:0,0:0:0:0:
55,267,26690,2,0,P|43:213|56:159,1,111.999996582031,6|0,1:2|0:0,0:0:0:0:
322,50,27010,6,0,P|356:127|367:255,1,192,10|0,0:0|0:0,0:0:0:0:
226,336,27329,2,0,P|234:267|260:192,1,128,2|2,1:2|1:2,0:0:0:0:
511,67,27648,6,0,P|442:72|290:36,1,192,10|0,0:2|0:0,0:0:0:0:
159,108,27968,2,0,P|230:113|298:138,1,128,2|0,1:2|1:0,0:0:0:0:
439,355,28287,6,0,P|444:270|459:218,1,128,10|0,0:0|0:0,0:0:0:0:
267,4,28606,2,0,P|281:66|283:130,1,128,2|10,1:2|0:2,0:0:0:0:
242,269,28845,1,8,0:0:0:0:
242,269,28925,2,0,P|205:266|179:255,1,64,8|8,0:0|0:0,0:0:0:0:
71,141,29085,2,0,P|108:138|134:127,1,64,10|8,0:0|0:0,0:0:0:0:
373,13,29244,6,0,P|446:39|427:163,1,192,6|0,1:2|0:0,0:0:0:0:
305,203,29563,2,0,P|341:191|370:192,1,64,10|0,0:0|0:0,0:0:0:0:
468,302,29723,1,10,0:2:0:0:
468,302,29803,1,8,0:0:0:0:
468,302,29883,2,0,P|459:339|445:363,1,64,2|0,0:1|0:0,0:0:0:0:
328,328,30042,2,0,P|291:339|263:339,1,64,2|0,0:1|0:0,0:0:0:0:
235,219,30202,2,0,P|207:192|192:168,1,64,2|0,0:1|0:0,0:0:0:0:
373,13,30361,6,0,P|446:39|386:175,1,256,6|2,1:2|1:2,0:0:0:0:
261,89,30760,1,0,1:0:0:0:
261,89,30840,2,0,P|323:104|386:93,1,128,8|8,0:0|0:0,0:0:0:0:
501,33,31079,1,8,0:0:0:0:
501,33,31159,1,8,0:0:0:0:
418,319,31319,1,2,0:1:0:0:
220,231,31478,5,2,0:1:0:0:
261,89,31638,1,2,0:1:0:0:
270,350,31797,2,0,P|224:359|176:358,1,95.9999970703126,6|0,1:2|1:0,0:0:0:0:
103,209,32116,1,2,0:2:0:0:
347,45,32276,1,2,1:2:0:0:
360,64,32355,1,0,1:0:0:0:
373,85,32436,6,0,P|405:166|418:279,1,191.999994140625,10|0,0:0|1:0,0:0:0:0:
418,269,32914,1,0,1:0:0:0:
139,226,33234,1,10,0:0:0:0:
426,276,33393,1,2,1:2:0:0:
426,276,33553,1,2,1:2:0:0:
69,341,33712,2,0,P|128:344|189:361,1,95.9999970703126,10|0,0:0|0:0,0:0:0:0:
0,75,34031,5,2,1:2:0:0:
0,75,34191,1,2,0:0:0:0:
313,168,34351,1,4,1:2:0:0:
36,190,34510,5,2,1:2:0:0:
181,47,34669,1,2,0:2:0:0:
267,236,34829,1,2,1:2:0:0:
274,252,34909,1,0,1:0:0:0:
281,267,34989,1,10,0:2:0:0:
484,176,35148,5,2,0:2:0:0:
484,176,35308,1,2,1:2:0:0:
325,136,35468,1,2,1:2:0:0:
370,294,35627,1,2,0:2:0:0:
439,18,35787,5,10,0:2:0:0:
327,217,35946,2,0,P|316:155|302:116,1,95.9999970703126,2|0,1:2|1:0,0:0:0:0:
252,343,36266,1,10,0:2:0:0:
62,174,36425,5,10,0:2:0:0:
62,174,36585,2,0,P|129:168|173:151,1,95.9999970703126,10|0,0:2|0:0,0:0:0:0:
437,15,36904,5,4,1:0:0:0:
437,15,37063,2,0,P|354:3|237:19,1,191.999994140625,0|2,1:0|1:2,0:0:0:0:
137,148,37462,1,0,1:0:0:0:
156,159,37542,2,0,P|239:171|356:155,1,191.999994140625,12|0,0:0|1:0,0:0:0:0:
457,93,38021,5,2,1:2:0:0:
457,93,38180,1,2,0:2:0:0:
478,303,38340,2,0,P|473:256|460:209,1,95.9999970703126,8|0,0:0|1:0,0:0:0:0:
460,209,38659,1,2,1:2:0:0:
291,362,38819,2,0,P|292:277|308:196,1,143.999995605469,10|0,0:2|0:0,0:0:0:0:
201,162,39138,2,0,P|211:217|212:277,1,95.9999970703126,0|0,1:0|0:0,0:0:0:0:
34,363,39456,6,0,P|34:292|52:216,1,143.999995605469,4|0,1:2|0:0,0:0:0:0:
25,130,39776,2,0,P|86:94|161:72,1,143.999995605469
222,6,40095,6,0,P|283:41|355:113,1,167.999994873047,10|0,0:2|0:0,0:0:0:0:
470,152,40414,2,0,P|408:187|328:277,1,192,2|0,1:2|0:0,0:0:0:0:
248,366,40734,6,0,P|239:307|200:219,1,143.999995605469,6|0,1:2|0:0,0:0:0:0:
286,185,41052,2,0,P|295:126|334:38,1,143.999995605469,4|0,1:2|0:0,0:0:0:0:
168,55,41372,6,0,P|193:123|205:251,1,180.000006866455,4|0,1:0|0:0,0:0:0:0:
268,342,41691,2,0,P|275:303|287:267,1,71.9999978027344,10|0,0:2|0:0,0:0:0:0:
382,141,41851,1,2,1:2:0:0:
114,155,42010,6,0,P|89:210|97:278,1,111.999996582031,4|0,1:2|1:0,0:0:0:0:
352,371,42329,1,10,0:2:0:0:
309,187,42489,1,0,0:0:0:0:
151,383,42648,1,2,1:2:0:0:
338,356,42808,1,0,1:0:0:0:
114,155,42968,2,0,P|89:210|97:278,1,111.999996582031,10|0,0:2|0:0,0:0:0:0:
385,261,43287,5,2,1:2:0:0:
230,97,43446,1,2,1:2:0:0:
243,345,43606,1,8,0:0:0:0:
481,208,43766,2,0,P|430:170|368:164,1,111.999996582031,2|0,1:2|1:0,0:0:0:0:
167,224,44085,1,0,1:0:0:0:
394,368,44244,2,0,P|401:306|376:249,1,111.999996582031,10|0,0:2|0:0,0:0:0:0:
136,105,44563,5,2,1:2:0:0:
320,59,44723,1,2,1:2:0:0:
87,234,44882,1,8,0:0:0:0:
271,280,45041,1,2,0:2:0:0:
140,21,45202,1,2,1:2:0:0:
140,21,45361,2,0,P|118:77|125:134,1,111.999996582031,2|8,1:2|0:0,0:0:0:0:
271,280,45680,1,2,1:2:0:0:
373,59,45840,6,0,P|306:31|236:48,1,128,8|0,0:0|1:0,0:0:0:0:
229,166,46079,1,0,1:0:0:0:
229,166,46159,2,0,P|296:194|366:177,1,128,8|0,0:0|1:0,0:0:0:0:
137,80,46478,5,12,0:0:0:0:
163,367,46638,1,8,0:0:0:0:
163,367,46718,1,8,0:0:0:0:
163,367,46797,1,0,1:0:0:0:
431,260,46957,1,8,0:0:0:0:
431,260,47037,1,8,0:0:0:0:
431,260,47117,2,0,B|303:206|306:303|177:252,1,256,4|2,1:2|0:2,0:0:0:0:
219,19,47595,5,0,1:0:0:0:
219,19,47675,1,0,1:0:0:0:
219,19,47755,2,0,P|277:72|235:180,1,191.999994140625,10|4,0:2|1:2,0:0:0:0:
88,204,48234,1,0,0:0:0:0:
351,304,48393,5,4,1:0:0:0:
248,171,48553,1,0,0:0:0:0:
112,372,48712,1,2,0:2:0:0:
88,204,48872,1,0,1:2:0:0:
286,374,49031,1,10,0:2:0:0:
315,85,49191,1,8,0:0:0:0:
315,85,49271,1,8,0:0:0:0:
315,85,49351,2,0,P|287:83|257:73,3,47.9999985351563,10|8|10|8,0:2|0:0|0:2|0:0,0:0:0:0:
395,50,49670,5,6,1:2:0:0:
395,50,49829,1,2,1:2:0:0:
361,217,49989,1,2,1:2:0:0:
129,85,50148,1,10,0:2:0:0:
129,85,50228,1,8,0:0:0:0:
129,85,50308,1,0,1:0:0:0:
94,176,50468,1,2,1:2:0:0:
430,141,50627,1,2,1:2:0:0:
395,50,50787,1,2,1:2:0:0:
137,299,50946,5,10,0:0:0:0:
137,299,51106,1,8,0:0:0:0:
423,233,51266,1,10,0:0:0:0:
423,233,51425,1,8,0:0:0:0:
116,103,51584,5,10,0:0:0:0:
116,103,51744,1,8,0:0:0:0:
409,113,51903,1,10,0:0:0:0:
409,113,52064,1,8,0:0:0:0:
245,265,52223,6,0,P|239:212|224:161,1,95.9999970703126,8|0,0:0|1:0,0:0:0:0:
368,329,52542,2,0,P|374:276|389:225,1,95.9999970703126,8|0,0:0|1:0,0:0:0:0:
216,383,52861,5,8,0:0:0:0:
218,343,52941,1,8,0:0:0:0:
214,304,53021,1,8,0:0:0:0:
203,265,53100,1,8,0:0:0:0:
186,230,53180,1,2,1:2:0:0:
162,197,53260,1,8,0:0:0:0:
135,170,53340,1,8,0:0:0:0:
101,148,53419,1,8,0:0:0:0:
64,131,53499,6,0,B|37:106|39:72|39:72|146:34|206:123,1,256,6|8,1:2|0:0,0:0:0:0:
298,315,53978,2,0,P|291:239|306:176,1,128,2|0,1:2|0:0,0:0:0:0:
367,77,54218,1,0,1:0:0:0:
367,77,54297,1,2,1:2:0:0:
444,269,54457,1,10,0:2:0:0:
511,126,54617,1,2,0:2:0:0:
298,315,54776,5,2,1:2:0:0:
298,315,54936,2,0,P|271:243|269:178,1,128,2|8,1:2|0:0,0:0:0:0:
82,49,55255,2,0,P|176:39|198:144,1,192,2|0,1:2|0:0,0:0:0:0:
177,205,55574,1,2,1:2:0:0:
471,131,55734,1,10,0:2:0:0:
383,39,55893,1,2,0:0:0:0:
324,306,56053,6,0,P|316:280|301:245,1,47.9999985351563,2|0,1:2|1:0,0:0:0:0:
348,374,56372,6,0,P|353:281|369:206,1,160,14|2,0:2|0:0,0:0:0:0:
147,71,56691,6,0,P|155:93|162:116,1,47.9999985351563,2|0,1:2|1:0,0:0:0:0:
204,25,57010,6,0,P|189:103|185:183,1,160,14|0,0:2|0:0,0:0:0:0:
318,377,57329,5,4,1:0:0:0:
438,345,57489,1,2,1:2:0:0:
411,62,57648,1,10,0:2:0:0:
291,94,57808,1,10,0:2:0:0:
361,295,57968,1,2,1:2:0:0:
413,187,58127,1,0,1:0:0:0:
136,107,58287,1,10,0:0:0:0:
118,133,58367,1,8,0:0:0:0:
104,161,58446,1,8,0:0:0:0:
95,191,58527,1,8,0:0:0:0:
92,222,58606,6,0,B|88:264|101:305|101:305|187:261|189:156,1,256,6|8,1:2|0:0,0:0:0:0:
4,34,59085,2,0,P|63:59|134:57,1,128,2|0,1:2|0:0,0:0:0:0:
287,18,59404,1,2,1:2:0:0:
241,278,59563,1,10,0:2:0:0:
402,243,59723,1,2,0:2:0:0:
99,162,59883,5,2,1:2:0:0:
99,162,60042,2,0,P|158:136|229:138,1,128,2|8,1:2|0:0,0:0:0:0:
357,360,60361,2,0,P|285:346|321:199,1,256,2|2,1:2|1:2,0:0:0:0:
461,265,60840,2,0,P|398:279|335:280,1,128,10|0,0:2|0:0,0:0:0:0:
433,71,61159,6,0,P|404:68|382:63,1,47.9999985351563,2|0,1:2|1:0,0:0:0:0:
505,96,61478,6,0,P|413:106|342:134,1,160,14|0,0:2|0:0,0:0:0:0:
158,289,61797,6,0,P|187:286|209:281,1,47.9999985351563,2|0,1:2|0:0,0:0:0:0:
86,314,62116,6,0,P|178:324|249:352,1,160,14|2,0:0|0:0,0:0:0:0:
510,241,62436,1,4,1:0:0:0:
235,42,62595,5,10,0:2:0:0:
235,42,62675,1,8,0:0:0:0:
235,42,62755,2,0,P|242:69|246:106,1,64,10|0,0:2|0:0,0:0:0:0:
351,160,62914,1,10,0:2:0:0:
351,160,62994,1,8,0:0:0:0:
351,160,63074,2,0,P|344:187|340:224,1,64,8|0,0:0|0:0,0:0:0:0:
235,278,63233,1,8,0:0:0:0:
235,278,63313,1,8,0:0:0:0:
235,278,63393,2,0,P|242:305|246:342,1,64,8|0,0:0|0:0,0:0:0:0:
401,384,63553,2,0,P|404:352|411:321,1,64,0|0,1:0|1:0,0:0:0:0:
182,179,63712,6,0,B|97:137|4:197|4:197|23:223|65:236,1,256,6|8,1:2|0:0,0:0:0:0:
277,269,64191,2,0,P|307:213|312:145,1,128,2|0,1:2|0:0,0:0:0:0:
218,14,64510,1,0,1:0:0:0:
58,171,64669,2,2,P|119:187|186:177,1,128,10|0,0:2|0:2,0:0:0:0:
392,17,64989,6,0,P|381:79|395:141,1,128,2|2,1:2|1:2,0:0:0:0:
499,264,65308,1,10,0:2:0:0:
240,341,65468,2,0,P|238:251|385:251,1,256,2|2,1:2|1:2,0:0:0:0:
471,371,65946,1,10,0:2:0:0:
311,294,66106,1,2,0:2:0:0:
450,103,66266,6,0,P|421:94|397:96,1,47.9999985351563,2|0,1:2|1:0,0:0:0:0:
510,141,66585,6,0,P|422:133|349:145,1,160,14|0,0:2|0:0,0:0:0:0:
130,266,66904,6,0,P|158:257|183:259,1,47.9999985351563,2|0,1:2|1:0,0:0:0:0:
70,304,67223,6,0,P|158:296|231:308,1,160,14|2,0:2|0:2,0:0:0:0:
481,373,67542,5,6,1:2:0:0:
507,215,67702,1,2,1:2:0:0:
202,149,67861,5,10,0:2:0:0:
228,307,68021,1,2,0:2:0:0:
433,63,68180,5,10,0:2:0:0:
394,52,68260,1,8,0:0:0:0:
353,47,68340,1,8,0:0:0:0:
312,50,68420,1,8,0:0:0:0:
272,59,68500,5,2,0:1:0:0:
279,61,68579,1,2,0:1:0:0:
285,64,68659,1,2,0:1:0:0:
290,68,68739,1,2,0:1:0:0:
295,73,68819,6,0,B|353:145|326:245|326:245|293:224|278:174,1,256,6|8,1:2|0:0,0:0:0:0:
445,132,69297,2,0,P|453:213|441:269,1,128,2|0,1:2|0:0,0:0:0:0:
322,377,69617,1,2,1:2:0:0:
165,222,69776,2,0,P|233:217|286:183,1,128,10|0,0:2|0:0,0:0:0:0:
44,111,70095,5,2,1:2:0:0:
224,46,70255,1,2,1:2:0:0:
172,327,70414,1,10,0:2:0:0:
123,147,70573,2,0,P|196:131|265:286,1,256,2|2,1:2|1:2,0:0:0:0:
400,374,71053,2,0,P|387:294|392:241,1,128,10|2,0:2|0:2,0:0:0:0:
480,76,71372,6,0,P|483:99|490:123,1,47.9999985351563,2|0,1:2|1:0,0:0:0:0:
439,15,71691,6,0,P|448:99|435:183,1,160,14|0,0:2|0:0,0:0:0:0:
279,316,72010,6,0,P|273:293|270:270,1,47.9999985351563,2|0,1:2|1:0,0:0:0:0:
227,367,72329,6,0,P|238:288|229:209,1,160,14|0,0:2|1:0,0:0:0:0:
33,31,72648,5,2,0:1:0:0:
33,31,72728,1,2,0:1:0:0:
33,31,72808,2,0,P|71:40|131:40,1,80,2|0,0:1|0:0,0:0:0:0:
333,6,72968,1,2,0:1:0:0:
333,6,73047,1,2,0:1:0:0:
333,6,73127,2,0,P|346:42|350:72,1,64,2|0,0:1|1:1,0:0:0:0:
313,243,73286,2,0,P|312:212|317:187,3,47.9999985351563,0|0|0|0,1:0|1:0|1:0|1:0,0:0:0:0:
394,276,73606,2,0,B|290:240|297:320|182:286,1,215.999993408203,14|0,0:0|0:0,0:0:0:0:
80,103,73924,6,0,P|149:72|231:209,1,256,6|8,1:2|0:0,0:0:0:0:
90,372,74404,2,0,P|62:252|147:165,1,256,0|2,1:0|1:2,0:0:0:0:
303,276,74883,2,0,P|245:300|183:287,1,128,10|2,0:2|0:0,0:0:0:0:
345,94,75202,6,0,P|369:152|355:213,1,128,2|0,1:2|1:2,0:0:0:0:
236,25,75521,2,0,P|211:83|225:144,1,128,10|0,0:2|0:0,0:0:0:0:
354,316,75840,2,0,P|414:297|452:246,1,128,2|0,1:2|1:0,0:0:0:0:
225,245,76159,2,0,P|164:226|126:175,1,128,10|0,0:2|0:0,0:0:0:0:
368,46,76478,6,0,P|415:124|296:204,1,256,6|10,1:2|0:2,0:0:0:0:
208,112,76957,2,0,P|270:99|329:123,1,128,2|0,0:2|1:0,0:0:0:0:
435,263,77276,1,2,0:2:0:0:
137,367,77436,2,0,P|122:293|131:225,1,128,10|0,0:2|0:0,0:0:0:0:
368,46,77755,6,0,P|415:124|342:209,1,192,6|0,1:2|0:0,0:0:0:0:
145,123,78074,2,0,P|236:99|329:123,1,192,10|0,0:2|0:0,0:0:0:0:
303,300,78393,2,0,P|233:315|164:294,1,128,2|8,1:2|0:0,0:0:0:0:
69,233,78632,1,8,0:0:0:0:
69,233,78712,2,0,P|100:228|145:211,1,64,10|8,0:2|0:0,0:0:0:0:
262,76,78871,2,0,P|231:71|186:54,1,64,8|8,0:0|0:0,0:0:0:0:
3,12,79031,6,0,P|82:108|68:232,1,256,6|10,1:2|0:2,0:0:0:0:
0,354,79510,1,2,0:2:0:0:
225,312,79670,2,0,P|256:245|260:166,1,128,2|2,1:2|1:2,0:0:0:0:
155,12,79989,2,0,P|163:75|192:132,1,128,10|0,0:2|1:0,0:0:0:0:
479,84,80308,6,0,P|421:64|327:61,1,128,10|0,0:2|1:0,0:0:0:0:
479,300,80627,2,0,P|421:320|327:323,1,128,10|0,0:2|1:0,0:0:0:0:
228,290,80866,1,0,1:0:0:0:
228,290,80946,2,0,P|215:257|212:223,1,64,2|0,1:2|1:0,0:0:0:0:
339,120,81105,2,0,P|351:87|355:53,1,64,0|0,1:0|1:0,0:0:0:0:
67,2,81265,1,12,0:0:0:0:
235,131,81425,5,2,0:0:0:0:
235,131,81584,2,0,P|188:121|129:120,1,95.9999970703126,6|0,1:2|0:0,0:0:0:0:
339,120,81904,2,0,P|324:74|295:22,1,95.9999970703126,2|0,0:0|0:0,0:0:0:0:
400,204,82223,2,0,P|432:168|462:117,1,95.9999970703126,2|0,0:0|0:0,0:0:0:0:
357,298,82542,1,2,0:0:0:0:
339,120,82702,1,2,0:0:0:0:
185,364,82861,5,10,0:2:0:0:
130,118,83021,1,10,0:2:0:0:
130,118,83180,1,10,0:2:0:0:
283,322,83340,2,0,P|293:212|313:116,1,191.999994140625,2|0,1:2|1:0,0:0:0:0:
356,27,83739,1,0,1:0:0:0:
356,27,83819,2,0,P|296:24|221:35,1,128,12|0,0:0|0:0,0:0:0:0:
6,303,84137,5,6,1:2:0:0:
269,228,84297,1,8,0:0:0:0:
269,228,84377,1,8,0:0:0:0:
269,228,84457,2,0,P|232:228|189:222,1,55.9999982910157,8|0,0:0|0:0,0:0:0:0:
84,166,84617,1,4,1:0:0:0:
325,77,84776,1,8,0:0:0:0:
325,77,84856,1,8,0:0:0:0:
325,77,84936,2,0,P|318:112|317:156,1,55.9999982910157,2|0,0:1|0:0,0:0:0:0:
402,270,85095,2,0,P|399:238|393:206,1,55.9999982910157,2|0,0:1|0:0,0:0:0:0:
225,102,85255,1,6,0:1:0:0:
137,369,85414,5,8,0:0:0:0:
137,369,85574,1,8,0:0:0:0:
87,104,85734,1,8,0:0:0:0:
87,104,85894,1,8,0:0:0:0:
291,281,86053,2,0,P|258:284|224:296,2,55.9999982910157,8|0|0,1:2|1:0|1:0,0:0:0:0:
393,207,86292,1,0,1:0:0:0:
393,207,86372,2,0,P|329:200|267:177,1,111.999996582031,8|0,1:2|1:0,0:0:0:0:
139,108,86611,5,0,1:0:0:0:
139,108,86690,2,0,P|137:73|147:47,1,55.9999982910157,2|0,0:1|0:0,0:0:0:0:
243,34,86851,2,0,P|272:16|300:11,1,55.9999982910157,2|0,0:1|0:0,0:0:0:0:
359,88,87010,2,0,P|389:104|407:125,1,55.9999982910157,2|0,0:1|0:0,0:0:0:0:
255,325,87170,6,0,B|193:275|179:195|207:120|307:148|306:209|278:239,1,287.999991210938,4|0,1:0|0:0,0:0:0:0:
