osu file format v14

[General]
AudioFilename: audio.mp3
AudioLeadIn: 0
PreviewTime: 52861
Countdown: 0
SampleSet: Soft
StackLeniency: 0.7
Mode: 0
LetterboxInBreaks: 0
WidescreenStoryboard: 1

[Editor]
Bookmarks: 1159,11372,21585,31797,42010,52223,53500,81585,84138,87648
DistanceSpacing: 0.9
BeatDivisor: 4
GridSize: 4
TimelineZoom: 1.9

[Metadata]
Title:COOLEST (TV Size)
TitleUnicode:COOLEST (TV Size)
Artist:CustomiZ
ArtistUnicode:カスタマイZ
Creator:Crissa
Version:UNCOOL
Source:坂本ですが?
Tags:Sakamoto desu ga? anime japanese opening op customi-z [-crissaegrim-]
BeatmapID:1967180
BeatmapSetID:941964

[Difficulty]
HPDrainRate:2
CircleSize:3
OverallDifficulty:3
ApproachRate:4
SliderMultiplier:1
SliderTickRate:1

[Events]
//Background and Video events
0,0,"NOTSOCOOL.jpg",0,0
Video,0,"op1.avi"
//Break Periods
2,1359,2073
//Storyboard Layer 0 (Background)
//Storyboard Layer 1 (Fail)
//Storyboard Layer 2 (Pass)
//Storyboard Layer 3 (Foreground)
//Storyboard Sound Samples

[TimingPoints]
1159,319.148936170213,4,2,69,70,1,0
1478,-100,4,2,69,60,0,0
3393,-100,4,2,69,80,0,0
4031,-100,4,2,69,60,0,0
6265,-100,4,2,69,70,0,0
11371,-100,4,2,69,60,0,0
21584,-100,4,2,69,70,0,0
31796,-100,4,2,69,60,0,0
41052,-100,4,2,69,65,0,0
41371,-100,4,2,69,70,0,0
42009,-100,4,2,69,75,0,0
47116,-100,4,2,69,80,0,0
47435,-100,4,2,69,70,0,0
53499,-100,4,2,69,80,0,1
81583,-100,4,2,69,90,0,1
81584,-100,4,2,69,90,0,0
83657,-100,4,2,69,80,0,0
84056,-100,4,2,69,5,0,0
84136,-100,4,2,69,80,0,0
86688,-100,4,2,69,85,0,0
87168,-100,4,2,69,90,0,0
87487,-100,4,2,69,5,0,0

[Colours]
Combo1 : 148,194,146
Combo2 : 179,199,225
Combo3 : 169,214,171
Combo4 : 128,156,191

[HitObjects]
159,200,1159,5,4,1:0:0:0:
254,139,3393,5,4,1:2:0:0:
331,92,3712,1,4,1:2:0:0:
181,193,4988,6,0,L|189:257,1,50,8|2,0:0|1:2,0:0:0:0:
201,331,5467,1,2,1:2:0:0:
111,331,5786,2,0,L|118:394,2,50,8|8|8,0:0|0:0|0:0,0:0:0:0:
69,311,6265,6,0,L|58:202,1,100,4|0,1:2|1:0,0:0:0:0:
101,132,6903,2,0,L|90:23,1,100,0|0,1:0|1:0,0:0:0:0:
175,62,7541,2,0,L|284:51,1,100,0|0,1:0|1:0,0:0:0:0:
362,33,8180,2,0,L|473:40,1,100,0|0,1:0|1:0,0:0:0:0:
499,120,8818,6,0,P|443:130|404:227,1,150,4|4,1:2|1:1,0:0:0:0:
274,335,9936,2,0,P|245:268|175:248,1,150,4|4,1:2|1:2,0:0:0:0:
94,288,10734,1,4,1:2:0:0:
18,124,11372,6,0,B|117:81|115:158|212:115,1,200,4|2,1:2|1:2,0:0:0:0:
271,47,12329,1,10,0:0:0:0:
353,83,12648,2,0,L|348:191,2,100,0|10|2,0:0|0:2|1:2,0:0:0:0:
431,38,13606,1,10,0:2:0:0:
489,106,13925,2,0,L|484:214,1,100,2|8,1:2|0:0,0:0:0:0:
458,291,14563,6,0,P|399:273|315:328,1,150,2|2,1:2|1:2,0:0:0:0:
228,216,15521,1,10,0:2:0:0:
154,267,15840,2,0,L|46:261,1,100,2|10,1:2|0:0,0:0:0:0:
21,177,16478,6,0,P|90:162|139:38,1,200,6|2,1:2|1:2,0:0:0:0:
224,17,17436,1,10,0:2:0:0:
288,80,17754,2,0,L|285:187,2,100,0|8|2,0:0|0:0|1:2,0:0:0:0:
370,43,18712,1,10,0:2:0:0:
437,102,19031,1,2,1:2:0:0:
389,275,19670,6,0,B|320:242|319:299|241:264,1,150,2|2,1:2|1:2,0:0:0:0:
165,220,20468,2,0,L|157:62,1,150,2|2,1:2|1:2,0:0:0:0:
221,7,21266,1,8,0:0:0:0:
279,75,21584,6,0,B|374:66|374:66|382:61|382:61|509:50,1,200,4|2,1:2|1:2,0:0:0:0:
484,187,22702,2,0,P|450:232|339:234,1,150,2|10,1:2|0:2,0:0:0:0:
281,204,23500,2,0,P|230:199|179:227,1,100,2|8,1:2|0:0,0:0:0:0:
113,271,24138,6,0,L|98:148,1,100,2|10,1:2|0:2,0:0:0:0:
56,93,24776,2,0,L|213:82,1,150,2|2,1:2|1:2,0:0:0:0:
265,150,25574,2,0,L|422:139,1,150,2|2,1:2|1:2,0:0:0:0:
446,54,26372,5,10,0:2:0:0:
369,5,26691,2,0,L|258:12,2,100,6|10|2,1:2|0:0|1:2,0:0:0:0:
363,94,27648,5,10,0:2:0:0:
294,152,27968,2,0,L|183:145,1,100,2|10,1:2|0:0,0:0:0:0:
132,211,28606,2,0,L|21:204,1,100,2|8,1:2|0:0,0:0:0:0:
3,119,29244,5,6,1:2:0:0:
72,61,29563,1,10,0:0:0:0:
151,103,29883,1,2,0:1:0:0:
268,37,30361,6,0,B|273:96|273:96|286:111|286:111|295:211,1,150,6|8,1:2|0:0,0:0:0:0:
365,234,31159,2,0,L|479:228,1,100,8|2,0:0|0:1,0:0:0:0:
500,311,31797,5,6,1:2:0:0:
332,378,32436,2,0,P|277:341|268:258,1,150,10|0,0:0|1:0,0:0:0:0:
339,148,33393,1,2,1:2:0:0:
272,87,33712,1,10,0:0:0:0:
202,144,34031,6,0,L|84:137,1,100,2|4,1:2|1:2,0:0:0:0:
71,222,34670,2,0,L|170:227,1,100,2|10,0:2|0:2,0:0:0:0:
227,297,35308,5,2,1:2:0:0:
312,269,35627,2,0,L|411:274,2,100,2|2|10,0:2|1:2|0:2,0:0:0:0:
279,184,36585,1,10,0:2:0:0:
354,134,36904,6,0,P|366:76|252:9,1,200,4|12,1:0|0:0,0:0:0:0:
86,39,38180,2,0,L|98:250,1,200,2|10,0:2|0:2,0:0:0:0:
48,314,39138,1,0,1:0:0:0:
131,348,39457,6,0,L|242:357,2,100,4|0|10,1:2|0:0|0:2,0:0:0:0:
165,264,40414,1,2,1:2:0:0:
207,184,40734,2,0,P|266:169|316:181,1,100,6|0,1:2|1:0,0:0:0:0:
385,212,41372,2,0,P|400:153|388:103,1,100,4|10,1:0|0:2,0:0:0:0:
341,41,42010,6,0,L|232:37,2,100,4|10|2,1:2|0:2|1:2,0:0:0:0:
430,29,42968,1,10,0:2:0:0:
498,87,43287,2,0,P|512:160|460:221,1,150,2|2,1:2|1:2,0:0:0:0:
337,247,44244,1,10,0:2:0:0:
257,204,44563,6,0,P|247:252|273:315,2,100,2|8|2,1:2|0:0|1:2,0:0:0:0:
210,126,45521,1,8,0:0:0:0:
120,120,45839,2,0,L|131:227,1,100,8|8,0:0|0:0,0:0:0:0:
53,266,46478,2,0,L|64:373,1,100,12|0,0:0|1:0,0:0:0:0:
152,376,47117,1,4,1:2:0:0:
301,276,47755,6,0,B|305:232|305:232|302:223|302:223|308:160,1,100,10|4,0:2|1:2,0:0:0:0:
228,131,48393,2,0,L|236:31,2,100,4|2|10,1:0|0:2|0:2,0:0:0:0:
140,152,49351,1,10,0:2:0:0:
119,239,49670,6,0,L|243:232,1,100,6|2,1:2|1:2,0:0:0:0:
297,188,50308,2,0,L|396:193,1,100,0|2,1:0|1:2,0:0:0:0:
256,192,50946,12,8,52223,0:0:0:0:
202,196,53500,6,0,B|245:199|245:199|268:213|268:213|348:220,1,150,6|2,1:2|1:2,0:0:0:0:
459,144,54457,1,10,0:2:0:0:
408,69,54776,2,0,B|344:74|344:74|327:71|327:71|240:79,1,150,2|2,1:2|1:2,0:0:0:0:
182,189,55734,1,10,0:2:0:0:
230,264,56053,6,0,P|263:223|267:164,2,100,2|14|2,1:2|0:2|1:2,0:0:0:0:
140,274,57010,1,14,0:2:0:0:
182,353,57329,2,0,L|295:362,1,100,4|10,1:0|0:2,0:0:0:0:
342,293,57967,2,0,L|455:284,1,100,2|10,1:2|0:0,0:0:0:0:
456,196,58606,6,0,B|412:192|412:192|387:202|387:202|307:195,1,150,6|2,1:2|1:2,0:0:0:0:
226,87,59563,1,10,0:2:0:0:
165,153,59883,2,0,B|121:149|121:149|104:151|104:151|5:143,1,150,2|2,1:2|1:2,0:0:0:0:
16,278,60840,1,10,0:2:0:0:
103,255,61159,6,0,L|205:263,2,100,2|14|2,1:2|0:2|1:2,0:0:0:0:
61,174,62117,1,14,0:0:0:0:
118,104,62436,2,0,L|220:100,1,100,4|10,1:0|0:2,0:0:0:0:
293,149,63074,2,0,L|395:145,1,100,8|8,0:0|0:0,0:0:0:0:
429,227,63712,6,0,B|353:233|353:233|330:246|330:246|270:248,1,150,6|2,1:2|1:2,0:0:0:0:
191,347,64670,1,10,0:2:0:0:
108,311,64989,2,0,B|115:223|115:223|121:203|121:203|125:155,1,150,2|2,1:2|1:2,0:0:0:0:
34,61,65946,1,10,0:2:0:0:
112,18,66265,6,0,P|175:26|215:64,2,100,2|14|2,1:2|0:2|1:2,0:0:0:0:
34,61,67223,1,14,0:2:0:0:
15,149,67542,2,0,L|24:267,1,100,6|10,1:2|0:2,0:0:0:0:
110,269,68180,2,0,L|119:387,1,100,10|2,0:2|0:1,0:0:0:0:
207,368,68819,6,0,B|210:324|210:324|224:301|224:301|231:221,1,150,6|2,1:2|1:2,0:0:0:0:
161,106,69776,1,10,0:2:0:0:
224,41,70095,2,0,B|287:46|287:46|304:43|304:43|391:51,1,150,2|2,1:2|1:2,0:0:0:0:
462,150,71053,1,10,0:2:0:0:
386,198,71372,6,0,L|382:301,2,100,2|14|2,1:2|0:2|1:2,0:0:0:0:
312,146,72329,1,14,0:2:0:0:
254,215,72648,2,0,L|250:318,1,100,2|2,0:1|0:1,0:0:0:0:
164,343,73287,2,0,L|160:240,1,100,0|10,1:0|0:2,0:0:0:0:
76,209,73924,6,0,P|47:147|85:54,2,150,6|0|10,1:2|1:0|0:2,0:0:0:0:
160,243,75202,2,0,L|279:237,1,100,2|10,1:2|0:2,0:0:0:0:
313,165,75840,2,0,L|432:171,1,100,2|10,1:2|0:2,0:0:0:0:
472,237,76478,5,6,1:2:0:0:
511,145,76797,2,0,P|511:100|492:46,1,100,10|0,0:2|1:0,0:0:0:0:
398,79,77435,1,10,0:2:0:0:
318,20,77755,5,6,1:2:0:0:
275,99,78074,2,0,L|171:96,2,100,10|2|10,0:2|1:2|0:2,0:0:0:0:
347,152,79031,6,0,P|360:204|342:266,1,100,6|10,1:2|0:2,0:0:0:0:
280,304,79670,2,0,L|176:301,1,100,2|10,1:2|0:2,0:0:0:0:
101,345,80308,5,10,0:2:0:0:
90,255,80627,1,10,0:2:0:0:
77,165,80946,2,0,B|62:28|62:28|121:88,1,200,2|6,1:2|1:2,0:0:0:0:
326,356,82861,5,10,0:2:0:0:
239,382,83180,2,0,L|175:376,1,50,10|10,1:2|0:0,0:0:0:0:
96,279,83818,1,12,0:0:0:0:
178,243,84137,5,6,1:2:0:0:
108,127,84616,2,0,P|178:106|292:170,1,200,4|6,1:0|0:1,0:0:0:0:
399,236,85734,1,8,0:0:0:0:
483,204,86053,2,0,L|478:100,1,100,8|8,1:2|1:2,0:0:0:0:
415,40,86691,5,2,0:1:0:0:
308,123,87170,1,4,1:0:0:0:
