osu file format v14

[General]
AudioFilename: audio.mp3
AudioLeadIn: 0
PreviewTime: 52861
Countdown: 0
SampleSet: Soft
StackLeniency: 0.7
Mode: 0
LetterboxInBreaks: 0
WidescreenStoryboard: 1

[Editor]
Bookmarks: 1159,11372,21585,31797,42010,52223,53500,81585,84138,87648
DistanceSpacing: 1.2
BeatDivisor: 4
GridSize: 4
TimelineZoom: 1.9

[Metadata]
Title:COOLEST (TV Size)
TitleUnicode:COOLEST (TV Size)
Artist:CustomiZ
ArtistUnicode:カスタマイZ
Creator:Crissa
Version:COOLER
Source:坂本ですが?
Tags:Sakamoto desu ga? anime japanese opening op customi-z [-crissaegrim-]
BeatmapID:1967177
BeatmapSetID:941964

[Difficulty]
HPDrainRate:5.6
CircleSize:3.8
OverallDifficulty:8.2
ApproachRate:9
SliderMultiplier:1.6
SliderTickRate:1

[Events]
//Background and Video events
Video,0,"op1.avi"
0,0,"HARDCOOL.jpg",0,0
//Break Periods
//Storyboard Layer 0 (Background)
//Storyboard Layer 1 (Fail)
//Storyboard Layer 2 (Pass)
//Storyboard Layer 3 (Foreground)
//Storyboard Sound Samples

[TimingPoints]
1159,319.148936170213,4,2,69,80,1,0
1318,-100,4,2,69,60,0,0
3392,-76.9230769230769,4,2,69,80,0,0
3631,-76.9230769230769,4,2,69,5,0,0
3711,-100,4,2,69,80,0,0
3870,-100,4,2,69,60,0,0
6264,-100,4,2,69,70,0,0
6663,-100,4,2,69,30,0,0
6902,-100,4,2,69,70,0,0
6982,-100,4,2,69,30,0,0
7221,-100,4,2,69,70,0,0
7301,-100,4,2,69,30,0,0
7540,-100,4,2,69,70,0,0
7620,-100,4,2,69,40,0,0
7860,-100,4,2,69,70,0,0
7939,-100,4,2,69,40,0,0
8179,-100,4,2,69,70,0,0
8259,-100,4,2,69,40,0,0
8498,-100,4,2,69,70,0,0
8578,-100,4,2,69,40,0,0
8817,-100,4,2,69,70,0,0
8818,-76.9230769230769,4,2,69,70,0,0
10733,-76.9230769230769,4,2,69,70,0,0
10892,-76.9230769230769,4,2,69,20,0,0
11051,-76.9230769230769,4,2,69,60,0,0
11052,-250,4,2,69,60,0,0
11290,-250,4,2,69,5,0,0
11370,-250,4,2,69,60,0,0
11371,-90.9090909090909,4,2,69,60,0,0
13605,-76.9230769230769,4,2,69,60,0,0
13923,-76.9230769230769,4,2,69,60,0,0
14243,-76.9230769230769,4,2,69,60,0,0
14403,-90.9090909090909,4,2,69,60,0,0
16158,-76.9230769230769,4,2,69,60,0,0
16476,-76.9230769230769,4,2,69,60,0,0
16477,-90.9090909090909,4,2,69,60,0,0
16796,-90.9090909090909,4,2,69,60,0,0
21584,-83.3333333333333,4,2,69,70,0,0
21902,-83.3333333333333,4,2,69,70,0,0
24056,-83.3333333333333,4,2,69,5,0,0
24136,-83.3333333333333,4,2,69,70,0,0
26610,-83.3333333333333,4,2,69,5,0,0
26689,-83.3333333333333,4,2,69,70,0,0
27009,-83.3333333333333,4,2,69,70,0,0
27248,-83.3333333333333,4,2,69,5,0,0
27328,-83.3333333333333,4,2,69,70,0,0
28604,-83.3333333333333,4,2,69,70,0,0
28764,-83.3333333333333,4,2,69,70,0,0
29482,-83.3333333333333,4,2,69,5,0,0
29562,-83.3333333333333,4,2,69,70,0,0
29721,-83.3333333333333,4,2,69,70,0,0
30679,-83.3333333333333,4,2,69,70,0,0
31795,-83.3333333333333,4,2,69,60,0,0
31796,-100,4,2,69,60,0,0
39056,-100,4,2,69,5,0,0
39136,-100,4,2,69,60,0,0
39455,-100,4,2,69,60,0,0
39696,-100,4,2,69,5,0,0
39776,-100,4,2,69,60,0,0
40015,-100,4,2,69,5,0,0
40095,-100,4,2,69,60,0,0
40334,-100,4,2,69,5,0,0
40414,-100,4,2,69,60,0,0
40653,-100,4,2,69,5,0,0
40733,-100,4,2,69,60,0,0
40971,-100,4,2,69,5,0,0
41051,-100,4,2,69,65,0,0
41290,-100,4,2,69,5,0,0
41370,-100,4,2,69,70,0,0
41610,-100,4,2,69,5,0,0
41689,-100,4,2,69,70,0,0
42008,-100,4,2,69,75,0,0
42009,-83.3333333333333,4,2,69,75,0,0
45839,-83.3333333333333,4,2,69,75,0,0
47115,-83.3333333333333,4,2,69,80,0,0
47434,-83.3333333333333,4,2,69,70,0,0
47594,-100,4,2,69,70,0,0
53498,-100,4,2,69,80,0,0
53499,-71.4285714285714,4,2,69,80,0,1
56371,-62.5,4,2,69,80,0,1
56690,-71.4285714285714,4,2,69,80,0,1
57009,-62.5,4,2,69,80,0,1
57248,-62.5,4,2,69,5,0,1
57328,-62.5,4,2,69,80,0,1
58605,-71.4285714285714,4,2,69,80,0,1
61477,-62.5,4,2,69,80,0,1
61796,-71.4285714285714,4,2,69,80,0,1
62116,-62.5,4,2,69,80,0,1
63711,-71.4285714285714,4,2,69,80,0,1
65785,-71.4285714285714,4,2,69,80,0,1
66584,-62.5,4,2,69,80,0,1
67222,-62.5,4,2,69,80,0,1
68818,-71.4285714285714,4,2,69,80,0,1
69136,-71.4285714285714,4,2,69,80,0,1
70892,-71.4285714285714,4,2,69,80,0,1
71690,-62.5,4,2,69,80,0,1
72327,-62.5,4,2,69,80,0,1
73844,-62.5,4,2,69,5,0,1
73923,-62.5,4,2,69,80,0,1
73924,-76.9230769230769,4,2,69,80,0,1
77993,-76.9230769230769,4,2,69,5,0,1
78072,-76.9230769230769,4,2,69,80,0,1
78312,-76.9230769230769,4,2,69,5,0,1
78392,-76.9230769230769,4,2,69,80,0,1
79349,-76.9230769230769,4,2,69,80,0,1
81583,-76.9230769230769,4,2,69,90,0,1
81584,-100,4,2,69,90,0,0
83657,-100,4,2,69,80,0,0
84136,-100,4,2,69,80,0,0
86688,-100,4,2,69,85,0,0
86690,-76.9230769230769,4,2,69,85,0,0
87168,-76.9230769230769,4,2,69,90,0,0
87487,-76.9230769230769,4,2,69,5,0,0

[Colours]
Combo1 : 255,149,234
Combo2 : 255,201,128
Combo3 : 255,128,150
Combo4 : 255,217,85

[HitObjects]
134,150,520,5,8,0:0:0:0:
170,132,600,1,8,0:0:0:0:
209,134,680,1,8,0:0:0:0:
241,156,760,1,8,0:0:0:0:
259,190,839,1,8,0:0:0:0:
292,212,919,1,8,0:0:0:0:
330,214,999,1,8,0:0:0:0:
364,196,1079,1,8,0:0:0:0:
386,162,1159,6,0,L|382:79,1,80,4|0,1:0|0:0,0:0:0:0:
257,72,1478,1,2,0:0:0:0:
257,72,1637,2,0,L|264:235,1,160,2|2,0:0|0:0,0:0:0:0:
172,256,2116,1,2,0:0:0:0:
139,166,2276,6,0,P|216:171|264:232,1,160,2|2,0:0|0:0,0:0:0:0:
268,328,2755,1,2,0:0:0:0:
363,239,2914,1,2,0:0:0:0:
496,325,3074,1,2,0:0:0:0:
476,40,3393,6,0,B|412:45|412:45|395:35|395:35|307:42,1,155.999992858887,4|0,1:2|0:0,0:0:0:0:
264,92,3712,6,0,L|173:87,1,80,4|0,1:2|0:0,0:0:0:0:
84,160,4031,1,2,0:0:0:0:
84,160,4190,2,0,L|273:170,1,160,2|2,0:0|0:0,0:0:0:0:
297,267,4669,1,2,0:0:0:0:
183,263,4829,1,2,0:0:0:0:
396,216,4989,5,8,0:0:0:0:
262,135,5148,2,0,P|246:95|251:38,1,80,2|0,1:2|0:0,0:0:0:0:
381,142,5468,2,0,P|379:181|364:218,1,80,2|0,1:2|0:0,0:0:0:0:
208,282,5787,1,8,0:0:0:0:
345,302,5946,1,8,0:0:0:0:
482,322,6106,1,8,0:0:0:0:
475,311,6266,5,4,1:2:0:0:
468,300,6585,2,0,L|471:254,3,40,0|8|8|8,1:0|0:0|0:0|0:0,0:0:0:0:
400,220,6904,2,0,L|403:174,3,40,0|8|8|8,1:0|0:0|0:0|0:0,0:0:0:0:
332,140,7223,2,0,L|335:94,3,40,0|8|8|8,1:0|0:0|0:0|0:0,0:0:0:0:
264,185,7542,5,0,1:0:0:0:
236,191,7622,1,8,0:0:0:0:
208,182,7702,1,8,0:0:0:0:
188,160,7781,1,8,0:0:0:0:
182,132,7861,2,0,P|182:109|195:85,3,40,0|8|8|8,1:0|0:0|0:0|0:0,0:0:0:0:
110,63,8180,5,0,1:0:0:0:
74,84,8260,1,8,0:0:0:0:
61,123,8340,1,8,0:0:0:0:
75,161,8420,1,8,0:0:0:0:
112,180,8500,1,0,1:0:0:0:
133,215,8579,1,8,0:0:0:0:
134,256,8659,1,8,0:0:0:0:
114,292,8738,1,8,0:0:0:0:
78,313,8818,5,4,1:2:0:0:
237,352,8978,1,8,0:0:0:0:
237,352,9058,1,8,0:0:0:0:
237,352,9138,1,8,0:0:0:0:
351,232,9297,2,0,P|318:230|285:219,1,51.999997619629,4|0,1:1|0:0,0:0:0:0:
204,173,9457,1,8,0:0:0:0:
202,157,9537,1,2,0:1:0:0:
200,141,9617,1,2,0:1:0:0:
198,125,9696,1,0,0:0:0:0:
196,109,9776,1,2,0:1:0:0:
273,32,9936,6,0,B|229:4|229:4|171:4,1,103.999995239258,4|8,1:2|0:0,0:0:0:0:
100,29,10175,1,8,0:0:0:0:
105,59,10255,1,8,0:0:0:0:
110,89,10335,1,8,0:0:0:0:
115,119,10414,1,4,1:2:0:0:
373,91,10734,1,4,1:2:0:0:
237,170,11053,6,0,P|230:198|228:225,1,48,2|0,0:0|0:0,0:0:0:0:
200,299,11372,6,0,P|198:220|144:130,1,176.000005371094,4|8,1:2|0:0,0:0:0:0:
57,88,11851,1,2,0:0:0:0:
159,15,12010,1,2,1:2:0:0:
159,15,12170,2,0,L|249:22,1,88.000002685547,2|10,1:2|0:0,0:0:0:0:
364,125,12489,2,0,L|274:132,1,88.000002685547,2|0,1:2|0:0,0:0:0:0:
196,201,12808,1,2,1:2:0:0:
275,270,12968,2,0,L|362:263,1,88.000002685547,10|0,0:2|0:0,0:0:0:0:
444,195,13287,1,2,1:2:0:0:
506,279,13446,1,0,1:0:0:0:
497,100,13606,6,0,P|454:85|390:99,1,103.999995239258,10|0,0:2|0:0,0:0:0:0:
275,270,13925,2,0,B|297:166|234:172|256:64,1,207.999990478516,2|8,1:2|0:0,0:0:0:0:
172,1,14404,5,2,0:0:0:0:
93,71,14563,1,2,1:2:0:0:
93,71,14723,2,0,L|98:169,1,88.000002685547,2|8,1:2|0:0,0:0:0:0:
190,209,15042,2,0,L|185:307,1,88.000002685547,2|0,1:2|0:0,0:0:0:0:
275,353,15361,1,2,1:2:0:0:
345,274,15521,1,10,0:2:0:0:
448,295,15680,1,2,0:0:0:0:
312,175,15840,5,2,1:2:0:0:
312,175,16000,1,0,1:0:0:0:
475,104,16159,2,0,L|348:92,1,103.999995239258,10|0,0:0|0:0,0:0:0:0:
203,0,16478,6,0,P|265:2|278:102,1,176.000005371094,6|10,1:2|0:2,0:0:0:0:
188,149,16957,1,2,0:2:0:0:
278,204,17117,2,0,L|379:200,1,88.000002685547,2|0,1:2|1:0,0:0:0:0:
423,289,17436,1,10,0:2:0:0:
334,345,17595,2,0,L|233:341,1,88.000002685547,2|0,1:2|0:0,0:0:0:0:
166,271,17914,2,0,L|65:275,1,88.000002685547,2|8,1:2|0:0,0:0:0:0:
0,204,18234,1,2,0:0:0:0:
40,107,18393,1,2,1:2:0:0:
40,107,18553,1,0,1:0:0:0:
145,192,18712,2,0,L|145:104,1,88.000002685547,10|0,0:2|0:0,0:0:0:0:
259,24,19031,6,0,B|232:56|232:56|232:199,1,176.000005371094,2|8,1:2|0:0,0:0:0:0:
308,262,19510,1,2,0:0:0:0:
407,224,19670,1,2,1:2:0:0:
407,224,19829,2,0,P|466:233|497:258,1,88.000002685547,2|8,1:2|0:0,0:0:0:0:
421,330,20148,2,0,L|322:331,1,88.000002685547,2|0,1:2|0:0,0:0:0:0:
225,243,20468,2,0,L|324:244,1,88.000002685547,2|8,1:2|0:0,0:0:0:0:
365,151,20787,1,2,1:2:0:0:
287,79,20946,1,2,1:2:0:0:
132,205,21106,5,8,0:0:0:0:
50,111,21266,1,8,0:0:0:0:
128,16,21425,1,8,0:0:0:0:
225,243,21584,6,0,P|173:218|73:291,1,191.999994140625,4|8,1:2|0:0,0:0:0:0:
5,195,22063,1,2,0:2:0:0:
108,143,22223,1,2,1:2:0:0:
108,143,22383,2,0,P|123:91|118:41,1,95.9999970703126,2|10,1:2|0:2,0:0:0:0:
229,12,22702,2,0,P|226:59|241:105,1,95.9999970703126,2|0,1:2|0:0,0:0:0:0:
333,174,23021,1,2,1:2:0:0:
434,121,23180,2,0,L|441:229,1,95.9999970703126,10|0,0:2|0:0,0:0:0:0:
452,332,23500,1,2,1:2:0:0:
452,332,23659,1,0,1:0:0:0:
357,264,23819,2,0,P|289:260|217:314,1,143.999995605469,10|0,0:2|0:0,0:0:0:0:
197,374,24137,6,0,L|190:264,1,95.9999970703126,2|0,1:2|1:0,0:0:0:0:
96,211,24457,1,10,0:2:0:0:
96,211,24617,1,2,0:2:0:0:
175,127,24776,2,0,L|280:131,1,95.9999970703126,2|0,1:2|1:0,0:0:0:0:
357,207,25095,1,10,0:2:0:0:
482,131,25255,6,0,L|479:32,1,95.9999970703126,2|0,1:2|0:0,0:0:0:0:
366,14,25574,2,0,L|363:113,1,95.9999970703126,2|8,1:2|0:0,0:0:0:0:
257,233,25893,1,2,0:2:0:0:
354,294,26053,1,2,1:2:0:0:
192,350,26212,5,0,1:0:0:0:
192,350,26292,1,0,1:0:0:0:
192,350,26372,2,0,B|186:290|186:290|173:271|173:271|164:175,1,143.999995605469,10|0,0:2|0:0,0:0:0:0:
80,157,26691,2,0,L|89:260,1,95.9999970703126,6|0,1:2|0:0,0:0:0:0:
269,296,27010,6,0,P|284:238|256:159,1,143.999995605469,10|0,0:0|0:0,0:0:0:0:
192,111,27329,1,2,1:2:0:0:
192,111,27489,1,2,1:2:0:0:
301,28,27648,6,0,L|410:31,1,95.9999970703126,10|0,0:2|0:0,0:0:0:0:
501,139,27968,2,0,P|453:126|389:208,1,143.999995605469,2|0,1:2|0:0,0:0:0:0:
371,269,28287,6,0,L|358:167,1,95.9999970703126,10|0,0:0|0:0,0:0:0:0:
299,342,28606,1,2,1:2:0:0:
181,224,28766,1,10,0:2:0:0:
181,224,28845,1,8,0:0:0:0:
181,224,28925,1,8,0:0:0:0:
164,189,29005,1,8,0:0:0:0:
166,150,29085,1,10,0:0:0:0:
187,117,29164,1,8,0:0:0:0:
222,100,29244,6,0,L|369:111,1,143.999995605469,6|0,1:2|0:0,0:0:0:0:
448,126,29563,2,0,P|392:129|363:164,1,95.9999970703126,10|10,0:0|0:2,0:0:0:0:
344,244,29803,1,8,0:0:0:0:
344,244,29883,1,2,0:1:0:0:
227,198,30042,1,2,0:1:0:0:
158,303,30202,1,2,0:1:0:0:
84,106,30361,6,0,B|132:126|132:126|277:111,1,191.999994140625,6|2,1:2|1:2,0:0:0:0:
361,44,30760,1,0,1:0:0:0:
361,44,30840,2,0,L|370:167,1,95.9999970703126,8|8,0:0|0:0,0:0:0:0:
382,239,31079,1,8,0:0:0:0:
382,239,31159,1,8,0:0:0:0:
257,214,31319,1,2,0:1:0:0:
170,353,31478,1,2,0:1:0:0:
45,378,31638,1,2,0:1:0:0:
0,205,31797,6,0,P|44:188|76:149,1,80,6|0,1:2|1:0,0:0:0:0:
69,68,32116,1,2,0:2:0:0:
180,0,32276,1,2,1:2:0:0:
180,0,32356,1,0,1:0:0:0:
180,0,32436,2,0,L|190:167,1,160,10|0,0:0|1:0,0:0:0:0:
197,255,32914,1,0,1:0:0:0:
421,57,33234,5,10,0:0:0:0:
421,57,33393,2,0,L|418:146,1,80,2|2,1:2|1:2,0:0:0:0:
257,103,33712,2,0,L|260:192,1,80,10|0,0:0|0:0,0:0:0:0:
500,261,34031,5,2,1:2:0:0:
374,265,34191,1,2,0:0:0:0:
317,378,34351,1,4,1:2:0:0:
143,345,34510,5,2,1:2:0:0:
256,262,34669,1,2,0:2:0:0:
165,171,34829,1,2,1:2:0:0:
165,171,34909,1,0,1:0:0:0:
165,171,34989,1,10,0:2:0:0:
319,113,35148,5,2,0:2:0:0:
319,113,35308,1,2,1:2:0:0:
379,38,35468,1,2,1:2:0:0:
245,2,35627,2,0,L|138:9,1,80,2|10,0:2|0:2,0:0:0:0:
59,86,35946,6,0,P|117:94|147:117,1,80,2|0,1:2|1:0,0:0:0:0:
200,175,36266,1,10,0:2:0:0:
60,304,36425,1,10,0:2:0:0:
60,304,36585,2,0,L|155:307,1,80,10|0,0:2|0:0,0:0:0:0:
331,370,36904,5,4,1:0:0:0:
331,370,37063,2,0,P|348:298|305:210,1,160,0|2,1:0|1:2,0:0:0:0:
248,185,37462,1,0,1:0:0:0:
248,185,37542,2,0,P|231:113|274:25,1,160,12|0,0:0|1:0,0:0:0:0:
353,3,38021,1,2,1:2:0:0:
428,61,38180,1,2,0:2:0:0:
403,154,38340,2,0,L|410:247,1,80,8|0,0:0|1:0,0:0:0:0:
482,295,38659,1,2,1:2:0:0:
328,361,38819,6,0,P|284:330|203:332,1,120,10|0,0:2|0:0,0:0:0:0:
146,359,39138,1,0,1:0:0:0:
44,277,39297,1,0,0:0:0:0:
186,212,39457,6,0,P|202:161|174:98,1,120,4|0,1:2|0:0,0:0:0:0:
137,37,39776,2,0,P|173:76|241:83,1,120
334,70,40095,6,0,P|281:81|241:137,1,120,10|0,0:2|0:0,0:0:0:0:
86,164,40414,2,0,P|122:203|190:210,1,120,2|0,1:2|0:0,0:0:0:0:
292,332,40734,6,0,P|308:280|280:218,1,120,6|0,1:2|0:0,0:0:0:0:
376,109,41052,2,0,P|359:160|388:222,1,120,4|0,1:2|0:0,0:0:0:0:
280,345,41372,6,0,P|243:305|175:298,1,120,4|0,1:0|0:0,0:0:0:0:
86,325,41691,1,10,0:2:0:0:
32,170,41851,5,2,1:2:0:0:
32,170,41930,1,0,1:0:0:0:
32,170,42010,2,0,P|83:168|123:144,1,95.9999970703126,4|0,1:2|1:0,0:0:0:0:
185,21,42329,1,10,0:2:0:0:
266,88,42489,1,0,0:0:0:0:
362,45,42648,1,2,1:2:0:0:
362,45,42808,1,0,1:0:0:0:
425,179,42968,2,0,P|369:190|340:220,1,95.9999970703126,10|0,0:2|0:0,0:0:0:0:
262,361,43287,5,2,1:2:0:0:
262,361,43446,2,0,L|257:265,1,95.9999970703126,2|8,1:2|0:0,0:0:0:0:
143,154,43765,2,0,P|192:184|303:107,1,191.999994140625,2|0,1:2|1:0,0:0:0:0:
214,1,44244,6,0,L|214:97,1,95.9999970703126,10|0,0:2|0:0,0:0:0:0:
323,22,44563,1,2,1:2:0:0:
405,156,44723,2,0,L|404:251,1,95.9999970703126,2|8,1:2|0:0,0:0:0:0:
260,190,45042,1,2,0:2:0:0:
188,335,45202,1,2,1:2:0:0:
82,272,45361,2,0,P|61:194|65:166,1,95.9999970703126,2|8,1:2|0:0,0:0:0:0:
97,64,45680,1,2,1:2:0:0:
260,190,45840,6,0,L|376:193,1,95.9999970703126,8|0,0:0|1:0,0:0:0:0:
425,240,46079,1,0,1:0:0:0:
425,240,46159,1,8,0:0:0:0:
487,81,46319,1,0,1:0:0:0:
487,81,46398,1,0,1:0:0:0:
487,81,46478,2,0,P|441:43|387:44,1,95.9999970703126,12|8,0:0|0:0,0:0:0:0:
330,58,46718,1,8,0:0:0:0:
330,58,46797,1,0,1:0:0:0:
294,278,46957,5,8,0:0:0:0:
294,278,47037,1,8,0:0:0:0:
294,278,47117,2,0,P|217:309|133:248,1,191.999994140625,4|2,1:2|0:2,0:0:0:0:
89,124,47595,1,0,1:0:0:0:
89,124,47675,1,0,1:0:0:0:
89,124,47755,2,0,P|163:131|250:89,1,160,10|4,0:2|1:2,0:0:0:0:
303,25,48234,1,0,0:0:0:0:
394,172,48393,5,4,1:0:0:0:
308,216,48553,1,0,0:0:0:0:
397,301,48712,1,2,0:2:0:0:
256,369,48872,1,0,1:2:0:0:
256,369,48952,1,0,1:0:0:0:
256,369,49031,2,0,L|248:283,1,80,10|8,0:2|0:0,0:0:0:0:
190,241,49271,1,8,0:0:0:0:
190,241,49351,1,10,0:2:0:0:
305,133,49510,5,10,0:2:0:0:
305,133,49590,1,8,0:0:0:0:
305,133,49670,1,6,1:2:0:0:
203,92,49829,1,2,1:2:0:0:
173,197,49989,1,2,1:2:0:0:
71,156,50148,5,10,0:2:0:0:
71,156,50228,1,8,0:0:0:0:
71,156,50308,1,0,1:0:0:0:
102,313,50468,1,2,1:2:0:0:
251,176,50627,1,2,1:2:0:0:
294,363,50787,1,2,1:2:0:0:
480,204,50946,5,10,0:0:0:0:
491,207,51106,1,8,0:0:0:0:
408,74,51266,5,10,0:0:0:0:
418,69,51424,1,8,0:0:0:0:
269,20,51584,5,10,0:0:0:0:
273,11,51744,1,8,0:0:0:0:
127,67,51903,5,10,0:0:0:0:
125,58,52063,1,8,0:0:0:0:
98,197,52223,6,0,P|138:202|184:226,1,80,8|0,0:0|1:0,0:0:0:0:
295,295,52542,2,0,P|255:300|209:324,1,80,8|0,0:0|1:0,0:0:0:0:
220,120,52861,5,8,0:0:0:0:
264,92,52941,1,8,0:0:0:0:
315,98,53021,1,8,0:0:0:0:
350,136,53100,1,8,0:0:0:0:
353,187,53180,1,2,1:2:0:0:
350,202,53260,1,8,0:0:0:0:
347,217,53340,1,8,0:0:0:0:
345,232,53420,1,8,0:0:0:0:
343,247,53499,6,0,B|255:254|255:254|209:238|209:238|110:247,1,223.999993164063,6|8,1:2|0:0,0:0:0:0:
64,346,53978,2,0,P|96:286|11:160,1,223.999993164063,2|2,1:2|1:2,0:0:0:0:
0,49,54457,2,0,P|44:83|110:85,1,111.999996582031,10|2,0:2|0:2,0:0:0:0:
290,36,54776,5,2,1:2:0:0:
290,36,54936,2,0,L|284:163,1,111.999996582031,2|8,1:2|0:0,0:0:0:0:
230,281,55255,2,0,P|245:212|388:232,1,223.999993164063,2|2,1:2|1:2,0:0:0:0:
454,350,55734,1,10,0:2:0:0:
501,234,55893,1,2,0:0:0:0:
315,375,56052,6,0,L|309:225,1,111.999996582031,2|0,1:2|1:0,0:0:0:0:
222,183,56371,1,14,0:2:0:0:
195,309,56531,1,2,0:0:0:0:
195,309,56691,2,0,L|201:159,1,111.999996582031,2|0,1:2|1:0,0:0:0:0:
394,134,57010,2,0,B|437:180|437:180|412:314,1,192,14|0,0:2|0:0,0:0:0:0:
330,357,57329,5,4,1:0:0:0:
315,352,57489,1,2,1:2:0:0:
270,187,57648,5,10,0:2:0:0:
255,182,57808,1,10,0:2:0:0:
418,56,57968,6,0,P|455:124|458:191,1,128,2|0,1:2|1:0,0:0:0:0:
347,363,58287,1,10,0:0:0:0:
295,358,58367,1,8,0:0:0:0:
244,353,58446,1,8,0:0:0:0:
192,348,58526,1,8,0:0:0:0:
140,343,58606,6,0,B|134:282|134:282|156:237|156:237|144:104,1,223.999993164063,6|8,1:2|0:0,0:0:0:0:
222,46,59085,2,0,L|244:300,1,223.999993164063,2|2,1:2|1:2,0:0:0:0:
371,361,59563,1,10,0:2:0:0:
460,290,59723,1,2,0:2:0:0:
293,211,59883,5,2,1:2:0:0:
293,211,60042,2,0,P|285:153|308:96,1,111.999996582031,2|8,1:2|0:0,0:0:0:0:
379,279,60361,2,0,P|321:319|190:252,1,223.999993164063,2|2,1:2|1:2,0:0:0:0:
91,179,60840,2,0,L|100:308,1,111.999996582031,10|0,0:2|0:0,0:0:0:0:
276,144,61159,5,2,1:2:0:0:
276,144,61318,1,0,1:0:0:0:
188,28,61478,2,0,L|180:176,1,128,14|0,0:2|0:0,0:0:0:0:
98,290,61797,2,0,L|90:142,1,111.999996582031,2|0,1:2|0:0,0:0:0:0:
271,58,62116,1,14,0:0:0:0:
383,184,62276,1,2,0:0:0:0:
280,323,62436,5,4,1:0:0:0:
198,257,62595,1,10,0:2:0:0:
198,257,62675,1,8,0:0:0:0:
198,257,62755,1,10,0:2:0:0:
301,218,62914,1,10,0:2:0:0:
301,218,62994,1,8,0:0:0:0:
301,218,63074,1,8,0:0:0:0:
259,109,63233,1,8,0:0:0:0:
259,109,63313,1,8,0:0:0:0:
259,109,63393,1,8,0:0:0:0:
362,70,63552,5,0,1:0:0:0:
362,70,63632,1,0,1:0:0:0:
362,70,63712,2,0,B|367:133|367:133|399:175|399:175|408:282,1,223.999993164063,6|8,1:2|0:0,0:0:0:0:
307,374,64191,2,0,P|247:330|101:348,1,223.999993164063,2|0,1:2|1:0,0:0:0:0:
10,258,64669,2,0,P|66:251|118:209,1,111.999996582031,10|0,0:2|0:2,0:0:0:0:
166,27,64989,5,2,1:2:0:0:
246,92,65148,1,2,1:2:0:0:
362,27,65308,1,10,0:2:0:0:
507,154,65468,2,0,P|438:139|363:256,1,223.999993164063,2|0,1:2|1:0,0:0:0:0:
512,373,65946,1,10,0:2:0:0:
455,235,66106,1,2,0:2:0:0:
368,364,66265,6,0,L|361:242,1,111.999996582031,2|0,1:2|1:0,0:0:0:0:
237,70,66584,1,14,0:2:0:0:
247,245,66744,1,0,0:0:0:0:
247,245,66903,2,0,L|238:71,1,128,2|0,1:2|1:0,0:0:0:0:
115,157,67222,2,0,L|106:331,1,128,14|2,0:2|0:2,0:0:0:0:
20,373,67542,5,6,1:2:0:0:
7,375,67702,1,2,1:2:0:0:
25,249,67861,5,10,0:2:0:0:
12,251,68021,1,2,0:2:0:0:
30,125,68180,5,10,0:2:0:0:
69,103,68260,1,8,0:0:0:0:
113,103,68340,1,8,0:0:0:0:
151,125,68420,1,8,0:0:0:0:
173,163,68500,5,2,0:1:0:0:
183,179,68579,1,2,0:1:0:0:
198,190,68659,1,2,0:1:0:0:
216,196,68739,1,2,0:1:0:0:
235,196,68818,6,0,P|299:174|266:34,1,223.999993164063,6|8,1:2|0:0,0:0:0:0:
25,109,69297,2,0,B|133:157|130:71|242:112,1,223.999993164063,2|2,1:2|1:2,0:0:0:0:
330,275,69776,2,0,P|257:278|210:308,1,111.999996582031,10|0,0:2|0:0,0:0:0:0:
86,384,70095,5,2,1:2:0:0:
2,252,70255,1,2,1:2:0:0:
126,159,70414,1,10,0:2:0:0:
33,64,70573,2,0,P|67:9|202:61,1,223.999993164063,2|2,1:2|1:2,0:0:0:0:
244,206,71053,2,0,P|257:142|284:102,1,111.999996582031,10|2,0:2|0:2,0:0:0:0:
379,197,71372,5,2,1:2:0:0:
379,197,71531,1,0,1:0:0:0:
410,60,71691,2,0,L|402:202,1,128,14|0,0:2|0:0,0:0:0:0:
506,334,72010,2,0,L|498:192,1,128,2|0,1:2|0:0,0:0:0:0:
254,245,72329,2,0,P|179:252|122:212,1,128,14|0,0:2|0:0,0:0:0:0:
50,49,72648,5,2,0:1:0:0:
50,49,72728,1,2,0:1:0:0:
50,49,72808,1,2,0:1:0:0:
167,135,72968,1,2,0:1:0:0:
167,135,73048,1,2,0:1:0:0:
167,135,73128,1,2,0:1:0:0:
265,84,73287,1,0,1:0:0:0:
265,84,73367,1,0,1:0:0:0:
265,84,73447,1,0,1:0:0:0:
382,170,73606,6,0,P|317:172|268:284,1,192,14|0,0:0|0:0,0:0:0:0:
248,377,73924,6,0,P|245:295|158:194,1,207.999990478516,6|8,1:2|0:0,0:0:0:0:
44,158,74404,1,0,1:0:0:0:
281,14,74723,1,2,1:2:0:0:
348,89,74883,2,0,L|339:213,1,103.999995239258,10|2,0:2|0:0,0:0:0:0:
142,253,75201,6,0,L|259:260,1,103.999995239258,2|0,1:2|1:2,0:0:0:0:
374,365,75521,2,0,L|491:358,1,103.999995239258,10|0,0:2|0:0,0:0:0:0:
444,198,75840,2,0,L|327:191,1,103.999995239258,2|0,1:2|1:0,0:0:0:0:
253,119,76160,2,0,L|370:112,1,103.999995239258,10|0,0:2|0:0,0:0:0:0:
318,267,76478,6,0,B|179:248|179:248|95:280,1,207.999990478516,6|10,1:2|0:2,0:0:0:0:
26,366,76957,2,0,L|21:246,1,103.999995239258,2|0,0:2|1:0,0:0:0:0:
16,126,77276,1,2,0:2:0:0:
204,281,77436,2,0,L|209:161,1,103.999995239258,10|0,0:2|0:0,0:0:0:0:
143,16,77755,6,0,P|192:80|275:57,1,155.999992858887,6|0,1:2|0:0,0:0:0:0:
342,18,78074,2,0,P|396:12|456:90,1,155.999992858887,10|0,0:2|0:0,0:0:0:0:
456,166,78393,1,2,1:2:0:0:
270,219,78552,1,8,0:0:0:0:
249,243,78632,1,8,0:0:0:0:
242,274,78712,1,10,0:2:0:0:
252,304,78791,1,8,0:0:0:0:
275,325,78871,1,8,0:0:0:0:
305,331,78951,1,8,0:0:0:0:
335,321,79031,6,0,B|365:310|376:280|376:280|329:217|364:136,1,207.999990478516,6|10,1:2|0:2,0:0:0:0:
444,38,79510,1,2,0:2:0:0:
312,0,79670,2,0,L|184:7,1,103.999995239258,2|2,1:2|1:2,0:0:0:0:
258,134,79989,2,0,L|361:139,1,103.999995239258,10|0,0:2|1:0,0:0:0:0:
312,268,80308,6,0,L|208:273,1,103.999995239258,10|0,0:2|1:0,0:0:0:0:
148,326,80547,1,0,1:0:0:0:
148,326,80627,2,0,L|156:385,3,51.999997619629,10|0|0|0,0:2|1:0|1:0|1:0,0:0:0:0:
67,280,80946,2,0,L|73:228,1,51.999997619629,2|0,1:2|1:0,0:0:0:0:
148,180,81106,2,0,L|141:128,1,51.999997619629,0|0,1:0|1:0,0:0:0:0:
34,63,81266,1,12,0:0:0:0:
327,17,81584,5,6,1:2:0:0:
268,311,82861,5,10,0:2:0:0:
168,187,83021,1,10,0:2:0:0:
111,336,83180,1,10,0:2:0:0:
288,305,83340,2,0,P|323:254|299:152,1,160,2|0,1:2|1:0,0:0:0:0:
246,107,83739,1,0,1:0:0:0:
246,107,83819,1,12,0:0:0:0:
503,232,84137,5,6,1:2:0:0:
397,307,84297,1,8,0:0:0:0:
397,307,84377,1,8,0:0:0:0:
397,307,84457,1,8,0:0:0:0:
288,242,84617,2,0,P|248:234|186:254,1,80,4|8,1:0|0:0,0:0:0:0:
145,284,84856,1,8,0:0:0:0:
133,282,84935,1,2,0:1:0:0:
121,281,85016,1,0,0:0:0:0:
109,280,85095,1,2,0:1:0:0:
30,166,85255,1,6,0:1:0:0:
117,64,85414,5,8,0:0:0:0:
128,67,85574,1,8,0:0:0:0:
194,169,85734,5,8,0:0:0:0:
205,166,85894,1,8,0:0:0:0:
290,67,86053,5,8,1:2:0:0:
309,68,86133,1,0,1:0:0:0:
328,70,86212,1,0,1:0:0:0:
347,72,86292,1,0,1:0:0:0:
366,74,86372,2,0,L|419:79,3,40,8|0|0|0,1:2|1:0|1:0|1:0,0:0:0:0:
307,154,86691,6,0,L|302:222,1,51.999997619629,2|0,0:1|0:0,0:0:0:0:
383,244,86851,2,0,L|386:302,1,51.999997619629,2|0,0:1|0:0,0:0:0:0:
306,333,87010,2,0,L|302:384,1,51.999997619629,2|0,0:1|0:0,0:0:0:0:
184,335,87170,6,0,P|149:276|203:145,1,207.999990478516,4|0,1:0|0:0,0:0:0:0:
