osu file format v14

[General]
AudioFilename: audio.mp3
AudioLeadIn: 0
PreviewTime: 52861
Countdown: 0
SampleSet: Soft
StackLeniency: 0.5
Mode: 0
LetterboxInBreaks: 0
WidescreenStoryboard: 1

[Editor]
Bookmarks: 1159,11372,21585,31797,42010,52223,53500,81585,84138,87648
DistanceSpacing: 0.9
BeatDivisor: 4
GridSize: 4
TimelineZoom: 2.2

[Metadata]
Title:COOLEST (TV Size)
TitleUnicode:COOLEST (TV Size)
Artist:CustomiZ
ArtistUnicode:カスタマイZ
Creator:Crissa
Version:COOL
Source:坂本ですが?
Tags:Sakamoto desu ga? anime japanese opening op customi-z [-crissaegrim-]
BeatmapID:1967178
BeatmapSetID:941964

[Difficulty]
HPDrainRate:5
CircleSize:3.4
OverallDifficulty:7
ApproachRate:7.6
SliderMultiplier:1.4
SliderTickRate:1

[Events]
//Background and Video events
0,0,"HARDCOOL.jpg",0,0
Video,0,"op1.avi"
//Break Periods
//Storyboard Layer 0 (Background)
//Storyboard Layer 1 (Fail)
//Storyboard Layer 2 (Pass)
//Storyboard Layer 3 (Foreground)
//Storyboard Sound Samples

[TimingPoints]
1159,319.148936170213,4,2,69,80,1,0
1159,-100,4,2,69,80,0,0
3393,-100,4,2,69,80,0,0
3632,-100,4,2,69,5,0,0
3712,-100,4,2,69,80,0,0
4988,-100,4,2,69,60,0,0
7541,-100,4,2,69,70,0,0
7621,-100,4,2,69,40,0,0
7861,-100,4,2,69,70,0,0
7940,-100,4,2,69,40,0,0
8180,-100,4,2,69,70,0,0
8260,-100,4,2,69,40,0,0
8499,-100,4,2,69,70,0,0
8579,-100,4,2,69,40,0,0
8818,-100,4,2,69,70,0,0
10653,-100,4,2,69,5,0,0
10733,-100,4,2,69,70,0,0
11371,-111.111111111111,4,2,69,60,0,0
21584,-100,4,2,69,70,0,0
23738,-100,4,2,69,5,0,0
23817,-100,4,2,69,70,0,0
26611,-100,4,2,69,5,0,0
26690,-100,4,2,69,70,0,0
27249,-100,4,2,69,5,0,0
27328,-100,4,2,69,70,0,0
27887,-100,4,2,69,5,0,0
27966,-100,4,2,69,70,0,0
28526,-100,4,2,69,5,0,0
28605,-100,4,2,69,70,0,0
29483,-100,4,2,69,5,0,0
29562,-100,4,2,69,70,0,0
31796,-111.111111111111,4,2,69,60,0,0
41052,-100,4,2,69,65,0,0
41371,-100,4,2,69,70,0,0
42009,-100,4,2,69,75,0,0
47116,-100,4,2,69,80,0,0
47435,-100,4,2,69,70,0,0
53499,-100,4,2,69,80,0,1
57248,-100,4,2,69,5,0,1
57328,-100,4,2,69,80,0,1
73844,-100,4,2,69,5,0,1
73924,-100,4,2,69,80,0,1
81584,-100,4,2,69,90,0,0
83657,-100,4,2,69,80,0,0
86688,-100,4,2,69,85,0,0
87168,-100,4,2,69,90,0,0
87487,-100,4,2,69,5,0,0

[Colours]
Combo1 : 187,153,158
Combo2 : 237,82,136
Combo3 : 150,105,106
Combo4 : 252,67,187

[HitObjects]
187,248,521,6,0,L|123:253,3,35,8|8|8|8,0:0|0:0|0:0|0:0,0:0:0:0:
118,276,840,2,0,L|54:270,3,35,8|8|8|8,0:0|0:0|0:0|0:0,0:0:0:0:
49,248,1159,5,4,1:0:0:0:
220,102,3393,2,0,L|327:93,1,105,4|0,1:2|0:0,0:0:0:0:
362,111,3712,1,4,1:2:0:0:
292,327,4989,5,8,0:0:0:0:
332,253,5148,2,0,P|292:244|251:254,1,70,2|0,1:2|0:0,0:0:0:0:
194,297,5468,2,0,P|154:306|113:296,1,70,2|0,1:2|0:0,0:0:0:0:
49,266,5787,1,8,0:0:0:0:
39,182,5946,1,8,0:0:0:0:
30,98,6106,1,8,0:0:0:0:
105,24,6266,5,4,1:2:0:0:
193,167,6584,2,0,P|224:154|274:153,1,70,8|0,0:0|1:0,0:0:0:0:
298,76,6903,2,0,P|324:96|350:139,1,70,8|0,0:0|1:0,0:0:0:0:
429,121,7222,2,0,P|424:154|400:198,1,70,8|0,0:0|1:0,0:0:0:0:
460,278,7542,6,0,P|445:284|422:292,3,35,0|8|8|8,1:0|0:0|0:0|0:0,0:0:0:0:
401,323,7861,2,0,P|384:321|361:316,3,35,0|8|8|8,1:0|0:0|0:0|0:0,0:0:0:0:
327,332,8180,2,0,P|313:322|295:306,3,35,0|8|8|8,1:0|0:0|0:0|0:0,0:0:0:0:
258,302,8500,2,0,P|251:287|243:264,3,35,0|8|8|8,1:0|0:0|0:0|0:0,0:0:0:0:
210,245,8818,5,4,1:2:0:0:
210,161,8978,1,8,0:0:0:0:
210,161,9058,1,8,0:0:0:0:
210,161,9138,1,8,0:0:0:0:
200,66,9297,2,0,L|104:57,1,70,4|8,1:1|0:0,0:0:0:0:
96,85,9537,1,2,0:1:0:0:
96,85,9617,1,2,0:1:0:0:
41,148,9776,1,2,0:1:0:0:
141,180,9936,6,0,L|147:251,1,70,4|8,1:2|0:0,0:0:0:0:
120,282,10175,1,8,0:0:0:0:
120,282,10255,1,8,0:0:0:0:
190,327,10414,2,0,P|235:301|305:316,1,105,4|0,1:2|0:0,0:0:0:0:
320,332,10734,1,4,1:2:0:0:
499,57,11372,6,0,B|474:76|474:76|358:66,1,125.999996154785,4|8,1:2|0:0,0:0:0:0:
310,23,11851,1,2,0:0:0:0:
242,68,12010,1,2,1:2:0:0:
242,68,12170,2,0,L|249:153,1,62.9999980773926,2|10,1:2|0:0,0:0:0:0:
316,174,12489,2,0,L|309:259,1,62.9999980773926,2|0,1:2|0:0,0:0:0:0:
340,329,12808,1,2,1:2:0:0:
278,383,12968,1,10,0:2:0:0:
118,333,13287,1,2,1:2:0:0:
118,333,13446,1,0,1:0:0:0:
57,277,13606,6,0,B|48:242|48:242|56:197,1,62.9999980773926,10|0,0:2|0:0,0:0:0:0:
104,151,13925,2,0,P|146:165|222:108,1,125.999996154785,2|8,1:2|0:0,0:0:0:0:
213,45,14404,1,2,0:0:0:0:
293,28,14563,1,2,1:2:0:0:
293,28,14723,2,0,L|379:26,1,62.9999980773926,2|8,1:2|0:0,0:0:0:0:
404,92,15042,2,0,L|490:90,1,62.9999980773926,2|0,1:2|0:0,0:0:0:0:
508,161,15361,1,2,1:2:0:0:
450,219,15521,1,10,0:2:0:0:
487,291,15680,1,2,0:0:0:0:
418,362,15840,6,0,B|396:352|396:352|328:356,1,62.9999980773926,2|0,1:2|1:0,0:0:0:0:
298,288,16159,2,0,B|276:298|276:298|208:294,1,62.9999980773926,10|0,0:0|0:0,0:0:0:0:
133,317,16478,6,0,P|137:259|192:199,1,125.999996154785,6|10,1:2|0:2,0:0:0:0:
260,201,16957,1,2,0:2:0:0:
309,135,17117,2,0,L|303:47,1,62.9999980773926,2|0,1:2|1:0,0:0:0:0:
366,17,17436,1,10,0:2:0:0:
430,66,17595,2,0,L|434:135,1,62.9999980773926,2|0,1:2|0:0,0:0:0:0:
375,187,17914,2,0,L|379:256,1,62.9999980773926,2|8,1:2|0:0,0:0:0:0:
333,319,18234,1,2,0:0:0:0:
256,291,18393,1,2,1:2:0:0:
256,291,18553,1,0,1:0:0:0:
282,213,18712,2,0,L|277:143,1,62.9999980773926,10|0,0:2|0:0,0:0:0:0:
173,121,19031,6,0,L|168:190,2,62.9999980773926,2|0|8,1:2|0:2|0:0,0:0:0:0:
129,51,19510,1,2,0:0:0:0:
47,63,19670,1,2,1:2:0:0:
47,63,19829,2,0,P|30:111|33:139,1,62.9999980773926,2|8,1:2|0:0,0:0:0:0:
79,187,20148,2,0,P|93:218|95:253,1,62.9999980773926,2|0,1:2|0:0,0:0:0:0:
148,308,20468,2,0,P|168:279|197:260,1,62.9999980773926,2|8,1:2|0:0,0:0:0:0:
272,260,20787,1,2,1:2:0:0:
303,184,20946,1,2,1:2:0:0:
410,206,21106,5,8,0:0:0:0:
396,123,21265,1,8,0:0:0:0:
382,40,21425,1,8,0:0:0:0:
283,78,21585,6,0,B|247:74|247:74|224:56|224:56|136:49,1,140,4|8,1:2|0:0,0:0:0:0:
77,92,22063,1,2,0:2:0:0:
133,154,22223,1,2,1:2:0:0:
133,154,22383,2,0,L|139:244,1,70,2|8,1:2|0:0,0:0:0:0:
216,252,22702,2,0,L|210:342,1,70,2|0,1:2|0:0,0:0:0:0:
284,363,23021,1,2,1:2:0:0:
340,300,23180,2,0,L|335:230,1,70,10|0,0:2|0:0,0:0:0:0:
318,147,23500,2,0,P|377:158|415:205,1,105,2|0,1:2|0:0,0:0:0:0:
419,214,23819,2,0,L|430:134,1,70,10|0,0:2|0:0,0:0:0:0:
496,64,24138,6,0,P|461:63|420:49,1,70,2|0,1:2|1:0,0:0:0:0:
355,8,24457,1,10,0:2:0:0:
295,67,24617,1,2,0:2:0:0:
221,26,24776,2,0,P|187:15|152:14,1,70,2|0,1:2|1:0,0:0:0:0:
74,45,25095,1,10,0:2:0:0:
117,117,25255,2,0,L|111:195,1,70,2|0,1:2|0:0,0:0:0:0:
42,234,25574,2,0,L|48:312,1,70,2|8,1:2|0:0,0:0:0:0:
115,353,25893,1,2,0:2:0:0:
174,292,26053,1,2,1:2:0:0:
174,292,26212,1,0,1:0:0:0:
267,340,26372,6,0,P|316:348|385:312,1,105,10|0,0:2|0:0,0:0:0:0:
393,305,26691,1,6,1:2:0:0:
214,193,27010,2,0,P|198:134|211:81,1,105,10|0,0:0|0:0,0:0:0:0:
222,60,27329,1,2,1:2:0:0:
301,88,27489,1,2,1:2:0:0:
393,39,27648,6,0,L|399:155,1,105,10|0,0:2|0:0,0:0:0:0:
400,179,27968,1,2,1:2:0:0:
263,338,28287,2,0,B|232:321|232:321|151:326,1,105,10|0,0:0|0:0,0:0:0:0:
127,331,28606,1,2,1:2:0:0:
56,284,28766,1,10,0:2:0:0:
53,273,28845,1,8,0:0:0:0:
50,262,28925,1,8,0:0:0:0:
104,198,29085,1,10,0:0:0:0:
50,133,29244,6,0,P|38:79|66:18,1,105,6|0,1:2|0:0,0:0:0:0:
83,4,29563,2,0,L|163:11,1,70,10|10,0:0|0:2,0:0:0:0:
182,40,29803,1,8,0:0:0:0:
182,40,29883,1,2,0:1:0:0:
260,10,30042,1,2,0:1:0:0:
326,61,30202,1,2,0:1:0:0:
300,162,30361,6,0,P|250:200|227:293,1,140,6|2,1:2|1:2,0:0:0:0:
235,354,30840,2,0,P|190:355|157:363,1,70,8|8,0:0|0:0,0:0:0:0:
135,377,31079,1,8,0:0:0:0:
135,377,31159,1,8,0:0:0:0:
67,327,31319,1,2,0:1:0:0:
58,243,31478,1,2,0:1:0:0:
114,180,31638,1,2,0:1:0:0:
218,180,31797,6,0,P|289:169|327:103,1,125.999996154785,6|2,1:2|0:2,0:0:0:0:
330,47,32276,1,2,1:2:0:0:
408,71,32436,2,0,L|414:223,1,125.999996154785,10|0,0:0|1:0,0:0:0:0:
418,278,32914,1,0,1:0:0:0:
277,351,33234,1,10,0:0:0:0:
277,351,33393,2,0,P|267:302|250:269,1,62.9999980773926,2|2,1:2|1:2,0:0:0:0:
198,238,33712,2,0,P|208:189|225:156,1,62.9999980773926,10|0,0:0|0:0,0:0:0:0:
261,111,34031,5,2,1:2:0:0:
180,96,34191,1,2,0:0:0:0:
98,82,34351,2,0,L|94:157,1,62.9999980773926,4|2,1:2|1:2,0:0:0:0:
5,212,34670,1,2,0:2:0:0:
15,292,34829,1,2,1:2:0:0:
26,373,34989,1,10,0:2:0:0:
102,344,35148,5,2,0:2:0:0:
102,344,35308,2,0,L|180:350,1,62.9999980773926,2|2,1:2|1:2,0:0:0:0:
234,305,35627,1,2,0:2:0:0:
181,241,35787,1,10,0:2:0:0:
181,241,35946,2,0,P|170:192|175:160,1,62.9999980773926,2|0,1:2|1:0,0:0:0:0:
190,99,36266,1,10,0:2:0:0:
270,94,36424,1,10,0:2:0:0:
270,94,36584,2,0,P|315:85|345:60,1,62.9999980773926,10|0,0:2|0:0,0:0:0:0:
419,0,36903,6,0,L|427:129,1,125.999996154785,4|0,1:0|0:0,0:0:0:0:
370,185,37383,1,2,1:2:0:0:
370,185,37462,1,0,1:0:0:0:
370,185,37542,2,0,P|313:176|242:219,1,125.999996154785,12|0,0:0|1:0,0:0:0:0:
202,269,38021,1,2,1:2:0:0:
202,269,38180,2,0,P|149:245|69:268,1,125.999996154785,2|0,0:2|1:0,0:0:0:0:
9,224,38659,1,2,1:2:0:0:
9,224,38819,2,0,L|14:78,1,125.999996154785,10|0,0:2|1:0,0:0:0:0:
74,44,39297,1,0,0:0:0:0:
155,118,39457,6,0,P|203:119|261:42,1,125.999996154785,4|0,1:2|0:0,0:0:0:0:
322,254,40095,2,0,P|274:253|216:330,1,125.999996154785,10|2,0:2|1:2,0:0:0:0:
44,196,40734,5,6,1:2:0:0:
108,40,41052,1,4,1:2:0:0:
275,18,41372,1,4,1:0:0:0:
377,151,41691,1,10,0:2:0:0:
325,217,41851,1,2,1:2:0:0:
236,161,42010,6,0,P|160:158|106:200,1,140,4|10,1:2|0:2,0:0:0:0:
67,266,42489,1,0,0:0:0:0:
67,266,42648,2,0,L|-5:261,2,70,2|0|10,1:2|1:0|0:2,0:0:0:0:
204,362,43287,1,2,1:2:0:0:
204,362,43446,2,0,L|276:357,1,70,2|8,1:2|0:0,0:0:0:0:
333,297,43765,2,0,P|310:245|321:150,1,140,2|0,1:2|1:0,0:0:0:0:
361,94,44244,1,10,0:2:0:0:
162,26,44563,5,2,1:2:0:0:
94,76,44723,1,2,1:2:0:0:
128,152,44883,2,0,L|133:239,1,70,8|2,0:0|0:2,0:0:0:0:
202,267,45202,1,2,1:2:0:0:
202,267,45361,2,0,P|257:243|339:268,1,140,2|2,1:2|1:2,0:0:0:0:
421,317,45839,6,0,P|428:283|446:241,1,70,8|0,0:0|1:0,0:0:0:0:
382,179,46159,2,0,P|375:145|357:103,1,70,8|0,0:0|1:0,0:0:0:0:
285,62,46478,2,0,P|279:96|268:129,1,70,12|8,0:0|0:0,0:0:0:0:
180,152,46797,2,0,P|174:117|163:84,1,70,0|8,1:0|0:0,0:0:0:0:
113,239,47117,5,4,1:2:0:0:
227,296,47436,1,2,0:2:0:0:
295,246,47595,1,0,1:0:0:0:
295,246,47675,1,0,1:0:0:0:
295,246,47755,2,0,P|347:209|426:215,1,140,10|4,0:2|1:2,0:0:0:0:
489,261,48234,1,0,0:0:0:0:
453,359,48393,5,4,1:0:0:0:
453,359,48553,1,0,0:0:0:0:
375,326,48712,2,0,L|291:329,1,70,2|0,0:2|1:2,0:0:0:0:
232,371,49031,1,10,0:2:0:0:
159,328,49191,1,8,0:0:0:0:
159,328,49271,1,8,0:0:0:0:
159,328,49351,2,0,P|144:289|150:236,1,70,10|10,0:2|0:2,0:0:0:0:
174,160,49669,5,6,1:2:0:0:
174,160,49829,1,2,1:2:0:0:
257,170,49988,1,2,1:2:0:0:
257,170,50148,1,10,0:2:0:0:
288,248,50308,5,0,1:0:0:0:
369,268,50468,1,2,1:2:0:0:
437,220,50627,2,0,L|444:140,1,70,2|2,1:2|1:2,0:0:0:0:
256,192,50946,12,8,52222,0:0:0:0:
168,204,52542,5,8,0:0:0:0:
306,224,52861,2,0,L|393:221,1,70,8|8,0:0|0:0,0:0:0:0:
406,239,53101,1,8,0:0:0:0:
406,239,53180,1,2,1:2:0:0:
469,155,53340,5,8,0:0:0:0:
469,155,53420,1,8,0:0:0:0:
469,155,53500,2,0,B|484:117|484:117|461:7,1,140,6|8,1:2|0:0,0:0:0:0:
389,58,53978,2,0,P|318:72|248:36,1,140,2|2,1:2|1:2,0:0:0:0:
173,45,54457,2,0,P|185:78|196:130,1,70,10|2,0:2|0:2,0:0:0:0:
248,214,54776,5,2,1:2:0:0:
248,214,54936,2,0,P|256:180|268:147,1,70,2|8,1:2|0:0,0:0:0:0:
346,116,55255,2,0,P|380:175|391:267,1,140,2|2,1:2|1:2,0:0:0:0:
372,326,55734,2,0,P|425:335|447:345,1,70,10|2,0:2|0:0,0:0:0:0:
505,259,56053,5,2,1:2:0:0:
333,152,56372,2,0,L|251:158,1,70,14|2,0:2|0:0,0:0:0:0:
200,213,56691,1,2,1:2:0:0:
52,64,57010,6,0,P|99:46|157:71,1,105,14|0,0:2|0:0,0:0:0:0:
173,87,57329,1,4,1:0:0:0:
246,46,57489,1,2,1:2:0:0:
313,95,57648,2,0,L|408:90,1,70,10|10,0:2|0:2,0:0:0:0:
412,170,57968,2,0,L|317:175,1,70,2|0,1:2|1:0,0:0:0:0:
237,186,58287,2,0,L|228:229,3,35,10|8|8|8,0:0|0:0|0:0|0:0,0:0:0:0:
248,250,58606,6,0,B|258:336|258:336|226:380,1,140,6|8,1:2|0:0,0:0:0:0:
151,340,59085,2,0,L|10:345,1,140,2|2,1:2|1:2,0:0:0:0:
53,256,59563,2,0,L|151:252,1,70,10|2,0:2|0:2,0:0:0:0:
193,195,59883,5,2,1:2:0:0:
193,195,60042,2,0,P|198:144|190:108,1,70,2|8,1:2|0:0,0:0:0:0:
137,63,60361,2,0,P|191:40|263:75,1,140,2|2,1:2|1:2,0:0:0:0:
316,135,60840,2,0,P|348:116|394:107,1,70,10|0,0:2|0:0,0:0:0:0:
484,115,61159,5,2,1:2:0:0:
399,307,61478,2,0,P|364:294|316:296,1,70,14|0,0:2|0:0,0:0:0:0:
249,310,61797,1,2,1:2:0:0:
179,111,62117,5,14,0:0:0:0:
179,111,62276,1,2,0:0:0:0:
99,180,62436,1,4,1:0:0:0:
21,147,62595,2,0,L|11:227,1,70,10|10,0:2|0:2,0:0:0:0:
33,310,62914,2,0,P|82:269|175:269,1,140,10|8,0:2|0:0,0:0:0:0:
187,278,63313,1,8,0:0:0:0:
187,278,63393,1,8,0:0:0:0:
254,214,63553,5,0,1:0:0:0:
254,214,63633,1,0,1:0:0:0:
254,214,63712,2,0,B|274:259|274:259|261:361,1,140,6|8,1:2|0:0,0:0:0:0:
339,383,64191,2,0,L|362:213,1,140,2|0,1:2|1:0,0:0:0:0:
430,200,64669,2,0,L|422:115,1,70,10|0,0:2|0:2,0:0:0:0:
346,58,64989,5,2,1:2:0:0:
346,58,65148,2,0,P|306:76|257:70,1,70,2|10,1:2|0:2,0:0:0:0:
201,46,65468,2,0,P|148:46|92:111,1,140,2|0,1:2|1:0,0:0:0:0:
96,190,65946,1,10,0:2:0:0:
164,238,66106,1,2,0:2:0:0:
119,333,66266,5,2,1:2:0:0:
327,353,66585,1,14,0:2:0:0:
372,282,66744,1,0,0:0:0:0:
372,282,66904,1,2,1:2:0:0:
235,122,67223,2,0,P|267:129|317:120,1,70,14|2,0:2|0:2,0:0:0:0:
384,92,67542,5,6,1:2:0:0:
384,92,67702,2,0,L|390:174,1,70,2|10,1:2|0:2,0:0:0:0:
452,216,68021,1,2,0:2:0:0:
388,269,68180,2,0,L|330:262,3,35,10|8|8|8,0:2|0:0|0:0|0:0,0:0:0:0:
334,294,68499,2,0,L|276:301,3,35,2|2|2|2,0:1|0:1|0:1|0:1,0:0:0:0:
270,318,68819,6,0,B|281:227|281:227|261:182,1,140,6|8,1:2|0:0,0:0:0:0:
339,153,69297,2,0,L|496:160,1,140,2|2,1:2|1:2,0:0:0:0:
490,76,69776,2,0,L|406:72,1,70,10|0,0:2|0:0,0:0:0:0:
332,13,70095,5,2,1:2:0:0:
332,13,70255,2,0,L|248:16,1,70,2|10,1:2|0:2,0:0:0:0:
206,79,70574,2,0,P|243:128|256:219,1,140,2|2,1:2|1:2,0:0:0:0:
240,286,71053,1,10,0:2:0:0:
307,335,71212,1,2,0:2:0:0:
405,298,71372,5,2,1:2:0:0:
500,110,71691,2,0,L|492:21,1,70,14|0,0:2|0:0,0:0:0:0:
415,8,72010,1,2,1:2:0:0:
275,165,72329,2,0,L|194:159,1,70,14|0,0:2|0:0,0:0:0:0:
116,103,72648,5,2,0:1:0:0:
116,103,72728,1,2,0:1:0:0:
116,103,72808,1,2,0:1:0:0:
209,55,72968,2,0,L|203:9,2,35,2|2|2,0:1|0:1|0:1,0:0:0:0:
299,80,73287,1,0,1:0:0:0:
299,80,73367,1,0,1:0:0:0:
299,80,73446,1,0,1:0:0:0:
375,43,73606,2,0,L|389:165,1,105,14|0,0:0|0:0,0:0:0:0:
418,175,73924,6,0,B|369:162|369:162|270:190,1,140,6|8,1:2|0:0,0:0:0:0:
211,142,74404,2,0,P|198:193|250:264,1,140,0|2,1:0|1:2,0:0:0:0:
319,300,74883,1,10,0:2:0:0:
319,300,75042,1,2,0:0:0:0:
247,344,75202,6,0,L|164:340,1,70,2|0,1:2|1:2,0:0:0:0:
98,270,75521,2,0,L|15:266,1,70,10|0,0:2|0:0,0:0:0:0:
56,187,75840,2,0,L|139:183,1,70,2|0,1:2|1:0,0:0:0:0:
181,120,76159,2,0,L|264:116,1,70,10|0,0:2|0:0,0:0:0:0:
317,167,76478,2,0,P|333:107|293:46,1,140,6|10,1:2|0:2,0:0:0:0:
212,19,76956,2,0,L|127:27,1,70,2|0,0:2|1:0,0:0:0:0:
94,96,77276,1,2,0:2:0:0:
182,153,77435,2,0,P|202:185|213:220,1,70,10|0,0:2|0:0,0:0:0:0:
179,347,77755,5,6,1:2:0:0:
388,360,78073,2,0,P|398:305|422:249,1,105,10|0,0:2|0:0,0:0:0:0:
443,226,78393,1,2,1:2:0:0:
371,181,78553,1,8,0:0:0:0:
371,181,78633,1,8,0:0:0:0:
371,181,78712,2,0,L|330:187,3,35,10|8|8|8,0:2|0:0|0:0|0:0,0:0:0:0:
308,217,79031,5,6,1:2:0:0:
179,310,79351,1,10,0:2:0:0:
115,255,79510,1,2,0:2:0:0:
123,171,79670,2,0,L|129:93,1,70,2|2,1:2|1:2,0:0:0:0:
85,28,79989,1,10,0:2:0:0:
251,3,80308,6,0,L|259:100,1,70,10|0,0:2|1:0,0:0:0:0:
343,132,80627,2,0,L|335:229,1,70,10|0,0:2|1:0,0:0:0:0:
339,237,80867,1,0,1:0:0:0:
339,237,80946,1,2,1:2:0:0:
282,299,81106,1,0,1:0:0:0:
353,376,81265,5,12,0:0:0:0:
436,168,81584,1,6,1:2:0:0:
43,59,82861,5,10,0:2:0:0:
43,59,83021,2,0,L|48:134,1,70,10|10,0:2|0:2,0:0:0:0:
13,205,83340,2,0,P|60:156|138:164,1,140,2|0,1:2|1:0,0:0:0:0:
215,216,83819,1,12,0:0:0:0:
377,82,84137,5,6,1:2:0:0:
455,136,84297,1,8,0:0:0:0:
455,136,84377,1,8,0:0:0:0:
455,136,84457,1,8,0:0:0:0:
407,205,84617,2,0,L|403:287,1,70,4|8,1:0|0:0,0:0:0:0:
343,333,84936,1,2,0:1:0:0:
259,328,85095,1,2,0:1:0:0:
166,377,85255,6,0,P|154:325|161:291,1,70,6|8,0:1|0:0,0:0:0:0:
180,228,85574,1,8,0:0:0:0:
131,158,85734,1,8,0:0:0:0:
184,93,85893,1,8,0:0:0:0:
124,34,86052,2,0,L|73:30,2,35,8|0|0,1:2|1:0|1:0,0:0:0:0:
29,111,86372,2,0,L|64:109,2,35,8|0|0,1:2|1:0|1:0,0:0:0:0:
131,158,86691,5,2,0:1:0:0:
135,174,86771,1,0,0:0:0:0:
139,190,86851,1,2,0:1:0:0:
90,257,87010,1,2,0:1:0:0:
178,325,87170,6,0,B|245:347|244:298|317:324,1,140,4|0,1:0|0:0,0:0:0:0:
