osu file format v14

[General]
AudioFilename: audio.mp3
AudioLeadIn: 0
PreviewTime: 52861
Countdown: 0
SampleSet: Soft
StackLeniency: 0.7
Mode: 0
LetterboxInBreaks: 0
WidescreenStoryboard: 1

[Editor]
Bookmarks: 1159,11372,21585,31797,42010,52223,53500,81585,84138,87648
DistanceSpacing: 0.9
BeatDivisor: 4
GridSize: 4
TimelineZoom: 1.9

[Metadata]
Title:COOLEST (TV Size)
TitleUnicode:COOLEST (TV Size)
Artist:CustomiZ
ArtistUnicode:カスタマイZ
Creator:Crissa
Version:A BIT COOL
Source:坂本ですが?
Tags:Sakamoto desu ga? anime japanese opening op customi-z [-crissaegrim-]
BeatmapID:1967176
BeatmapSetID:941964

[Difficulty]
HPDrainRate:3
CircleSize:3.2
OverallDifficulty:5
ApproachRate:5.5
SliderMultiplier:1.1
SliderTickRate:1

[Events]
//Background and Video events
0,0,"NOTSOCOOL.jpg",0,0
Video,0,"op1.avi"
//Break Periods
//Storyboard Layer 0 (Background)
//Storyboard Layer 1 (Fail)
//Storyboard Layer 2 (Pass)
//Storyboard Layer 3 (Foreground)
//Storyboard Sound Samples

[TimingPoints]
1159,319.148936170213,4,2,69,80,1,0
1478,-100,4,2,69,60,0,0
3393,-100,4,2,69,80,0,0
3632,-100,4,2,69,5,0,0
3712,-100,4,2,69,80,0,0
3871,-100,4,2,69,60,0,0
4031,-100,4,2,69,60,0,0
6265,-100,4,2,69,70,0,0
6664,-100,4,2,69,30,0,0
6903,-100,4,2,69,70,0,0
6983,-100,4,2,69,30,0,0
7222,-100,4,2,69,70,0,0
7302,-100,4,2,69,30,0,0
7541,-100,4,2,69,70,0,0
7621,-100,4,2,69,40,0,0
7861,-100,4,2,69,70,0,0
7940,-100,4,2,69,45,0,0
8180,-100,4,2,69,70,0,0
8260,-100,4,2,69,50,0,0
8499,-100,4,2,69,70,0,0
8579,-100,4,2,69,55,0,0
8818,-100,4,2,69,70,0,0
10654,-100,4,2,69,5,0,0
10734,-100,4,2,69,70,0,0
10893,-100,4,2,69,20,0,0
11052,-100,4,2,69,60,0,0
11291,-100,4,2,69,5,0,0
11371,-100,4,2,69,60,0,0
13845,-100,4,2,69,5,0,0
13924,-100,4,2,69,60,0,0
14164,-100,4,2,69,5,0,0
14244,-100,4,2,69,60,0,0
16079,-100,4,2,69,5,0,0
16159,-100,4,2,69,60,0,0
16398,-100,4,2,69,5,0,0
16477,-100,4,2,69,60,0,0
16717,-100,4,2,69,5,0,0
16797,-100,4,2,69,60,0,0
21584,-100,4,2,69,70,0,0
21823,-100,4,2,69,5,0,0
21903,-100,4,2,69,70,0,0
24057,-100,4,2,69,5,0,0
24137,-100,4,2,69,70,0,0
26611,-100,4,2,69,5,0,0
26690,-100,4,2,69,70,0,0
26930,-100,4,2,69,5,0,0
27010,-100,4,2,69,70,0,0
27249,-100,4,2,69,5,0,0
27329,-100,4,2,69,70,0,0
28526,-100,4,2,69,5,0,0
28605,-100,4,2,69,70,0,0
28685,-100,4,2,69,5,0,0
28765,-100,4,2,69,70,0,0
29483,-100,4,2,69,5,0,0
29563,-100,4,2,69,70,0,0
29643,-100,4,2,69,5,0,0
29722,-100,4,2,69,70,0,0
30600,-100,4,2,69,5,0,0
30680,-100,4,2,69,70,0,0
31796,-100,4,2,69,60,0,0
39057,-100,4,2,69,5,0,0
39137,-100,4,2,69,60,0,0
39377,-100,4,2,69,5,0,0
39456,-100,4,2,69,60,0,0
39855,-100,4,2,69,5,0,0
39935,-100,4,2,69,60,0,0
40972,-100,4,2,69,5,0,0
41052,-100,4,2,69,65,0,0
41291,-100,4,2,69,5,0,0
41371,-100,4,2,69,70,0,0
41611,-100,4,2,69,5,0,0
41690,-100,4,2,69,70,0,0
41770,-100,4,2,69,5,0,0
41850,-100,4,2,69,70,0,0
42009,-100,4,2,69,75,0,0
47116,-100,4,2,69,80,0,0
47355,-100,4,2,69,5,0,0
47435,-100,4,2,69,70,0,0
47515,-100,4,2,69,5,0,0
47595,-100,4,2,69,70,0,0
48791,-100,4,2,69,5,0,0
48871,-100,4,2,69,70,0,0
52302,-100,4,2,69,5,0,0
52382,-100,4,2,69,70,0,0
53499,-100,4,2,69,80,0,1
81583,-100,4,2,69,80,0,1
81584,-100,4,2,69,90,0,0
83657,-100,4,2,69,90,0,0
83658,-100,4,2,69,80,0,0
84056,-100,4,2,69,80,0,0
84057,-100,4,2,69,5,0,0
84136,-100,4,2,69,5,0,0
84137,-100,4,2,69,80,0,0
86690,-90.9090909090909,4,2,69,85,0,0
87168,-90.9090909090909,4,2,69,85,0,0
87169,-90.9090909090909,4,2,69,90,0,0
87487,-90.9090909090909,4,2,69,90,0,0
87488,-90.9090909090909,4,2,69,5,0,0

[Colours]
Combo1 : 148,194,146
Combo2 : 179,199,225
Combo3 : 169,214,171
Combo4 : 128,156,191

[HitObjects]
130,281,1159,5,4,1:0:0:0:
225,336,1478,1,2,0:0:0:0:
225,336,1637,2,0,L|336:345,1,110,2|2,0:0|0:0,0:0:0:0:
384,320,2116,1,2,0:0:0:0:
384,320,2276,6,0,L|374:208,1,110,2|2,0:0|0:0,0:0:0:0:
336,170,2754,2,0,L|341:114,2,55,2|2|2,0:0|0:0|0:0,0:0:0:0:
226,185,3393,1,4,1:2:0:0:
155,99,3712,5,4,1:2:0:0:
71,170,4031,1,2,0:0:0:0:
71,170,4190,2,0,L|82:299,1,110,2|2,0:0|0:0,0:0:0:0:
87,334,4669,1,2,0:0:0:0:
184,285,4989,5,8,0:0:0:0:
184,285,5148,1,2,1:2:0:0:
249,373,5468,2,0,L|360:363,1,110,2|8,1:2|0:0,0:0:0:0:
396,323,5946,2,0,L|402:251,1,55,8|8,0:0|0:0,0:0:0:0:
387,212,6266,6,0,L|267:201,1,110,4|8,1:2|0:0,0:0:0:0:
216,111,6904,2,0,L|96:100,1,110,0|8,1:0|0:0,0:0:0:0:
155,3,7542,5,0,1:0:0:0:
263,22,7861,1,0,1:0:0:0:
300,125,8180,1,0,1:0:0:0:
229,208,8500,1,0,1:0:0:0:
120,188,8818,6,0,P|128:255|155:291,1,110,4|8,1:2|0:0,0:0:0:0:
199,315,9297,2,0,L|314:304,1,110,4|2,1:1|0:1,0:0:0:0:
361,319,9776,1,2,0:1:0:0:
361,319,9936,6,0,P|390:272|393:218,1,110,4|8,1:2|0:0,0:0:0:0:
371,168,10414,1,4,1:2:0:0:
476,134,10734,1,4,1:2:0:0:
275,42,11372,6,0,P|251:98|260:172,1,110,4|8,1:2|0:0,0:0:0:0:
277,194,11851,1,2,0:0:0:0:
277,194,12010,2,0,L|165:184,1,110,2|10,1:2|0:0,0:0:0:0:
124,149,12488,2,0,L|133:260,1,110,2|0,1:2|1:0,0:0:0:0:
142,313,12968,1,10,0:2:0:0:
41,356,13287,1,2,1:2:0:0:
31,246,13606,1,10,0:2:0:0:
22,136,13925,6,0,P|84:150|118:181,1,110,2|8,1:2|0:0,0:0:0:0:
141,229,14404,1,2,0:0:0:0:
141,229,14563,2,0,P|184:182|227:168,1,110,2|8,1:2|0:0,0:0:0:0:
274,196,15042,2,0,L|405:184,1,110,2|2,1:2|1:2,0:0:0:0:
419,144,15521,1,10,0:2:0:0:
485,231,15840,1,2,1:2:0:0:
442,331,16159,1,10,0:0:0:0:
333,343,16478,6,0,L|209:332,1,110,6|10,1:2|0:2,0:0:0:0:
179,232,17117,2,0,L|55:242,1,110,2|10,1:2|0:2,0:0:0:0:
20,265,17595,2,0,L|30:141,2,110,2|2|2,1:2|1:2|0:0,0:0:0:0:
35,317,18393,1,2,1:2:0:0:
139,352,18712,1,10,0:2:0:0:
216,273,19031,6,0,L|227:145,1,110,2|8,1:2|0:0,0:0:0:0:
270,131,19510,1,2,0:0:0:0:
270,131,19670,2,0,L|329:125,2,55,2|2|8,1:2|1:2|0:0,0:0:0:0:
238,86,20148,2,0,L|124:76,2,110,2|2|2,1:2|1:2|1:2,0:0:0:0:
271,41,20946,1,2,1:2:0:0:
380,36,21265,1,8,0:0:0:0:
434,129,21585,6,0,P|426:187|393:233,1,110,4|8,1:2|0:0,0:0:0:0:
343,236,22063,1,2,0:2:0:0:
343,236,22223,2,0,P|278:228|233:250,1,110,2|10,1:2|0:2,0:0:0:0:
200,285,22701,2,0,L|189:161,1,110,2|2,1:2|1:2,0:0:0:0:
141,150,23180,1,10,0:2:0:0:
111,51,23500,1,2,1:2:0:0:
220,46,23819,5,10,0:2:0:0:
329,41,24138,2,0,L|318:160,1,110,2|10,1:2|0:2,0:0:0:0:
271,176,24617,1,2,0:2:0:0:
271,176,24776,2,0,L|281:295,1,110,2|10,1:2|0:2,0:0:0:0:
252,333,25255,1,2,1:2:0:0:
142,320,25574,2,0,L|132:210,1,110,2|2,1:2|0:2,0:0:0:0:
165,166,26053,1,2,1:2:0:0:
60,131,26372,5,10,0:2:0:0:
142,58,26691,1,6,1:2:0:0:
237,111,27010,5,10,0:0:0:0:
319,38,27329,1,2,1:2:0:0:
414,91,27648,6,0,P|388:139|398:212,1,110,10|2,0:2|1:2,0:0:0:0:
438,292,28287,1,10,0:0:0:0:
335,331,28606,1,2,1:2:0:0:
335,331,28766,2,0,L|218:320,1,110,10|10,0:2|0:0,0:0:0:0:
180,352,29244,5,6,1:2:0:0:
168,242,29563,1,10,0:0:0:0:
156,132,29883,1,2,0:1:0:0:
156,132,30042,2,0,L|215:126,1,55,2|2,0:1|0:1,0:0:0:0:
250,88,30361,2,0,P|318:84|350:175,1,165,6|8,1:2|0:0,0:0:0:0:
327,269,31159,1,8,0:0:0:0:
223,305,31478,1,2,0:1:0:0:
125,254,31797,6,0,B|111:218|111:218|117:142,1,110,6|2,1:2|0:2,0:0:0:0:
77,108,32276,1,2,1:2:0:0:
77,108,32436,2,0,L|189:98,1,110,10|0,0:0|1:0,0:0:0:0:
223,57,32914,1,0,1:0:0:0:
314,118,33234,1,10,0:0:0:0:
314,118,33393,2,0,L|319:177,1,55,2|2,1:2|1:2,0:0:0:0:
359,209,33712,1,10,0:0:0:0:
278,284,34031,6,0,L|198:277,2,55,2|2|4,1:2|0:0|1:2,0:0:0:0:
314,324,34510,1,2,1:2:0:0:
314,324,34670,2,0,L|393:317,1,55,2|2,0:2|1:2,0:0:0:0:
416,346,34989,2,0,L|404:210,1,110,10|2,0:2|1:2,0:0:0:0:
432,187,35468,5,2,1:2:0:0:
432,187,35627,1,2,0:2:0:0:
322,174,35946,1,2,1:2:0:0:
212,161,36266,1,10,0:2:0:0:
256,263,36585,1,10,0:2:0:0:
300,365,36903,6,0,P|339:327|348:262,1,110,4|0,1:0|0:0,0:0:0:0:
327,166,37542,2,0,L|197:155,1,110,12|0,0:0|1:0,0:0:0:0:
110,131,38180,2,0,L|119:250,1,110,2|0,0:2|1:0,0:0:0:0:
177,334,38818,2,0,P|237:338|282:370,1,110,10|0,0:2|1:0,0:0:0:0:
335,271,39457,5,4,1:2:0:0:
319,162,39776,1,0,0:0:0:0:
420,119,40095,1,10,0:2:0:0:
404,10,40414,1,2,1:2:0:0:
317,78,40734,6,0,L|189:66,1,110,6|0,1:2|1:0,0:0:0:0:
112,124,41372,2,0,L|-15:112,1,110,4|10,1:0|0:2,0:0:0:0:
22,222,42010,5,4,1:2:0:0:
130,241,42329,2,0,L|185:236,1,55,10|0,0:2|0:0,0:0:0:0:
223,197,42648,2,0,L|278:201,2,55,2|0|10,1:2|1:0|0:2,0:0:0:0:
178,96,43287,2,0,L|233:91,2,55,2|2|8,1:2|1:2|0:0,0:0:0:0:
142,137,43766,2,0,P|70:121|17:210,1,165,2|10,1:2|0:2,0:0:0:0:
33,292,44563,6,0,L|100:297,1,55,2|2,1:2|1:2,0:0:0:0:
134,326,44883,2,0,L|201:320,1,55,8|2,0:0|0:2,0:0:0:0:
235,292,45202,1,2,1:2:0:0:
235,292,45361,2,0,P|303:305|355:267,1,110,2|2,1:2|1:2,0:0:0:0:
366,240,45840,5,8,0:0:0:0:
360,130,46159,1,8,0:0:0:0:
261,80,46478,1,12,0:0:0:0:
168,140,46797,1,0,1:0:0:0:
174,250,47116,1,4,1:2:0:0:
81,310,47436,6,0,L|5:303,2,55,2|0|10,0:2|1:0|0:2,0:0:0:0:
174,250,48074,1,4,1:2:0:0:
122,152,48393,2,0,L|181:146,1,55,4|0,1:0|0:0,0:0:0:0:
212,105,48712,2,0,L|271:110,1,55,2|0,0:2|1:2,0:0:0:0:
304,150,49031,1,10,0:2:0:0:
408,114,49351,1,10,0:2:0:0:
470,204,49670,6,0,L|398:210,1,55,6|2,1:2|1:2,0:0:0:0:
380,251,49989,2,0,L|308:244,1,55,2|10,1:2|0:2,0:0:0:0:
290,204,50308,2,0,L|218:210,1,55,0|2,1:0|1:2,0:0:0:0:
200,251,50627,1,2,1:2:0:0:
256,192,50946,12,8,52223,0:0:0:0:
160,293,52861,5,8,0:0:0:0:
141,186,53180,1,2,1:2:0:0:
224,116,53499,6,0,B|271:120|271:120|280:112|280:112|344:118,1,110,6|8,1:2|0:0,0:0:0:0:
358,164,53978,2,0,L|473:174,1,110,2|2,1:2|1:2,0:0:0:0:
510,138,54457,1,10,0:2:0:0:
421,73,54776,1,2,1:2:0:0:
421,73,54936,1,2,1:2:0:0:
358,164,55255,2,0,L|248:154,1,110,2|2,1:2|1:2,0:0:0:0:
204,187,55734,2,0,L|137:181,1,55,10|2,0:2|0:0,0:0:0:0:
105,215,56053,5,2,1:2:0:0:
49,120,56372,1,14,0:2:0:0:
142,61,56691,5,2,1:2:0:0:
189,161,57010,2,0,L|244:156,1,55,14|0,0:2|0:0,0:0:0:0:
288,191,57329,6,0,L|279:81,1,110,4|10,1:0|0:2,0:0:0:0:
362,10,57967,2,0,L|366:65,1,55,2|0,1:2|1:0,0:0:0:0:
419,88,58286,2,0,L|414:143,1,55,10|8,0:0|0:0,0:0:0:0:
457,178,58606,6,0,B|425:180|425:180|410:198|410:198|338:204,1,110,6|8,1:2|0:0,0:0:0:0:
321,246,59085,2,0,L|201:256,1,110,2|2,1:2|1:2,0:0:0:0:
184,303,59563,1,10,0:2:0:0:
105,225,59883,5,2,1:2:0:0:
105,225,60041,1,2,1:2:0:0:
192,158,60361,2,0,P|192:91|136:39,1,110,2|2,1:2|1:2,0:0:0:0:
117,36,60839,2,0,L|54:42,1,55,10|0,0:2|0:0,0:0:0:0:
23,81,61159,5,2,1:2:0:0:
57,185,61478,1,14,0:2:0:0:
161,218,61797,5,2,1:2:0:0:
260,171,62116,2,0,L|325:181,1,55,14|2,0:0|0:0,0:0:0:0:
350,222,62435,6,0,L|404:212,1,55,4|10,1:0|0:2,0:0:0:0:
447,247,62754,1,10,0:2:0:0:
447,247,62914,2,0,L|436:129,1,110,10|8,0:2|0:0,0:0:0:0:
390,108,63393,1,8,0:0:0:0:
463,26,63712,6,0,B|427:22|427:22|414:25|414:25|347:19,1,110,6|8,1:2|0:0,0:0:0:0:
307,50,64191,2,0,L|183:39,1,110,2|0,1:2|1:0,0:0:0:0:
159,80,64670,1,10,0:2:0:0:
212,175,64988,6,0,L|286:181,1,55,2|2,1:2|1:2,0:0:0:0:
301,138,65307,1,10,0:2:0:0:
301,138,65467,2,0,P|338:113|404:128,1,110,2|0,1:2|1:0,0:0:0:0:
441,159,65946,1,10,0:2:0:0:
434,269,66266,5,2,1:2:0:0:
328,298,66585,1,14,0:2:0:0:
294,193,66904,5,2,1:2:0:0:
188,164,67223,1,14,0:2:0:0:
149,264,67541,6,0,P|120:267|79:281,1,55,6|2,1:2|1:2,0:0:0:0:
54,312,67861,2,0,L|43:242,1,55,10|2,0:2|0:2,0:0:0:0:
4,221,68180,2,0,L|9:87,1,110,10|2,0:2|0:1,0:0:0:0:
27,2,68819,6,0,B|58:4|58:4|73:18|73:18|153:25,1,110,6|8,1:2|0:0,0:0:0:0:
167,64,69297,2,0,L|278:73,1,110,2|2,1:2|1:2,0:0:0:0:
325,49,69776,1,10,0:2:0:0:
417,108,70095,1,2,1:2:0:0:
417,108,70255,2,0,L|410:183,1,55,2|10,1:2|0:2,0:0:0:0:
368,195,70574,2,0,L|378:314,1,110,2|2,1:2|1:2,0:0:0:0:
423,335,71053,1,10,0:2:0:0:
323,382,71372,5,2,1:2:0:0:
276,282,71691,1,14,0:2:0:0:
169,253,72010,5,2,1:2:0:0:
216,153,72329,1,14,0:2:0:0:
325,149,72648,6,0,P|315:108|269:58,1,110,2|2,0:1|0:1,0:0:0:0:
217,43,73127,1,2,0:1:0:0:
217,43,73286,2,0,L|99:51,1,110,0|14,1:0|0:0,0:0:0:0:
43,140,73925,6,0,P|20:207|44:253,1,110,6|8,1:2|0:0,0:0:0:0:
77,275,74404,2,0,L|212:286,1,110,0|2,1:0|1:2,0:0:0:0:
223,324,74883,1,10,0:2:0:0:
333,322,75202,6,0,P|352:262|333:212,1,110,2|10,1:2|0:2,0:0:0:0:
241,166,75840,2,0,P|221:115|235:63,1,110,2|10,1:2|0:2,0:0:0:0:
333,11,76478,2,0,P|386:19|424:58,1,110,6|10,1:2|0:2,0:0:0:0:
448,107,76957,2,0,L|436:234,1,110,2|2,0:2|0:2,0:0:0:0:
463,265,77436,1,10,0:2:0:0:
370,324,77755,5,6,1:2:0:0:
281,259,78074,2,0,P|224:254|173:284,2,110,10|2|10,0:2|1:2|0:2,0:0:0:0:
370,324,79031,1,6,1:2:0:0:
463,265,79351,1,10,0:2:0:0:
436,158,79670,2,0,L|320:147,1,110,2|10,1:2|0:2,0:0:0:0:
250,69,80308,6,0,L|134:79,1,110,10|10,0:2|0:2,0:0:0:0:
77,169,80946,2,0,P|139:182|176:224,1,110,2|12,1:2|0:0,0:0:0:0:
198,320,81584,1,6,1:2:0:0:
425,134,82861,5,10,0:2:0:0:
425,134,83020,2,0,P|423:105|419:65,1,55,10|10,0:2|0:2,0:0:0:0:
374,50,83340,2,0,L|250:60,1,110,2|0,1:2|1:0,0:0:0:0:
219,27,83819,1,12,0:0:0:0:
150,113,84137,5,6,1:2:0:0:
150,113,84297,2,0,L|156:188,1,55,8|8,0:0|0:0,0:0:0:0:
197,203,84617,2,0,P|261:185|327:213,1,110,4|2,1:0|0:1,0:0:0:0:
346,227,85095,1,2,0:1:0:0:
346,227,85254,2,0,P|362:162|419:119,1,110,6|8,0:1|0:0,0:0:0:0:
440,106,85734,1,8,0:0:0:0:
347,45,86053,1,8,1:2:0:0:
247,95,86372,1,8,1:2:0:0:
154,34,86690,6,0,P|142:63|139:99,1,60.5000018463135,2|2,0:1|0:1,0:0:0:0:
144,146,87010,1,2,0:1:0:0:
144,146,87169,1,4,1:0:0:0:
